#TITLE:kioku;
#SUBTITLE:[unconnected];
#ARTIST:atmbzk;
#TITLETRANSLIT:;
#SUBTITLETRANSLIT:;
#ARTISTTRANSLIT:;
#GENRE:;
#CREDIT:;
#BANNER:;
#BACKGROUND:;
#LYRICSPATH:;
#CDTITLE:;
#MUSIC:kioku (unconnected).mp3;
#OFFSET:-0.040;
#SAMPLESTART:14.623;
#SAMPLELENGTH:12.000;
#SELECTABLE:YES;
#BPMS:0.000=140.000;
#STOPS:;
#BGCHANGES:;
#KEYSOUNDS:;

//---------------dance-single - Blank----------------
#NOTES:
     dance-single:
     Blank:
     Hard:
     9:
     0.521,0.000,0.220,0.060,1.000: // measure 1
0000
0000
0000
0000
,  // measure 2
0000
0000
0000
0000
,  // measure 3
0000
0000
0000
0000
,  // measure 4
0000
0000
0000
0000
,  // measure 5
0000
0000
0000
0000
0000
0000
1000
0000
0000
0000
1001
0000
0001
0100
0001
0000
,  // measure 6
0000
0000
0000
0000
0000
0000
0011
0000
0000
0000
0100
1000
0100
1000
0001
0000
,  // measure 7
0000
0000
0000
0000
0000
0000
0100
0000
0000
0000
0110
0000
1000
0001
1000
0000
,  // measure 8
0000
0000
0000
0000
0000
0000
0000
2002
,  // measure 9
0000
0000
3003
0000
,  // measure 10
1001
0000
0000
1000
0000
0001
0000
0000
0001
0100
0000
0010
0000
1000
0000
0000
,  // measure 11
0001
0000
0000
0010
0000
0100
0000
0000
0100
0010
0000
0001
0000
1000
0000
0000
,  // measure 12
0010
0000
0000
0100
0000
0001
0000
0000
0001
0010
0000
0100
0000
1000
0000
0000
,  // measure 13
0010
0000
0000
0100
0000
0001
0000
0000
0001
1000
0000
0100
0000
0010
0000
0000
,  // measure 14
0001
0000
0000
0100
0000
0010
0000
0000
0010
1000
0000
0100
0000
1000
0000
0000
,  // measure 15
0001
0000
0000
0100
0000
0010
0000
0000
0010
0100
0000
1000
0000
0001
0000
0000
,  // measure 16
0010
0000
0000
1000
0000
0100
0000
0000
0100
0010
0000
0001
0000
1000
0000
0000
,  // measure 17
0010
0000
0000
0100
0000
0001
0000
0000
0001
0010
0000
0100
0000
1000
0000
0000
,  // measure 18
1001
0000
0000
0001
0000
0101
0000
0000
0100
0010
0000
1000
0000
0100
0000
0000
,  // measure 19
1100
0000
0000
1000
0000
1010
0000
0000
0010
0100
0000
0001
0000
0010
0000
0000
,  // measure 20
0110
0000
0000
0100
0000
1100
0000
0000
1000
0001
0000
0100
0000
0010
0000
0000
,  // measure 21
1010
0000
0000
1000
0000
1001
0000
0000
0001
0010
0000
0100
0000
1000
0000
0000
,  // measure 22
1001
0000
0000
0001
0000
0101
0000
0000
0100
0010
0000
1000
0000
0100
1000
0000
,  // measure 23
0001
0000
0000
0100
0000
0110
0000
0000
0000
1000
0000
0001
0000
0000
0000
0000
,  // measure 24
0011
0000
0000
0100
0000
1000
0000
0000
1000
0010
0000
0100
0000
0001
0000
0000
,  // measure 25
0011
0000
0000
0100
0000
1000
0000
0000
1000
0001
0000
0100
0000
0020
0000
0000
,  // measure 26
0030
1000
0000
0100
0000
0010
0000
0000
0010
0000
0000
0001
0000
0100
0000
0000
,  // measure 27
0000
0100
0000
0010
0000
1000
0000
0000
1000
0000
0000
0001
0000
0010
0000
0000
,  // measure 28
0000
0010
0000
0001
0000
0100
0000
0010
0000
1000
0000
0100
0000
0010
0001
0000
,  // measure 29
0001
0010
0000
0100
0000
1000
0000
0001
0000
0100
0000
0010
0000
1000
0000
0000
,  // measure 30
1000
0001
0000
0010
0000
0100
0000
0000
1000
0000
0000
0001
0000
0100
0000
0000
,  // measure 31
0000
0010
0000
1000
0000
0100
0000
1000
0000
0001
0000
0100
0000
0010
0000
0000
,  // measure 32
0000
1000
0000
0001
0000
0010
0000
0100
0000
1000
0000
0001
0000
0100
0010
0000
,  // measure 33
0100
0010
0000
1000
0000
0100
0000
1000
0000
0001
0000
0100
0000
0010
0000
0000
,  // measure 34
0000
1000
0000
0001
0000
0010
0000
0000
0001
0000
0000
1000
0000
0010
0000
0000
,  // measure 35
0000
0100
0000
0001
0000
1000
0000
0100
0000
1000
0000
0001
0000
0100
0000
0000
,  // measure 36
0000
0010
0000
1000
0000
0100
0000
0000
0000
0010
0000
0000
0000
0100
0000
0000
,  // measure 37
0000
1000
0000
0000
0000
0001
0000
0000
0000
0100
0000
0000
0000
0010
0000
0000
,  // measure 38
0000
1000
0000
0100
0000
0010
0000
0000
0001
0000
0000
0100
0000
0010
0000
0000
,  // measure 39
0000
1000
0000
0100
0000
1000
0000
0001
0000
0100
0000
0010
0000
1000
0000
0000
,  // measure 40
1000
0001
0000
0010
0000
0100
0000
0000
0000
1100
0000
0000
0000
0011
0000
0000
,  // measure 41
2002
0000
0000
3003
,  // measure 42
1000
0000
0010
0000
1000
0000
0000
0010
0000
0000
0100
0000
0001
0000
0000
0000
,  // measure 43
0010
0000
0001
0000
0010
0000
0000
0001
0000
0000
0010
0000
0001
0000
0000
0000
,  // measure 44
1000
0000
0100
0000
1000
0000
0000
0001
0000
0000
0100
0000
0010
0000
0000
0000
,  // measure 45
1000
0000
0100
0000
0010
0000
0000
0001
0000
0000
1000
0000
1001
0000
0000
0000
,  // measure 46
1000
0000
0010
0000
0100
0000
0000
0001
0000
0000
0010
0000
0100
0000
0000
0000
,  // measure 47
1000
0000
0001
0000
1000
0000
0000
0100
0000
0000
0010
0000
0001
0000
0000
0000
,  // measure 48
0100
0000
0010
0000
1000
0000
0000
0001
0000
0000
0010
0000
0000
0100
0000
0000
,  // measure 49
1000
0000
0001
0000
0100
0000
0000
0010
0000
0000
1000
0000
0000
0100
0000
0000
,  // measure 50
1000
0000
0000
0100
0000
1000
0000
0000
0001
0000
0100
0000
0010
1000
0000
0010
,  // measure 51
1000
0000
0000
0001
0000
0010
0000
0000
0100
0000
1000
0000
0001
0100
0000
0001
,  // measure 52
0100
0000
0000
0010
0000
1000
0000
0000
0001
0000
0100
0000
0010
1000
0000
0010
,  // measure 53
0000
0100
0000
0001
0000
0000
0000
1000
0000
0100
0000
0010
0001
0000
0100
0000
,  // measure 54
0010
0000
0000
1000
0000
0001
0000
0000
1000
0000
0100
0000
0010
0001
0000
0010
,  // measure 55
0001
0000
0000
0100
0000
0010
0000
0000
0100
0000
0001
0000
1000
0100
0000
1000
,  // measure 56
0100
0000
0000
0010
0000
0001
0000
0000
0100
0000
0010
0000
1000
0001
0000
1000
,  // measure 57
0000
0001
0000
0010
0000
0000
0000
0100
0000
1000
0000
0002
0000
0000
0000
0000
,  // measure 58
0000
0000
0003
0000
;

//---------------dance-single - Blank----------------
#NOTES:
     dance-single:
     Blank:
     Easy:
     5:
     0.218,0.000,0.050,0.040,0.321: // measure 1
0000
0000
0000
0000
,  // measure 2
0000
0000
0000
0000
,  // measure 3
0000
0000
0000
0000
,  // measure 4
0000
0000
0000
0000
,  // measure 5
0000
0000
0000
1000
0000
0001
0000
1001
,  // measure 6
0000
0000
0000
0010
0000
0100
0000
0110
,  // measure 7
0000
0000
0000
0010
0000
0100
0000
1001
,  // measure 8
0000
0000
0000
0000
0000
0000
0000
0200
,  // measure 9
0000
0000
0300
0000
,  // measure 10
0010
0000
0000
0000
0000
0001
0000
0000
0000
0010
0000
0000
0000
0000
0000
0000
,  // measure 11
0001
0000
0000
0000
0000
1000
0000
0000
0000
0001
0000
0000
0000
0000
0000
0000
,  // measure 12
0100
0000
0000
0000
0000
0010
0000
0000
0000
0100
0000
0000
0000
0000
0000
0000
,  // measure 13
0010
0000
0000
0000
0000
1000
0000
0000
0000
0010
0000
0000
0000
0000
0000
0000
,  // measure 14
1000
0000
0000
0000
0000
0001
0000
0000
0000
1000
0000
0000
0000
0000
0000
0000
,  // measure 15
0001
0000
0000
0000
0000
0010
0000
0000
0000
0001
0000
0000
0000
0000
0000
0000
,  // measure 16
1000
0000
0000
0000
0000
0100
0000
0000
0000
1000
0000
0000
0000
0000
0000
0000
,  // measure 17
0001
0000
0000
0000
0000
0100
0000
0000
0000
0001
0000
0000
0000
0000
0000
0000
,  // measure 18
0010
0000
0000
0000
0000
0100
0000
0000
0000
0010
0000
0000
0000
0000
0000
0000
,  // measure 19
0100
0000
0000
0000
0000
1000
0000
0000
0000
0100
0000
0000
0000
0000
0000
0000
,  // measure 20
1000
0000
0000
0000
0000
0001
0000
0000
0000
1000
0000
0000
0000
0000
0000
0000
,  // measure 21
0010
0000
0000
0000
0000
1000
0000
0000
0000
0010
0000
0000
0000
0000
0000
0000
,  // measure 22
0100
0000
0000
0000
0000
0010
0000
0000
0000
0100
0000
0000
0000
0000
0000
0000
,  // measure 23
0001
0000
0000
0000
0000
1000
0000
0000
0000
0002
0000
0000
0000
0000
0000
0000
,  // measure 24
0013
0000
0000
0000
0000
0001
0000
0000
0000
0010
0000
0000
0000
0000
0000
0000
,  // measure 25
0100
0000
0000
0000
0000
1000
0000
0000
0000
0100
0000
0000
0000
0000
0000
0000
,  // measure 26
0000
1000
0000
0000
0000
0000
0000
0000
0000
0010
0000
0000
0000
0000
0000
0000
,  // measure 27
0000
0100
0000
0000
0000
0000
0000
0000
0000
0001
0000
0000
0000
0000
0000
0000
,  // measure 28
0000
0010
0000
0000
0000
0000
0000
0000
0000
0100
0000
0000
0000
0000
0000
0000
,  // measure 29
0000
1000
0000
0000
0000
0000
0000
0000
0000
0001
0000
0000
0000
0000
0000
0000
,  // measure 30
0000
0100
0000
0000
0000
0000
0000
0000
0000
0010
0000
0000
0000
0000
0000
0000
,  // measure 31
0000
1000
0000
0000
0000
0000
0000
0000
0000
0001
0000
0000
0000
0000
0000
0000
,  // measure 32
0000
0010
0000
0000
0000
0000
0000
0000
0000
0100
0000
0000
0000
0000
0000
0000
,  // measure 33
0000
1000
0000
0000
0000
0000
0000
0000
0000
0001
0000
0000
0000
0000
0000
0000
,  // measure 34
0000
0100
0000
0000
0000
0000
0000
0000
0000
1000
0000
0000
0000
0000
0000
0000
,  // measure 35
0000
0010
0000
0000
0000
0000
0000
0000
0000
0001
0000
0000
0000
0000
0000
0000
,  // measure 36
0000
0100
0000
0000
0000
0000
0000
0000
0000
0010
0000
0000
0000
0000
0000
0000
,  // measure 37
0000
1000
0000
0000
0000
0000
0000
0000
0000
0001
0000
0000
0000
0000
0000
0000
,  // measure 38
0000
0010
0000
0000
0000
0000
0000
0000
0000
1000
0000
0000
0000
0000
0000
0000
,  // measure 39
0000
0100
0000
0000
0000
0000
0000
0000
0000
0001
0000
0000
0000
0000
0000
0000
,  // measure 40
0000
0010
0000
0000
0000
0000
0000
0000
0000
0100
0000
0000
0000
0000
0000
0000
,  // measure 41
2002
0000
3003
0000
,  // measure 42
1000
0010
0000
1000
,  // measure 43
0001
1000
0000
0001
,  // measure 44
0100
0001
0000
0010
,  // measure 45
0001
0010
0000
0110
,  // measure 46
0100
0010
0000
0100
,  // measure 47
1000
0100
0000
1000
,  // measure 48
0010
1000
0000
0001
,  // measure 49
0100
0001
0000
0010
,  // measure 50
0100
0000
0010
0000
0000
0100
0010
0000
,  // measure 51
0001
0000
0010
0000
0000
0001
0010
0000
,  // measure 52
0100
0000
1000
0000
0000
0100
1000
0000
,  // measure 53
0001
0100
0010
0000
,  // measure 54
0010
0000
1000
0000
0000
0010
1000
0000
,  // measure 55
0001
0000
0010
0000
0000
0001
0010
0000
,  // measure 56
0100
0000
1000
0000
0000
0001
0100
0000
,  // measure 57
0010
0000
0000
0000
0000
0000
0000
1000
0000
0000
0000
0001
0000
0000
0000
0000
;

//---------------dance-single - Blank----------------
#NOTES:
     dance-single:
     Blank:
     Medium:
     6:
     0.369,0.000,0.030,0.060,0.812: // measure 1
0000
0000
0000
0000
,  // measure 2
0000
0000
0000
0000
,  // measure 3
0000
0000
0000
0000
,  // measure 4
0000
0000
0000
0000
,  // measure 5
0000
0000
0000
0010
0000
0100
0001
1000
,  // measure 6
0000
0000
0000
0100
0000
0010
0001
1000
,  // measure 7
0000
0000
0000
0010
0000
0100
0001
1000
,  // measure 8
0000
0000
0000
0000
0000
0000
0000
2002
,  // measure 9
0000
0000
3003
0000
,  // measure 10
1000
0000
0000
0100
0000
1000
0000
0000
0000
0001
0000
0000
0000
0100
0000
0000
,  // measure 11
0010
0000
0000
1000
0000
0100
0000
0000
0000
1000
0000
0000
0000
0001
0000
0000
,  // measure 12
0100
0000
0000
0010
0000
1000
0000
0000
0000
0001
0000
0000
0000
0010
0000
0000
,  // measure 13
0100
0000
0000
1000
0000
0001
0000
0000
0000
0100
0000
0000
0000
0010
0000
0000
,  // measure 14
1000
0000
0000
0100
0000
0010
0000
0000
0000
0100
0000
0000
0000
1000
0000
0000
,  // measure 15
0001
0000
0000
0100
0000
0010
0000
0000
0000
1000
0000
0000
0000
0001
0000
0000
,  // measure 16
0010
0000
0000
0100
0000
1000
0000
0000
0000
0100
0000
0000
0000
0010
0000
0000
,  // measure 17
0001
0000
0000
0100
0000
0010
0000
0000
0000
1000
0000
0000
0000
0001
0000
0000
,  // measure 18
1001
0000
0000
1000
0000
0100
0000
0000
0000
0010
0000
0000
0000
0001
0000
0000
,  // measure 19
0100
0000
0000
0010
0000
0100
0000
0000
0000
0001
0000
0000
0000
0010
0000
0000
,  // measure 20
0100
0000
0000
1000
0000
0001
0000
0000
0000
0100
0000
0000
0000
0010
0000
0000
,  // measure 21
1000
0000
0000
0001
0000
0010
0000
0000
0000
0100
0000
0000
0000
1000
0000
0000
,  // measure 22
0001
0000
0000
0100
0000
0010
0000
0000
0000
0100
0000
0000
0000
0001
0000
0000
,  // measure 23
1000
0000
0000
0100
0000
0010
0000
0000
0000
0100
0000
0001
0000
0000
0000
0000
,  // measure 24
0100
0000
0000
1000
0000
0001
0000
0000
0000
0100
0000
0010
0000
0100
0000
0000
,  // measure 25
0001
0000
0000
1000
0000
0100
0000
0000
0000
1000
0000
0100
0000
0001
0000
0000
,  // measure 26
0000
1000
0000
0000
0000
0010
0000
0000
0000
0001
0000
0000
0000
0100
0000
0000
,  // measure 27
0000
0010
0000
0000
0000
1000
0000
0000
0000
0100
0000
0000
0000
0010
0000
0000
,  // measure 28
0000
0001
0000
0000
0000
0100
0000
0000
0000
0010
0000
0000
0000
1000
0000
0000
,  // measure 29
0000
0100
0000
0000
0000
0010
0000
0000
0000
0001
0000
0100
0000
0001
0000
0000
,  // measure 30
0000
0010
0000
0000
0000
1000
0000
0000
0000
0001
0000
0000
0000
0100
0000
0000
,  // measure 31
0000
1000
0000
0000
0000
0010
0000
0000
0000
0100
0000
0000
0000
0001
0000
0000
,  // measure 32
0000
0010
0000
0000
0000
0100
0000
0000
0000
1000
0000
0000
0000
0001
0000
0000
,  // measure 33
0000
0100
0000
0000
0000
0010
0000
0000
0000
1000
0000
0001
0000
1000
0000
0000
,  // measure 34
0000
0010
0000
0000
0000
0100
0000
0000
0000
0001
0000
0000
0000
1000
0000
0000
,  // measure 35
0000
0100
0000
0000
0000
1000
0000
0000
0000
0010
0000
0000
0000
0100
0000
0000
,  // measure 36
0000
0001
0000
0000
0000
0010
0000
0001
0000
1000
0000
0000
0000
0010
0000
0000
,  // measure 37
0000
0100
0000
0000
0000
0001
0000
1000
0000
0000
0000
1000
0000
0100
0000
0000
,  // measure 38
0000
0010
0000
0000
0000
0001
0000
0000
0000
0100
0000
0000
0000
1000
0000
0000
,  // measure 39
0000
0001
0000
0000
0000
0010
0000
0000
0000
1000
0000
0000
0000
0100
0000
0000
,  // measure 40
0000
0010
0000
0000
0000
0001
0000
1000
0000
0000
0000
1000
0000
0010
0000
0000
,  // measure 41
0220
0000
0330
0000
,  // measure 42
0100
0000
0001
0000
0100
0000
0000
0001
0000
0000
0100
0000
0001
0000
0000
0000
,  // measure 43
0010
0000
0001
0000
0010
0000
0000
0001
0000
0000
0010
0000
0001
0000
0000
0000
,  // measure 44
1000
0000
0100
0000
1000
0000
0000
0100
0000
0000
1000
0000
0100
0000
0000
0000
,  // measure 45
1000
0000
0010
0000
1000
0000
0000
0010
0000
0000
1000
0000
0020
0000
0000
0000
,  // measure 46
0130
0000
0010
0000
0100
0000
0000
0010
0000
0000
0100
0000
0010
0000
0000
0000
,  // measure 47
1000
0000
0001
0000
1000
0000
0000
0001
0000
0000
1000
0000
0001
0000
0000
0000
,  // measure 48
0010
0000
0001
0000
0100
0000
0000
0001
0000
0000
0010
0000
0001
0000
0000
1000
,  // measure 49
0000
0000
0010
0000
1000
0000
0000
0100
0000
0000
1000
0000
0000
0010
0000
0000
,  // measure 50
0100
0000
0000
0001
0000
1000
0000
0000
0000
0000
0100
0000
0010
0000
0000
0000
,  // measure 51
0001
0000
0000
1000
0000
0010
0000
0000
0000
0000
0100
0000
0001
0000
0000
0000
,  // measure 52
0010
0000
0000
0100
0000
1000
0000
0000
0000
0000
0001
0000
0100
0000
0000
0000
,  // measure 53
0000
0010
0000
1000
0000
0000
0000
0001
0000
1000
0000
0000
0001
0000
0000
0000
,  // measure 54
0010
0000
0000
0001
0000
0100
0000
0000
0000
0000
0010
0000
1000
0000
0000
0000
,  // measure 55
0001
0000
0000
0010
0000
0100
0000
0000
0000
0000
1000
0000
0010
0000
0000
0000
,  // measure 56
0100
0000
0000
0001
0000
1000
0000
0000
0000
0000
0100
0000
0010
0000
0000
0000
,  // measure 57
0000
0001
0000
0100
0000
0000
0000
0010
0000
1000
0000
0002
0000
0000
0000
0000
,  // measure 58
0000
0000
0003
0000
;
