#TITLE:レスラー会見;
#SUBTITLE:;
#ARTIST:つんく♂;
#TITLETRANSLIT:Wrestler Kaikan;
#SUBTITLETRANSLIT:;
#ARTISTTRANSLIT:Tsunku♂;
#CREDIT:BNM;
#BANNER:[16ths Week] - Wrestler Kaikan.png;
#BACKGROUND:[16ths Week] - Wrestler Kaikan-bg.png;
#LYRICSPATH:;
#CDTITLE:;
#MUSIC:[16ths Week] - Wrestler Kaikan.mp3;
#OFFSET:-3.435;
#SAMPLESTART:70.520;
#SAMPLELENGTH:17.220;
#SELECTABLE:YES;
#BPMS:0.000=118.000;
#STOPS:;
#BGCHANGES:-0.167=[16ths Week] - Wrestler Kaikan.avi=1.000=1=1=0,
99999=-nosongbg-=1.000=0=0=0 // don't automatically add -songbackground-
;

//---------------dance-single - ----------------
#NOTES:
     dance-single:
     :
     Hard:
     8:
     0.552,0.485,0.536,0.168,0.357: // measure 1
0000
0000
0000
0000
,  // measure 2
0000
0000
0000
0000
,  // measure 3
0000
0000
0000
0000
,  // measure 4
1100
0000
0001
0000
0101
0000
1000
0000
1001
0000
0001
1000
0001
0000
0000
0000
,  // measure 5
1000
0010
1000
0010
1000
0010
1000
0000
0001
0000
0000
0000
0101
0000
0000
0000
,  // measure 6
0001
0000
0010
0000
0100
0000
1000
0001
0000
1000
0000
0100
0010
0000
0001
0000
,  // measure 7
1000
0100
1000
0100
1000
0100
1000
0000
0001
0000
0000
0000
0011
0000
0001
0000
,  // measure 8
1000
0000
0010
0100
0001
0000
0000
0000
1002
0000
0000
0000
0103
0000
0000
0000
,  // measure 9
0001
0010
0001
0010
0001
0010
0001
0000
1000
0000
0000
0000
1100
0000
0000
0000
,  // measure 10
1000
0000
0010
0100
0001
0000
0000
0000
2001
0000
0000
0000
3010
0000
0000
0000
,  // measure 11
1000
0100
1000
0100
1000
0100
1000
0000
0001
0000
0000
0000
0101
0000
0000
0000
,  // measure 12
1000
0000
0000
0010
0001
0000
0010
0000
0100
0000
0110
0000
1001
0000
0000
0000
,  // measure 13
0001
0000
0100
0001
0100
0001
0100
0000
0010
0000
0000
0000
1010
0000
0000
0000
,  // measure 14
1000
0000
0000
0100
0001
0000
0100
0000
0010
0000
0110
0000
1001
0000
0000
0000
,  // measure 15
1000
0010
1000
0010
1000
0010
1000
0000
0100
0000
0000
0000
0011
0000
0000
0000
,  // measure 16
1000
0000
0001
0010
0100
0000
0000
0000
1002
0000
0000
0000
0013
0000
0000
0000
,  // measure 17
0001
0000
1000
0010
1000
0010
1000
0000
0100
0000
0000
0000
0011
0000
0000
0000
,  // measure 18
0100
0000
0010
1000
0001
0000
0000
0000
0021
0000
0000
0000
0130
0000
0000
0000
,  // measure 19
1000
0000
0001
0010
0001
0010
0001
0000
0100
0000
0000
0000
1010
0000
0000
0000
,  // measure 20
1000
0000
0000
0100
0001
0000
0100
0000
1000
0000
1001
0000
0110
0000
0000
0000
,  // measure 21
1000
0010
1000
0010
0100
0001
0100
0000
0010
0000
0000
0000
1100
0000
0100
0000
,  // measure 22
0010
0000
0001
0100
0010
0000
0000
0000
0102
0000
0000
0000
1003
0000
0000
0000
,  // measure 23
0001
0010
0001
0010
0100
1000
0100
0000
0010
0000
0000
0000
0101
0000
0000
0000
,  // measure 24
1000
0000
0000
0010
0001
0000
0010
0000
1000
0000
1001
0000
0110
0000
0000
0000
,  // measure 25
1000
0000
0001
0010
1000
0000
0000
0000
1020
0000
0000
0000
0031
0000
0000
0000
,  // measure 26
1000
0000
0000
0010
0001
0000
0010
0000
0100
0000
0101
0000
1001
0000
0000
0000
,  // measure 27
1000
0000
0000
0000
0001
0000
1000
0100
0001
0000
0000
0000
0201
0000
0000
0000
,  // measure 28
1300
0000
0010
0000
0001
0000
0010
0000
1001
0000
0000
1001
0000
0000
1001
0000
,  // measure 29
0001
0000
1000
0100
0001
0000
0000
0000
0201
0000
0000
0000
1300
0000
0000
0000
,  // measure 30
0001
0000
0000
0100
1000
0000
0100
0000
0010
0000
1010
0000
1001
0000
0000
0000
,  // measure 31
1000
0000
0001
0010
1000
0000
0000
0000
1020
0000
0000
0000
0031
0000
0100
0000
,  // measure 32
1000
0000
0000
0000
0001
0000
0010
1000
0001
0000
0000
0000
2010
0000
0000
0000
,  // measure 33
0002
0000
3000
0000
1000
1000
1003
1000
,  // measure 34
0001
0100
0010
1000
0010
0100
0001
0000
1000
0000
0000
0000
0110
0000
0000
0000
,  // measure 35
1000
0100
0010
0001
0010
0100
1000
0000
0001
0000
0000
0000
0110
0000
0000
0000
,  // measure 36
0001
0010
0100
1000
0100
0010
0001
0000
1000
0000
0000
0000
0110
0000
0000
0000
,  // measure 37
1000
0000
0000
0010
0001
0000
0010
0000
0100
0000
0101
0000
1010
0000
0000
0000
,  // measure 38
0001
0000
0010
1000
0010
0001
0100
0000
0010
0000
0000
0000
1010
0000
0000
0000
,  // measure 39
1000
0100
0001
0100
0010
0001
1000
0000
0010
0000
0000
0000
0101
0000
0000
0000
,  // measure 40
0001
0000
0000
0100
1000
0000
0100
0000
0010
0000
1010
0000
0101
0000
0100
0000
,  // measure 41
0010
0000
1000
0100
0010
0000
0000
0000
0012
0000
0000
0000
0103
0000
0010
1000
,  // measure 42
0001
0000
0000
0000
2100
0000
0000
0000
3001
0000
0010
0100
1000
0000
0000
0000
,  // measure 43
1020
0000
0000
0000
0130
0000
0001
0010
0100
0000
0000
0000
2001
0000
0000
0000
,  // measure 44
0200
0000
0000
0000
,  // measure 45
3300
0000
0000
0000
;

//---------------dance-single - ----------------
#NOTES:
     dance-single:
     :
     Easy:
     3:
     0.269,0.324,0.263,0.242,0.000:
0000
0000
0000
0000
,
0000
0000
0000
0000
,
0000
0000
0000
0000
,
1001
1001
1001
0000
,
1000
0010
0100
0000
,
0001
0000
1000
0000
,
0001
0010
0100
0000
,
1000
0001
2002
3003
,
0001
0100
0010
0000
,
1000
0001
2002
3003
,
0001
0100
0010
0000
,
1000
0100
0010
1001
,
0001
0100
1000
0000
,
0100
0010
1000
1001
,
1000
0010
0001
0000
,
0010
0100
2002
3003
,
0001
0010
1000
0000
,
0010
0100
2200
3300
,
1000
0010
0001
0000
,
0010
0100
0001
1001
,
1000
0100
0001
0000
,
0100
0010
0022
0033
,
0001
0100
1000
0000
,
0100
0010
1000
1001
,
1000
0100
0022
0033
,
1000
0010
0100
1001
,
0000
0001
0010
0102
,
1000
1000
1000
0003
,
1000
0100
0022
0033
,
1000
0010
0100
1001
,
0001
0010
2100
0001
,
3001
1000
0010
0102
,
2000
0000
0000
3003
,
1000
0010
0100
0000
,
0001
0010
0100
0000
,
1000
0001
0010
0000
,
0001
1000
0010
1001
,
0001
0100
1000
0000
,
0001
0010
1000
0000
,
0001
0010
0100
1001
,
1000
0010
0102
1003
,
0100
0012
1003
0001
,
2010
3001
1000
2100
,
0002
0000
0000
0000
,
3003
0000
0000
0000
;

//---------------dance-single - ----------------
#NOTES:
     dance-single:
     :
     Medium:
     5:
     0.419,0.370,0.441,0.168,0.000:
0000
0000
0000
0000
,
0000
0000
0000
0000
,
0000
0000
0000
0000
,
1001
0000
0110
0000
1100
0001
0101
0000
,
1000
0010
1000
0010
1000
0000
0101
0000
,
0000
0001
0010
0100
0010
0001
0010
0000
,
0001
0100
0001
0100
0001
0000
1010
0000
,
1000
0100
0010
0000
2001
0000
3100
0000
,
1000
0001
0010
0001
1000
0000
0101
0000
,
1000
0010
0100
0000
2001
0000
3010
0000
,
1000
0010
1000
0001
1000
0000
0011
0000
,
1000
0000
0010
0100
0001
0001
0101
0000
,
0001
0010
1000
0010
0100
0000
1001
0000
,
1000
0000
0001
1000
0100
0100
1100
0000
,
1000
0100
0001
0100
0010
0000
1001
0000
,
0001
0100
0010
0000
2010
0000
3100
0000
,
1000
0010
0100
0001
0010
0000
1100
0000
,
0010
0001
0100
0000
2010
0000
3100
0000
,
0001
0010
0100
1000
0001
0000
1010
0000
,
0001
0000
0010
0100
1000
1000
0101
0000
,
1000
0100
0010
0001
0010
0000
1100
0000
,
0010
1000
0100
0000
0012
0000
1003
0000
,
0001
0100
0010
1000
0010
0000
0101
0000
,
0001
0000
0010
0100
1000
1000
0011
0000
,
1000
0010
0001
0000
2010
0000
3001
0000
,
1000
0000
0100
0010
0001
0001
1100
0000
,
0001
0000
1000
0100
0001
0000
0201
0000
,
2300
0000
0000
3002
0000
0000
0203
0000
0000
0000
0300
0000
,
0001
0100
1000
0000
0102
0000
1003
0000
,
0001
0000
0010
0100
1000
1000
0011
0000
,
0001
0010
1000
0000
1020
0000
0031
0000
,
0100
0000
0010
1000
0001
0000
0102
0000
,
2000
0000
0000
3003
,
1000
0100
0001
0100
1000
0000
1001
0000
,
0001
0100
1000
0100
0001
0000
1001
0000
,
1000
0010
0001
0010
1000
0000
1001
0000
,
0001
0000
0010
0100
1000
1000
0011
0000
,
1000
0010
0001
0010
1000
0000
1001
0000
,
0001
0010
1000
0010
0001
0000
1001
0000
,
0001
0000
0100
0010
1000
1000
0011
1000
,
0001
0010
1000
0000
1010
0000
0010
0001
,
0100
0000
0101
0000
0001
0100
1000
0000
,
1100
0000
0100
1000
0010
0000
0011
0000
,
2002
0000
0000
0000
,
3003
0000
0000
0000
;
