#TITLE:Worldend Dominator;
#SUBTITLE:;
#ARTIST:zts;
#TITLETRANSLIT:;
#SUBTITLETRANSLIT:;
#ARTISTTRANSLIT:;
#GENRE:;
#CREDIT:;
#BANNER:[16ths Week] - Worldend Dominator-bn.png;
#BACKGROUND:[16ths Week] - Worldend Dominator-bg.png;
#LYRICSPATH:;
#CDTITLE:cdtitle.png;
#MUSIC:[16ths Week] - Worldend Dominator.ogg;
#OFFSET:-0.640;
#SAMPLESTART:75.037;
#SAMPLELENGTH:13.000;
#SELECTABLE:YES;
#BPMS:0.000=142.000
;
#STOPS:
;
#BGCHANGES:;
#KEYSOUNDS:;
#ATTACKS:;

//---------------dance-single - ----------------
#NOTES:
     dance-single:
     :
     Hard:
     8:
     0.570,0.473,0.146,0.256,0.333,393.000,16.000,28.000,0.000,0.000,0.000,0.570,0.473,0.146,0.256,0.333,393.000,16.000,28.000,0.000,0.000,0.000: // measure 0
0000
0000
0000
0000
,  // measure 1
0000
0000
0000
0000
,  // measure 2
0000
0000
0000
0000
,  // measure 3
0000
0000
0000
0000
,  // measure 4
1001
0000
0000
1000
0100
0000
0010
0000
0100
0000
0000
0010
0001
0000
0100
0000
,  // measure 5
0010
0000
0000
0100
0010
0000
1000
0000
0100
0000
0001
0000
0100
0000
1000
0000
,  // measure 6
0010
0000
0000
0100
0001
0000
1000
0000
0001
0000
0000
0010
0100
0000
1000
0000
,  // measure 7
0010
0000
0000
0100
0001
0000
0100
0000
1000
0000
0100
0000
0010
0000
1000
0000
,  // measure 8
0001
0000
0000
1000
0100
0000
0010
0000
0100
0000
0000
0010
0001
0000
1000
0000
,  // measure 9
0001
0000
0000
1000
0010
0000
0100
0000
0010
0000
1000
0000
0100
0000
0010
0000
,  // measure 10
0100
0000
0000
1000
0001
0000
0010
0000
0100
0000
0000
0010
0001
0000
0100
0000
,  // measure 11
2020
0000
0000
3030
,  // measure 12
0010
0000
0000
0010
0100
0000
0000
0000
0001
0000
1000
0000
0100
0000
0000
0000
,  // measure 13
0010
0000
0000
0010
0001
0000
0000
0000
1000
0000
0010
0000
0100
0000
0010
0000
,  // measure 14
1000
0000
0000
1000
0001
0000
0000
0000
0010
0000
0100
0000
1000
0000
0000
0000
,  // measure 15
0001
0000
0000
0001
0100
0000
0000
0000
0010
0000
0100
0000
0001
0000
0010
0000
,  // measure 16
0100
0000
0000
0100
1000
0000
0010
0000
0001
0000
0010
0000
0100
0000
0001
0000
,  // measure 17
0010
0000
0000
0010
0100
0000
1000
0000
0001
0000
0100
0000
0010
0000
0100
0000
,  // measure 18
0001
0000
0000
0001
1000
0000
0100
0000
0001
0000
0100
0000
1000
0000
0010
0000
,  // measure 19
0100
0000
0000
0100
0001
0000
0010
0000
1000
0000
0010
0000
0001
0000
1000
0000
,  // measure 20
0020
0000
0000
0000
0000
0000
0000
0000
0230
0000
0000
0000
0300
0000
0001
1000
,  // measure 21
0200
0320
0032
2003
,  // measure 22
3002
0203
0320
2030
,  // measure 23
3200
0320
0032
2003
,  // measure 24
3020
0000
0230
0302
,  // measure 25
2003
3200
0320
0230
,  // measure 26
2300
0000
3002
0203
,  // measure 27
0320
0000
0000
0000
2030
0000
3001
0010
,  // measure 28
0100
0000
0000
0100
1000
0000
0001
0000
0100
0000
0000
0100
0010
0000
1000
0000
,  // measure 29
0001
0000
0000
0000
0000
0000
0000
0000
0000
0001
0000
0000
0010
0000
0000
0000
0100
0000
0000
0000
0010
0000
0000
0000
0001
0000
0000
0000
0000
0000
0000
0000
0000
0000
0000
0000
1000
0000
0000
0000
0000
0000
0010
0000
0000
0000
0000
0000
,  // measure 30
0100
0000
0000
0100
0001
0000
0010
0000
0100
0000
0000
0100
1000
0000
0001
0000
,  // measure 31
0010
0000
0000
0000
0000
0000
0000
0000
0000
0010
0000
0000
0100
0000
0000
0000
1000
0000
0000
0000
0100
0000
0000
0000
0010
0000
0000
0000
0001
0000
0000
0000
1000
0000
0000
0000
0010
0000
0000
0000
0000
0000
0000
0000
0000
0000
0000
0000
,  // measure 32
0100
0000
0000
0100
0001
0000
1000
0000
0001
0000
0000
0001
1000
0000
0100
0000
,  // measure 33
0010
0000
0000
0000
0000
0000
0000
0000
0000
0010
0000
0000
0001
0000
0000
0000
1000
0000
0000
0000
0010
0000
0000
0000
0100
0000
0000
0000
0000
0000
0000
0000
0000
0000
0000
0000
0110
0000
0000
0000
0000
0000
0000
0000
0000
0000
0000
0000
,  // measure 34
0010
0000
0000
0010
1000
0000
0001
0000
1000
0000
0000
1000
0100
0000
0010
0000
,  // measure 35
0001
0100
1000
0100
0001
0010
0100
1000
,  // measure 36
0010
0000
1010
0000
1001
0000
0010
0100
,  // measure 37
1000
0000
1001
0000
0101
0000
0010
0100
,  // measure 38
0001
0000
0000
0000
1000
0000
0100
0000
0010
0000
0100
1000
0001
0000
1000
0000
,  // measure 39
0010
0000
0100
0010
0100
0001
1000
0100
,  // measure 40
0010
0000
0011
0000
0101
0000
0010
1000
,  // measure 41
0001
0000
1001
0000
1100
0000
1000
0010
,  // measure 42
0100
0000
0010
1000
0100
0001
0100
0010
,  // measure 43
0001
1000
0010
0100
0010
1000
0001
0010
,  // measure 44
0100
0000
0000
0100
1000
0000
0000
1000
0001
0000
0000
0001
1000
0000
0010
0000
,  // measure 45
0100
0000
0000
0100
0001
0000
0000
0001
0010
0000
0000
0010
0100
0000
1000
0000
,  // measure 46
0010
0000
0000
0010
0100
0000
0001
0000
0010
0000
0000
0010
0100
0000
1000
0000
,  // measure 47
0001
0000
0000
0001
1000
0000
0100
0000
0010
0000
0100
0000
1000
0000
0001
0000
,  // measure 48
0010
0000
0000
0010
0100
0000
0000
0100
1000
0000
0000
1000
0001
0000
0100
0000
,  // measure 49
0010
0000
0000
0010
0100
0000
0000
0100
0001
0000
0000
0001
0010
0000
0100
0000
,  // measure 50
0010
0000
0000
0010
0001
0000
1000
0000
0010
0000
0000
0010
0100
0000
0001
0000
,  // measure 51
1000
0000
0000
1000
0001
0000
0010
0000
1000
0000
0010
0000
0001
0000
1000
0000
,  // measure 52
0100
0000
0000
0100
0010
0000
0000
0010
0001
0000
0000
0001
1000
0000
0010
0000
,  // measure 53
1000
0000
0000
1000
0001
0000
0000
0001
0010
0000
0000
0010
0100
0000
1000
0000
,  // measure 54
0010
0000
0000
0010
0100
0000
0001
0000
0010
0000
0000
0010
0100
0000
1000
0000
,  // measure 55
0001
0000
0000
0001
1000
0000
0010
0000
0001
0000
0010
0000
1000
0000
0001
0000
,  // measure 56
0010
0000
0000
0100
1000
0000
0001
0000
1000
0000
0000
0010
0100
0000
0001
0000
,  // measure 57
1000
0000
0000
0001
0010
0000
0100
0000
0010
0000
0000
0001
1000
0000
0010
0000
,  // measure 58
0100
0001
0010
1000
0010
0001
1000
0100
,  // measure 59
0010
0100
1000
0010
0100
0001
1000
0001
,  // measure 60
0010
0000
0110
0000
0000
1100
0000
0000
0011
0000
0000
0101
0000
0000
0110
0000
;

//---------------dance-single - ----------------
#NOTES:
     dance-single:
     :
     Medium:
     6:
     0.389,0.445,0.082,0.237,0.009,263.000,9.000,26.000,0.000,0.000,0.000,0.389,0.445,0.082,0.237,0.009,263.000,9.000,26.000,0.000,0.000,0.000:
0000
0000
0000
0000
,
0000
0000
0000
0000
,
0000
0000
0000
0000
,
0000
0000
0000
0000
,
0001
0000
1000
0100
1000
0000
0010
0000
,
0100
0000
0001
0100
0001
0000
0010
0000
,
0100
0000
1000
0001
1000
0000
0010
0000
,
0100
0000
0010
1000
0010
0100
0001
0000
,
1000
0000
0001
0010
0001
0000
0010
0000
,
0100
0000
1000
0010
1000
0000
0001
0000
,
0100
0000
0010
1000
0010
0000
0100
0000
,
2002
0000
0000
3003
,
1000
0000
1100
0000
1000
0000
0010
0100
,
0001
0000
1000
0000
0100
0010
0001
0000
,
0100
0000
0110
0000
0010
0000
1000
0100
,
0010
0000
0100
0000
1000
0001
1000
0000
,
0001
0100
0001
0000
1000
0000
0100
0000
,
0010
0001
1000
0000
0001
0000
1000
0000
,
0010
0100
0010
0000
0100
0000
0001
0000
,
0010
0100
1000
0000
0001
0000
0100
0001
,
2000
0000
3020
0000
,
0230
0302
2003
3200
,
0320
0230
2300
3002
,
0203
0320
2030
3002
,
0023
0000
0230
2300
,
3002
2003
3020
0230
,
0302
0000
0000
2003
,
3200
0000
0310
0001
,
1000
0000
0101
0001
,
1000
0000
0100
0010
0001
0000
1000
0000
,
0001
0000
1010
1000
,
0001
0000
1000
0100
0010
0100
1000
0000
,
0010
0000
0110
0100
,
0001
0000
0010
0100
0010
0000
0001
0000
,
1000
1000
0001
0010
,
0100
0000
1000
0000
0010
0100
0010
1000
,
0001
0000
0001
0000
0100
0000
0001
0010
,
0100
0000
0100
0000
1000
0000
0001
0100
,
0001
0000
0100
0000
0010
0000
1000
0001
,
1000
0000
0001
1000
0001
0000
1000
0000
,
0100
0010
0110
0000
,
0100
1000
1100
0000
,
1000
0000
0001
0100
0001
0000
0010
0000
,
0100
0000
1000
0000
0010
0100
0001
1000
,
0100
0000
0010
0000
0100
0000
1000
0001
,
0100
0000
0010
0000
0100
0000
0001
1000
,
0100
1000
0010
0100
,
0001
0000
0010
0000
0100
0000
0010
0001
,
1000
0000
0010
0000
1000
0000
0001
0010
,
0001
0000
0100
0000
0001
0000
1000
0100
,
1000
0010
0100
0001
,
1000
0000
0100
0000
0010
0000
0001
1000
,
0010
0000
0100
0000
0001
0000
1000
0100
,
0010
0000
0100
0000
1000
0000
0001
0100
,
0010
0000
0100
0000
0001
0000
1000
0100
,
1000
0000
0010
0100
0001
0000
1000
0001
,
0100
0000
0010
0000
1000
0000
0100
0010
,
0001
0000
1000
0000
0010
0000
0100
0001
,
1000
0000
0100
0010
0001
1000
0010
0100
,
0010
0000
1000
0100
0010
0000
0001
0000
,
0100
0000
0010
0000
0000
0100
0000
0000
0010
0000
0000
0100
0000
0000
0110
0000
;

//---------------dance-single - ----------------
#NOTES:
     dance-single:
     :
     Easy:
     3:
     0.269,0.222,0.128,0.164,0.000,174.000,14.000,18.000,0.000,0.000,0.000,0.269,0.222,0.128,0.164,0.000,174.000,14.000,18.000,0.000,0.000,0.000:
0000
0000
0000
0000
,
0000
0000
0000
0000
,
0000
0000
0000
0000
,
0000
0000
0000
0000
,
0001
0000
0001
0000
,
1000
0100
1000
0010
,
0100
0000
0100
0000
,
0001
0010
0001
1000
,
0010
0000
0010
0000
,
0100
0001
0100
0010
,
1000
0000
1000
0000
,
2002
0000
0000
3003
,
0001
0000
0001
0000
,
0010
0100
0010
0001
,
1000
0000
1000
0000
,
0010
0100
0010
1000
,
0100
0000
0100
0000
,
0010
0001
0010
0100
,
0010
0000
0010
0000
,
0100
1000
0100
0010
,
0002
0003
0200
0300
,
0020
0030
2000
3000
,
0200
0300
0020
0030
,
0002
0003
0200
0300
,
0020
0030
2000
3000
,
0002
0003
0020
0030
,
0200
0300
2000
3000
,
0002
0000
0200
0303
,
1001
0000
1000
0000
,
0001
0100
0001
0000
,
1001
0000
1000
0000
,
0001
0010
0100
1000
,
1001
0000
0001
0000
,
1000
0010
1000
0000
,
1001
0000
0001
0000
,
1000
0100
0010
0001
,
1000
1000
1000
0010
,
0100
0100
0100
0010
,
1000
0001
1000
0001
,
0010
0100
1000
0010
,
0100
0100
0100
0001
,
1000
1000
1000
0001
,
0010
0100
0010
0100
,
1000
0100
1000
0100
,
0010
0001
0011
0000
,
1000
0010
1010
0000
,
1000
0100
0010
0001
,
1000
0010
0100
0001
,
1000
0100
1100
0000
,
0001
0100
0101
0000
,
0001
0010
0100
1000
,
0001
0100
0010
1000
,
0001
0100
0101
0000
,
0010
1000
1010
0000
,
1000
0001
0010
0001
,
1000
0010
0100
0010
,
1000
0100
1100
0000
,
0010
0001
0011
0000
,
0001
0100
0010
0100
,
0001
0010
0100
0010
,
0001
0000
0000
0000
1000
0000
0000
1001
;
