#TITLE:Veratyr-Fragment of Sanngetall-;
#SUBTITLE:;
#ARTIST:黒川うみ;
#TITLETRANSLIT:;
#SUBTITLETRANSLIT:;
#ARTISTTRANSLIT:Umi Kurokawa;
#GENRE:Doujin;
#CREDIT:Frozen_Heat/Azn_Punk_07/GuardianFrozen;
#MENUCOLOR:#59b3f5;
#METERTYPE:DDR;
#BANNER:[16ths Week] - Veratyr-Fragment of Sanngetall-.png;
#BACKGROUND:[16ths Week] - Veratyr-Fragment of Sanngetall--bg.png;
#LYRICSPATH:[16ths Week] - Veratyr-Fragment of Sanngetall-.lrc;
#CDTITLE:cdtitle.png;
#MUSIC:[16ths Week] - Veratyr-Fragment of Sanngetall-.mp3;
#OFFSET:0.396;
#SAMPLESTART:83.180;
#SAMPLELENGTH:14.222;
#SELECTABLE:YES;
#LISTSORT:;
#DISPLAYBPM:135.000;
#BPMS:0.000=135.000;
#STOPS:;
#BGCHANGES:;
#ATTACKS:;

//---------------dance-single - ----------------
#NOTES:
     dance-single:
     :
     Hard:
     10:
     0.696,0.726,0.051,0.316,0.639:
0000
0000
0000
0000
,
0000
0000
0000
0000
,
0000
0000
0000
0000
,
1000
0000
0001
0000
0100
0000
0010
1000
0000
1000
0010
0000
0100
0000
0001
0010
,
0000
0010
0100
0000
0010
0000
0001
1000
0000
0000
1000
0000
0010
0000
0100
0000
,
0001
0000
0010
0000
0100
0000
1000
0010
0000
0010
1000
0000
0100
0000
0010
0001
,
0000
0001
1000
0000
0010
0000
0100
0001
0000
0000
0001
0000
1000
0000
0100
0000
,
0010
0001
0010
0000
0100
0000
1000
0001
0000
0001
0100
0000
0010
0000
1000
0100
,
0000
0100
0010
0000
0001
0000
1000
0010
0000
0000
0100
0000
0001
0000
1000
0000
,
0001
0100
0001
0000
0010
0000
0100
1000
0000
1000
0100
0000
0010
0000
0001
0100
,
0000
0100
0010
0000
1000
0000
0001
1000
0000
0000
0010
0000
0100
0000
0001
0000
,
1000
0001
0100
0000
0010
0000
0100
0001
0010
0000
0100
0000
0001
0000
0100
0010
,
0001
0000
0100
0000
1000
0000
0100
0010
1000
0000
0100
0000
0010
0000
0100
0000
,
1000
0001
0010
0000
0100
0000
0010
0001
0100
0000
0010
0000
1000
0000
0010
0100
,
0001
0000
0010
0000
0100
0000
0010
0001
0100
0000
0010
0000
1000
0000
0010
0000
,
0100
0001
1000
0000
0010
0000
0100
0001
0000
0010
0001
0000
1000
0000
0001
0010
,
0100
0000
1000
0000
0001
0000
1000
0010
0000
0100
0001
0000
1000
0000
0100
0010
,
0001
0000
1000
0000
0010
0000
0100
0010
0000
1000
0001
0000
0100
0000
0010
1000
,
0100
0010
0001
0000
1000
0000
0001
0100
0010
1000
0010
0000
0100
0000
0001
0000
,
2000
0001
0001
3001
,
1000
0000
0100
0000
0010
0000
0001
0100
0000
0100
0010
0000
1000
0000
0001
0010
,
0100
0000
0100
1000
0000
1000
0010
0000
0100
0000
0100
0001
0000
0001
1000
0001
,
1000
0000
0001
0010
0001
0000
0100
0010
0100
0000
0001
1000
0001
0000
0100
0010
,
1000
0000
1000
0100
0010
0000
0010
0001
0100
0000
0100
0010
1000
0000
1000
0000
,
0000
0000
0001
0000
1000
0000
0010
0100
0000
0100
0001
0000
0010
0000
0100
0010
,
0001
0000
1000
0001
0100
0001
1000
0000
1000
0000
0100
0000
0010
0000
0100
0000
,
0001
0000
0100
0010
0100
0000
1000
0100
1000
0000
0001
0010
0001
0000
1000
0010
,
1000
0000
0100
1000
0100
0000
0010
0000
0000
0000
0001
0000
1000
0000
0001
0000
,
1000
0010
0100
0001
0002
0010
0013
0100
,
2000
0000
0010
0000
3010
0000
0100
0000
0201
0000
0310
1000
0010
0000
1000
0001
,
1002
0000
1000
0000
1003
0000
0100
0000
0110
0000
1000
0010
0100
0000
0001
0010
,
0100
0000
0100
0000
0010
0000
0001
0000
0000
1000
0001
0000
1000
0000
1000
0000
,
0010
0100
0001
0001
1000
0100
0010
0010
,
0100
1000
0001
0001
0100
1000
0100
0001
,
0210
1000
0010
0001
,
0310
1000
0010
0000
0100
0000
0001
0010
0000
0010
0001
0000
1000
0000
0100
0000
,
0010
0001
0000
0010
0000
1000
0010
0000
0000
0001
1000
0000
0000
0100
0000
0000
,
1000
0010
0000
0001
0000
0010
0100
0000
0000
0001
1000
0000
0000
0100
0000
0000
,
1000
0001
0000
0100
0000
0001
0010
0000
0000
0100
1000
0000
0000
0001
0010
0000
,
0001
0000
0100
0010
0000
0010
1000
0000
0000
0001
0100
0000
0001
0000
1000
0000
,
0010
1000
0000
0010
0000
0001
0010
0000
0000
1000
0001
0000
0000
0100
0000
0000
,
0001
0010
0000
1000
0000
0010
0100
0000
0000
1000
0001
0000
0000
0100
0000
0000
,
0001
1000
0000
0100
0000
1000
0010
0000
0000
0100
0001
0000
0000
1000
0010
0000
,
1000
0100
0010
0001
0010
0100
1000
0000
1000
0010
0100
0001
0100
0010
1000
0001
,
2000
0000
0000
0000
,
0001
0002
0000
0000
0000
0000
0000
0000
,
0000
0000
0000
3003
,
2000
0010
3001
0100
0002
0010
1003
0100
,
2000
0010
3200
0001
0320
1000
0032
0100
,
2003
0000
0010
0000
3002
0000
0100
0000
0013
0100
0010
0000
0001
0000
0100
0010
,
1000
0100
0010
0000
0100
0000
1000
0001
0100
0001
1000
0000
0100
0000
0010
0000
,
0200
1000
0320
1000
0032
1000
0203
1000
,
0302
1000
0013
0100
2000
0001
3010
0100
,
0002
0000
0010
0000
0103
0000
0010
1000
0010
0100
0010
0000
0100
0000
0001
1000
,
0200
0000
0010
0000
1300
0000
0001
1000
0001
1000
0010
0000
0100
0000
0000
0000
,
0002
0010
1003
0100
2000
0010
3001
0100
,
0002
0010
0203
1000
0320
0001
2030
0100
,
3002
0000
0010
0000
0103
0000
0010
1000
0010
1000
0100
0000
0010
0000
0100
0010
,
0001
1000
0001
0000
0200
0000
0001
0000
0320
0000
0001
0000
2030
0000
0001
0000
,
3020
0000
0001
0000
0130
0000
0001
1000
0200
0000
0010
0000
1300
0001
1000
0001
,
0010
0100
0020
0100
0032
0100
2003
0100
,
3020
0000
0100
0000
0031
0000
0010
1000
0200
0000
0010
0000
1300
0000
0001
0010
,
0100
1000
0001
0000
1000
0000
0010
0100
0000
0100
0010
0000
1000
0000
0000
0000
,
0001
0000
0100
0001
0000
1000
0001
0000
1000
0100
0000
1000
0010
0000
0100
0010
,
0000
0001
0100
0000
0001
0010
0000
1000
0001
0000
0010
0001
0000
0000
0000
0000
,
0100
0000
0010
1000
0000
0100
1000
0000
0010
1000
0000
0001
1000
0000
0100
0001
,
0000
0010
0001
0000
0010
0100
0000
0010
0001
0000
0100
1000
0000
0000
0000
0000
,
1001
0000
0010
1000
0000
0001
1000
0000
0010
0001
0000
0100
0001
0000
0100
1000
,
0000
0010
0100
0000
0010
1000
0000
0001
0100
0000
0000
0110
0000
0000
0000
0000
,
0001
0000
1000
0010
0000
0100
0001
0000
0010
0001
0000
0100
1000
0000
0001
0100
,
0000
0001
0010
0000
1000
0010
0000
0100
0010
0000
1000
0001
0000
0000
0000
0000
,
0010
0000
0000
0010
0000
0000
0100
0000
,
0000
0100
0000
0000
0000
0000
0000
0220
,
0000
0000
0000
0000
,
0000
0000
0000
0000
,
0000
0000
0000
0000
,
0330
0000
0000
0000
;

//---------------dance-single - ----------------
#NOTES:
     dance-single:
     :
     Medium:
     8:
     0.526,0.586,0.198,0.404,0.257: // measure 1
0000
0000
0000
0000
,  // measure 2
0000
0000
0000
0000
,  // measure 3
0000
0000
0000
0000
,  // measure 4
1000
0010
0100
0010
1000
0100
0010
0000
,  // measure 5
0001
0100
0010
0100
0001
0010
0100
0000
,  // measure 6
1000
0010
0001
0010
1000
0001
0010
0000
,  // measure 7
0001
1000
0100
0001
1000
0001
0100
0000
,  // measure 8
1000
0001
0010
1000
0010
0001
1000
0000
,  // measure 9
0001
0100
0010
0001
0010
0100
0001
0000
,  // measure 10
1000
0100
0010
1000
0010
0100
1000
0000
,  // measure 11
0001
0100
1000
0001
1000
0100
0001
0000
,  // measure 12
1000
0000
0010
0000
0100
0000
0010
1000
0000
0000
0001
0000
0010
0000
0100
1000
,  // measure 13
0000
0000
0100
0000
0010
0000
0001
1000
0000
0000
0010
0000
0100
0000
0100
0000
,  // measure 14
0001
0000
0010
0000
0100
0000
1000
0001
0000
0000
0100
0000
0010
0000
1000
0001
,  // measure 15
0000
0000
0010
0000
0100
0000
1000
0001
0000
0000
0010
0000
0010
0000
0100
0000
,  // measure 16
1000
0010
1000
0000
0001
0000
1000
0100
0000
0100
0010
0000
0001
0000
0100
0000
,  // measure 17
0001
0010
0001
0000
1000
0000
0010
0100
0000
0100
0001
0000
0010
0000
0100
0000
,  // measure 18
1000
0001
1000
0000
0010
0000
0100
0001
0000
0001
0010
0000
0100
0000
1000
0000
,  // measure 19
0001
1000
0001
0000
0100
0000
0010
1000
0000
1000
0001
0000
0010
0000
0100
0000
,  // measure 20
2000
3000
0002
0003
,  // measure 21
0000
0000
1000
0000
0100
0000
1000
0100
0000
0000
1000
0000
0001
0000
1000
0000
,  // measure 22
0001
0000
0000
0001
0000
0000
0100
0000
0010
0000
0000
0010
0000
0000
1000
0000
,  // measure 23
0100
0010
0010
0001
0001
1000
1000
0010
,  // measure 24
0010
0100
0100
0001
0001
1000
1000
0100
,  // measure 25
0000
0000
0010
0000
0001
0000
0010
0001
0000
0000
1000
0000
0001
0000
1000
0000
,  // measure 26
0010
0000
0000
0010
0000
0000
0000
0000
1000
0000
0010
0000
0100
0000
0010
0000
,  // measure 27
0001
0010
0010
0100
0100
0001
0001
1000
,  // measure 28
1000
0100
0010
0010
0000
0001
1000
0001
,  // measure 29
1000
0100
0010
0000
0012
0000
1003
0010
,  // measure 30
0100
0000
0000
0000
0010
0000
0000
0000
2010
0000
0000
0010
0000
0000
3010
0000
,  // measure 31
0200
0310
0001
1000
,  // measure 32
1001
0000
0010
0010
0000
0001
0010
0100
,  // measure 33
2000
0000
3000
0000
0000
1000
0100
0010
,  // measure 34
0002
0000
0003
0000
0100
0100
0010
0000
,  // measure 35
0200
0000
0000
0000
,  // measure 36
0301
0000
0000
1000
0000
0000
1001
0000
0000
0000
0001
0000
0010
0000
0100
0000
,  // measure 37
0020
0000
0000
0001
0000
0000
0031
0000
0000
0000
1000
0000
0001
0000
1000
0000
,  // measure 38
0020
0100
2030
0100
,  // measure 39
3002
0000
0000
0100
0000
0000
0103
0000
0000
0000
0010
0000
1000
0000
0100
0000
,  // measure 40
2000
0000
0000
0010
0000
0000
3010
0000
0000
0000
1000
0000
0100
0000
0010
0000
,  // measure 41
0200
0000
0000
1000
0000
0000
1300
0000
0000
0000
0001
0000
1000
0000
0001
0000
,  // measure 42
0200
0010
0302
0010
,  // measure 43
2003
0000
0000
0010
0000
0000
3010
0000
0000
0000
0100
0000
0001
0000
0010
0000
,  // measure 44
0002
0000
0000
0100
0000
0000
0103
0000
0000
0000
0010
0000
1000
0000
1000
0000
,  // measure 45
0002
0000
0000
0000
,  // measure 46
1000
2000
0000
0000
0000
0000
0000
0000
,  // measure 47
0000
0000
0000
3003
,  // measure 48
0002
0000
0103
0010
2000
0000
3100
0010
,  // measure 49
0002
0000
0000
0100
0023
0000
0000
1000
0230
0000
0000
0010
0302
0000
0000
1000
,  // measure 50
0023
0000
0000
0100
0032
0000
0000
0000
1003
0000
0010
0000
0100
0000
0000
0000
,  // measure 51
0001
0000
1000
0000
0001
0010
0100
0000
,  // measure 52
2000
0000
0000
0010
3200
0000
0000
0001
0320
0000
0000
0100
2030
0000
0000
0001
,  // measure 53
3200
0000
0310
1000
0200
0000
0310
0001
,  // measure 54
2000
0010
0010
0010
,  // measure 55
3002
0000
0010
0000
1003
0010
1000
0001
,  // measure 56
2000
0000
3100
0010
0002
0000
0103
0010
,  // measure 57
2000
0000
0000
0100
3020
0000
0000
0001
0230
0000
0000
0010
2300
0000
0000
0001
,  // measure 58
3200
0000
0310
1000
0001
1000
0100
0010
,  // measure 59
0001
0000
1000
0000
0002
0000
0000
0100
0023
0000
0000
1000
0032
0000
0000
0010
,  // measure 60
0203
0000
1300
0001
0200
0000
0310
1000
,  // measure 61
0001
0000
1000
0000
0200
0000
0000
0010
0302
0000
0000
1000
0023
0000
0000
0100
,  // measure 62
2030
0000
3100
0001
0200
0000
0310
0000
,  // measure 63
1000
0001
0010
0100
1000
0010
0100
0000
,  // measure 64
0001
0000
0000
0101
0000
0000
0010
0000
0000
1010
0000
0000
1000
0000
0000
1001
,  // measure 65
0000
0000
0001
0000
0000
0101
0000
0000
0011
0000
0000
0100
0000
0000
0000
0000
,  // measure 66
1000
0000
0000
1100
0000
0000
0001
0000
0000
0101
0000
0000
1000
0000
0000
1010
,  // measure 67
0000
0000
1001
0000
0000
0101
0000
0000
0010
0000
0000
0110
0000
0000
0000
0000
,  // measure 68
1000
0000
0000
1010
0000
0000
0100
0000
0000
0101
0000
0000
0001
0000
0000
1001
,  // measure 69
0000
0000
1000
0000
0000
1010
0000
0000
1100
0000
0000
0010
0000
0000
0000
0000
,  // measure 70
0001
0000
0000
0011
0000
0000
1000
0000
0000
1010
0000
0000
0001
0000
0000
0101
,  // measure 71
0000
0000
1001
0000
0000
1010
0000
0000
0100
0000
0000
0110
0000
0000
0000
0000
,  // measure 72
0001
0000
0000
0001
0000
0000
1000
0000
,  // measure 73
0000
1000
0000
0000
0000
0000
0000
2002
,  // measure 74
0000
0000
0000
0000
,  // measure 75
0000
0000
0000
0000
,  // measure 76
0000
0000
0000
0000
,  // measure 77
3003
0000
0000
0000
;

//---------------dance-single - ----------------
#NOTES:
     dance-single:
     :
     Easy:
     6:
     0.398,0.419,0.147,0.412,0.000: // measure 1
0000
0000
0000
0000
,  // measure 2
0000
0000
0000
0000
,  // measure 3
0000
0000
0000
0000
,  // measure 4
1000
0000
1000
0001
0100
0000
0100
0001
,  // measure 5
0010
0000
0010
0100
1000
0000
1000
0000
,  // measure 6
0010
0000
0010
0100
0001
0000
0001
1000
,  // measure 7
0100
0000
0100
0010
0001
0000
0001
0000
,  // measure 8
0100
0000
0100
0001
0010
0000
0010
0100
,  // measure 9
1000
0000
1000
0001
0100
0000
0100
0000
,  // measure 10
0001
0000
0001
0100
0010
0000
0010
1000
,  // measure 11
0100
0000
0100
0010
0001
0000
0001
0000
,  // measure 12
1000
0000
1000
0010
1000
0000
0010
0100
,  // measure 13
0010
0000
0100
0001
0100
0000
0001
0000
,  // measure 14
0010
0000
0100
1000
0100
0000
1000
0001
,  // measure 15
1000
0000
0001
0100
0001
0000
0010
0000
,  // measure 16
0100
0000
0010
0001
0010
0000
0001
1000
,  // measure 17
0001
0000
1000
0010
1000
0000
0010
0000
,  // measure 18
0100
0000
0010
1000
0010
0000
0100
0010
,  // measure 19
0100
0000
0001
1000
0001
0000
1000
0000
,  // measure 20
0100
0000
0000
0000
,  // measure 21
1000
0000
0100
0010
0100
0000
1000
0001
,  // measure 22
1000
0001
1000
0000
0010
0000
0010
0000
,  // measure 23
0110
0001
0100
0010
,  // measure 24
1000
0000
0100
0000
0010
0000
0001
1000
,  // measure 25
0000
0000
0001
1000
0001
0000
0100
0010
,  // measure 26
0100
0010
0100
0000
0001
0000
0001
0000
,  // measure 27
1001
0100
0010
1000
,  // measure 28
0001
0000
0010
0100
0000
0000
1000
0100
,  // measure 29
2000
0000
0010
0000
3002
0000
0103
0010
,  // measure 30
0200
0001
0320
2030
,  // measure 31
3002
0003
1000
0100
,  // measure 32
0020
0000
0000
0130
0000
0000
0001
0010
,  // measure 33
0200
0000
1000
0000
0010
0000
1300
0010
,  // measure 34
0200
0000
1000
0000
0301
1000
0001
1000
,  // measure 35
0002
0013
2000
3010
,  // measure 36
0002
0000
0010
0000
1003
0000
1000
0001
,  // measure 37
1000
0000
0000
1100
0000
0000
0001
1000
,  // measure 38
0020
0230
0302
2003
,  // measure 39
3001
0000
0000
0011
0000
0000
0100
1000
,  // measure 40
0010
0000
0000
1010
0000
0000
0100
0001
,  // measure 41
0100
0000
0000
0101
0000
0000
0010
1000
,  // measure 42
0002
0023
0230
2300
,  // measure 43
3010
0000
0000
0110
0000
0000
1000
0001
,  // measure 44
1000
0000
0000
1001
0000
0000
0001
1000
,  // measure 45
0002
0000
0000
0000
,  // measure 46
2000
0000
0000
0000
,  // measure 47
0000
0000
0000
3003
,  // measure 48
2000
0100
3020
0100
,  // measure 49
2030
3200
0320
0032
,  // measure 50
2003
3002
0100
0010
,  // measure 51
1000
0010
0100
0013
,  // measure 52
0002
0203
0320
2030
,  // measure 53
3200
0001
2300
0001
,  // measure 54
3020
0001
0100
0001
,  // measure 55
2030
0100
0001
3100
,  // measure 56
0002
0010
0203
0010
,  // measure 57
0302
0023
0230
2300
,  // measure 58
3020
0100
1000
0001
,  // measure 59
0130
2000
3200
0320
,  // measure 60
0032
0100
2003
0100
,  // measure 61
0010
3002
0203
0320
,  // measure 62
2030
0010
3002
0010
,  // measure 63
0100
0010
1000
0103
,  // measure 64
1000
1100
0010
0011
,  // measure 65
1000
0000
1001
0000
0001
0100
1000
0000
,  // measure 66
0100
0101
0010
1010
,  // measure 67
0001
0000
1001
0000
1000
0100
0001
0000
,  // measure 68
1000
1010
0100
0101
,  // measure 69
0010
0000
0110
0000
0001
0010
1000
0000
,  // measure 70
0100
0110
1000
1010
,  // measure 71
0001
0000
0101
0000
1000
0010
0001
0000
,  // measure 72
0010
0000
0000
0010
0000
0000
0100
0000
,  // measure 73
0000
0100
0000
0000
0000
0000
0000
0200
,  // measure 74
0000
0000
0000
0000
,  // measure 75
0000
0000
0000
0000
,  // measure 76
0000
0000
0000
0000
,  // measure 77
0300
0000
0000
0000
;

//---------------dance-single - ----------------
#NOTES:
     dance-single:
     :
     Beginner:
     3:
     0.139,0.187,0.029,0.191,0.000: // measure 1
0000
0000
0000
0000
,  // measure 2
0000
0000
0000
0000
,  // measure 3
0000
0000
0000
0000
,  // measure 4
1000
0000
0000
0000
,  // measure 5
0001
0000
0000
0000
,  // measure 6
0010
0000
0000
0000
,  // measure 7
0100
0000
0000
0000
,  // measure 8
1000
0000
0000
0000
,  // measure 9
0010
0000
0000
0000
,  // measure 10
0100
0000
0000
0000
,  // measure 11
0001
0000
0000
0000
,  // measure 12
0002
0003
0000
0000
,  // measure 13
2000
3000
0000
0000
,  // measure 14
0002
0003
0000
0000
,  // measure 15
2000
3000
0000
0000
,  // measure 16
0200
0300
0000
0000
,  // measure 17
0020
0030
0000
0000
,  // measure 18
0200
0300
0000
0000
,  // measure 19
0020
0030
0000
0000
,  // measure 20
0000
0000
0000
0000
,  // measure 21
0001
0000
0001
0000
,  // measure 22
0100
0000
0000
0000
,  // measure 23
0010
0000
0010
0000
,  // measure 24
1000
0000
0000
0000
,  // measure 25
1000
0000
1000
0000
,  // measure 26
0100
0000
0000
0000
,  // measure 27
0010
0000
0010
0000
,  // measure 28
0001
0000
0000
0000
,  // measure 29
0002
0003
0000
0000
,  // measure 30
2000
3000
0000
0000
,  // measure 31
1001
0000
0000
0000
,  // measure 32
0000
0000
0000
0000
,  // measure 33
0200
0300
0000
0000
,  // measure 34
0020
0030
0000
0000
,  // measure 35
0110
0000
0000
0000
,  // measure 36
0000
0000
0000
0000
,  // measure 37
1000
1000
0000
0000
,  // measure 38
0001
0001
0000
0000
,  // measure 39
0010
0010
0000
0000
,  // measure 40
0100
0100
0000
0000
,  // measure 41
1000
1000
0000
0000
,  // measure 42
0010
0010
0000
0000
,  // measure 43
0100
0100
0000
0000
,  // measure 44
0001
0001
0000
0000
,  // measure 45
1001
0000
0000
0000
,  // measure 46
0000
0000
0000
0000
,  // measure 47
0000
0000
0000
0000
,  // measure 48
0002
0003
0002
0003
,  // measure 49
0001
0001
0001
0001
,  // measure 50
0001
0002
0000
0000
,  // measure 51
0000
0000
0000
0003
,  // measure 52
1000
1000
1000
1000
,  // measure 53
2000
3000
2000
3000
,  // measure 54
2000
0000
0000
3000
,  // measure 55
2000
0000
0000
3000
,  // measure 56
0200
0300
0200
0300
,  // measure 57
0100
0100
0100
0100
,  // measure 58
0200
0000
0000
0000
,  // measure 59
0300
0010
0010
0010
,  // measure 60
0020
0030
0020
0000
,  // measure 61
0030
0001
0001
0001
,  // measure 62
0002
0003
0002
0000
,  // measure 63
0000
0000
0000
0003
,  // measure 64
1000
0000
1000
0000
,  // measure 65
0001
0000
0001
0000
,  // measure 66
0100
0000
0100
0000
,  // measure 67
0010
0000
0010
0000
,  // measure 68
1000
0000
0001
0000
,  // measure 69
0010
0000
0100
0000
,  // measure 70
1000
0000
0001
0000
,  // measure 71
0100
0000
0010
0000
,  // measure 72
0001
0000
0000
0000
,  // measure 73
0000
0000
0000
0000
0000
0000
0000
1001
;
