#TITLE:Streets Of Gold;
#SUBTITLE:;
#ARTIST:Ruth Pointer;
#TITLETRANSLIT:;
#SUBTITLETRANSLIT:;
#ARTISTTRANSLIT:;
#GENRE:Disney Animation;
#CREDIT:;
#BANNER:Streets Of Gold.png;
#BACKGROUND:Streets Of Gold-bg.png;
#LYRICSPATH:;
#CDTITLE:;
#MUSIC:Streets Of Gold.mp3;
#OFFSET:-0.084;
#SAMPLESTART:30.600;
#SAMPLELENGTH:15.000;
#SELECTABLE:YES;
#BPMS:0.000=122.620
;
#STOPS:
;
#BGCHANGES:;
#KEYSOUNDS:;
#ATTACKS:;

//---------------dance-single - ----------------
#NOTES:
     dance-single:
     :
     Easy:
     3:
     0.246,0.269,0.216,0.056,0.000,154.000,23.000,6.000,0.000,0.000,0.000,0.246,0.269,0.216,0.056,0.000,154.000,23.000,6.000,0.000,0.000,0.000: // measure 0
0000
0000
0000
0000
,  // measure 1
0000
0000
0000
0000
,  // measure 2
0000
0000
0000
0000
,  // measure 3
0000
0000
0010
0010
,  // measure 4
0100
0000
1000
0000
,  // measure 5
0001
0100
0001
0000
,  // measure 6
0010
0100
1000
0010
,  // measure 7
0100
0000
0001
0001
,  // measure 8
0100
0000
0010
0000
,  // measure 9
1000
0001
1000
0000
,  // measure 10
0010
1000
0001
0010
,  // measure 11
0100
0000
0000
0000
,  // measure 12
0020
0001
0001
0000
,  // measure 13
0100
0100
0130
0000
,  // measure 14
0200
1000
1000
0000
,  // measure 15
0010
0010
0310
0100
,  // measure 16
0110
0000
1001
0000
,  // measure 17
1000
0100
0001
0000
,  // measure 18
1100
0000
0011
0000
,  // measure 19
0001
0010
0100
0000
,  // measure 20
1000
1000
0010
0100
,  // measure 21
0010
0000
0100
0001
,  // measure 22
1001
0000
0000
1001
0000
0000
0000
0000
,  // measure 23
1000
0100
0010
0001
,  // measure 24
1000
0000
0020
0000
,  // measure 25
0000
0100
0130
0010
,  // measure 26
1000
0001
2000
3010
,  // measure 27
1000
0000
0000
1000
0000
0000
1000
0000
,  // measure 28
0200
0310
0020
0031
,  // measure 29
0010
0110
1001
0000
,  // measure 30
1010
0000
0101
0001
,  // measure 31
1000
0010
0001
0010
,  // measure 32
0100
0100
0001
0100
,  // measure 33
0010
1000
0001
0000
,  // measure 34
1000
1000
0100
0010
,  // measure 35
0001
0100
0010
0100
,  // measure 36
0110
0000
1001
0000
,  // measure 37
1000
0100
0001
0100
,  // measure 38
0110
0000
1001
0000
,  // measure 39
1000
0010
0001
0010
,  // measure 40
0100
0100
0010
1000
,  // measure 41
0100
0000
0010
0100
,  // measure 42
0110
0000
0000
0110
0000
0000
0100
0000
,  // measure 43
1000
0100
0010
0001
,  // measure 44
1001
0000
0110
0000
,  // measure 45
0010
1000
0001
1000
,  // measure 46
1001
0000
0110
0000
,  // measure 47
0010
0001
1000
0001
,  // measure 48
1000
1000
0010
0100
,  // measure 49
0001
0000
1000
0100
,  // measure 50
0110
0000
0000
0110
0000
0000
0010
0000
,  // measure 51
0001
0010
0100
1000
,  // measure 52
1001
0000
0000
0000
;

//---------------dance-single - ----------------
#NOTES:
     dance-single:
     :
     Medium:
     5:
     0.410,0.391,0.282,0.179,0.132,256.000,30.000,19.000,0.000,0.000,0.000,0.410,0.391,0.282,0.179,0.132,256.000,30.000,19.000,0.000,0.000,0.000: // measure 0
0000
0000
0000
0000
,  // measure 1
0000
0000
0000
0000
,  // measure 2
0000
0000
0000
0000
,  // measure 3
0000
0000
0000
0000
0000
1000
0100
0010
,  // measure 4
0100
0000
0000
0000
0000
0010
0000
0000
0100
0000
0000
0000
0000
0000
1000
0000
,  // measure 5
0100
0000
0000
1000
0000
0000
0001
0000
0000
0000
0100
0000
0001
0000
0100
0000
,  // measure 6
0020
0000
0000
0000
2030
0000
0000
0000
3001
0000
0000
1000
0000
0000
0010
0000
,  // measure 7
0100
0000
0000
1001
0000
0000
0000
0000
1000
0000
0100
0000
0010
0000
0001
0000
,  // measure 8
0100
0000
0000
0000
0000
0000
0010
0000
0100
0000
0000
0001
0000
0000
0000
0000
,  // measure 9
0100
0000
0000
0001
0000
0000
1000
0000
0000
0000
0000
0000
0010
0000
0100
0000
,  // measure 10
0002
0000
0000
0000
0023
0000
0000
0000
0130
0000
0000
0100
0000
1000
0000
0000
,  // measure 11
1100
0000
0000
0000
0000
0000
1000
0001
,  // measure 12
0200
0010
0001
0301
,  // measure 13
0100
0000
0000
0010
0000
0010
0000
0000
1000
0000
0000
0000
0001
0000
1000
0000
,  // measure 14
0200
0000
0010
0000
0010
0000
0000
0000
1000
0000
0000
1000
0000
0000
1300
0000
,  // measure 15
0000
0000
0100
0000
0010
0000
0000
0100
0000
0000
1000
0000
0100
0000
1000
0000
,  // measure 16
0010
0000
0100
0010
0001
0000
0010
1000
,  // measure 17
0001
0000
0000
0001
0000
0000
0100
0000
0000
0001
0000
0000
1000
0000
1000
0000
,  // measure 18
1000
0000
0100
0010
0100
0000
0010
0100
,  // measure 19
1000
0000
0000
1000
0000
0000
0001
0000
0000
0000
0000
0000
0100
0000
0001
0000
,  // measure 20
0021
0000
1000
0000
0001
0000
0130
0010
,  // measure 21
0001
0100
0101
1010
,  // measure 22
2001
0000
0010
3020
0000
0000
0130
0000
,  // measure 23
0010
1000
0100
0010
0001
1000
0001
1000
,  // measure 24
1010
1010
2002
0000
,  // measure 25
3003
0000
0001
0010
0100
0001
1000
0010
,  // measure 26
0001
0001
1000
0000
2000
0000
3010
0000
,  // measure 27
1000
0000
0000
1001
0000
0000
0011
0000
,  // measure 28
0020
0130
0200
1300
,  // measure 29
1000
0000
0001
0000
0000
0010
0000
0000
0100
0000
0000
0000
0010
0000
0010
0000
,  // measure 30
0001
0000
0000
0100
0010
1000
0100
0010
,  // measure 31
0200
0000
1300
0100
1000
0000
1000
0001
,  // measure 32
0100
0000
0000
0000
0000
0000
0000
0000
0000
0000
0000
0000
0010
0000
0000
0000
0000
0000
0000
0000
0000
0000
0000
0000
1000
0000
0000
0000
0000
0000
0000
0000
0000
1000
0000
0000
0000
0000
0000
0000
0000
0000
0000
0000
0001
0000
0000
0000
,  // measure 33
0000
0010
0100
1000
0010
0000
0100
0100
,  // measure 34
0100
0000
0001
0000
0100
0000
0001
0000
0010
0000
0000
0100
0000
0000
1000
0000
,  // measure 35
0000
0000
0100
0000
1000
0000
0000
1001
0000
0000
0001
0000
0100
0000
0010
0000
,  // measure 36
0001
0000
0010
1000
0100
0000
0010
0100
,  // measure 37
0010
0000
0000
0010
0000
0000
0011
0000
0000
0001
0000
0000
0100
0000
0010
0000
,  // measure 38
0100
0000
0010
0100
0001
0000
1000
0001
,  // measure 39
0100
0000
0000
0010
0000
0000
1010
0000
0000
0000
0000
0000
1000
0000
0001
0000
,  // measure 40
2001
0000
0010
0000
0001
0000
0100
0100
,  // measure 41
3001
1000
1100
0110
,  // measure 42
1002
0010
1000
0010
0000
0003
1001
0000
,  // measure 43
0001
0100
0010
0000
0010
1000
0001
0100
,  // measure 44
0001
0000
0100
0001
1000
0000
0100
1000
,  // measure 45
0010
0000
0000
0010
0000
0000
0110
0000
0000
0100
0000
0000
0001
0000
0100
0000
,  // measure 46
1000
0000
0100
0001
0010
0000
0100
0010
,  // measure 47
0100
0000
0000
0100
0000
0100
0000
0000
0110
0000
0000
0000
0010
0000
0100
0000
,  // measure 48
0110
0000
1001
0000
1010
0000
0100
0001
,  // measure 49
0101
0000
0001
1000
1001
0000
1100
0000
,  // measure 50
0210
0000
1000
2000
0000
0000
0000
0000
,  // measure 51
3300
0000
0100
0000
0000
0010
0000
0000
0100
0000
0000
0000
0110
0000
0000
0000
,  // measure 52
1001
0000
0000
0000
;

//---------------dance-single - ----------------
#NOTES:
     dance-single:
     :
     Hard:
     9:
     0.590,0.587,0.555,0.245,0.353,354.000,59.000,26.000,0.000,0.000,0.000,0.590,0.587,0.555,0.245,0.353,354.000,59.000,26.000,0.000,0.000,0.000: // measure 0
0000
0000
0000
0000
,  // measure 1
0000
0000
0000
0000
,  // measure 2
0000
0000
0000
0000
0000
0000
0000
0000
0000
0000
0020
0000
0000
0000
0130
0010
,  // measure 3
0000
0001
0000
0000
0000
0000
0001
0000
0010
0000
0001
0000
1000
0000
0010
0000
,  // measure 4
1010
0000
0000
0000
1000
0001
0000
0000
0011
0000
0000
0000
0010
0000
0100
0000
,  // measure 5
1000
0000
0000
0001
0000
0000
0101
0000
0000
0000
0100
0000
0010
0000
1000
0000
,  // measure 6
2010
0000
0000
0000
3200
0000
0000
0000
0301
0000
0000
0100
0000
0000
1100
0000
,  // measure 7
0000
0000
1000
0001
0000
0000
0100
0000
0010
0000
1000
0000
0001
0000
0010
0000
,  // measure 8
0011
0000
0000
0000
0001
0000
1000
0000
1001
0000
0000
1000
0000
0000
0010
0000
,  // measure 9
0100
0000
0000
0100
0000
0000
0101
0000
0000
0000
0001
0000
1000
0000
0100
0000
,  // measure 10
0210
0000
0000
0000
2300
0000
0000
0000
3001
0000
0000
1000
0000
0010
0000
0000
,  // measure 11
0110
0000
0000
0000
0100
0001
0100
0001
0000
0000
1000
0000
0100
0010
0100
0000
,  // measure 12
2100
0001
0010
0010
,  // measure 13
3001
0000
1000
0001
0000
0010
0000
0000
0100
0000
0000
0000
0110
0000
0110
0000
,  // measure 14
0002
0000
0010
0000
0010
0000
1000
0000
0100
0000
0000
0100
0003
0000
0010
0000
,  // measure 15
0000
0000
0100
0000
1000
0000
0001
1000
0000
0000
0100
0000
0010
0100
0010
0000
,  // measure 16
0100
0000
1100
1000
0001
0000
0100
0001
,  // measure 17
0010
0000
0000
0010
0000
0000
0110
0000
0100
1000
0010
0100
0001
0000
0100
0000
,  // measure 18
0101
0000
0000
0000
0210
0000
0310
0000
0020
0000
1030
0000
1000
0010
0100
0001
,  // measure 19
0010
0000
0100
0010
0000
0000
0001
0000
0010
0100
0010
0001
0100
0000
0010
0000
,  // measure 20
0120
0000
2030
0000
3002
0000
0013
0001
,  // measure 21
1100
0000
1000
0010
0101
0000
0011
0110
,  // measure 22
2100
0000
3010
0210
0001
0000
0001
0301
,  // measure 23
0100
0010
1000
0001
0010
0100
0000
0010
0000
0100
0010
0001
0100
0010
1000
0001
,  // measure 24
0101
0101
2001
3010
,  // measure 25
1001
0000
0000
0000
1000
0000
0001
0000
0010
0000
0100
0000
0010
0100
0010
0001
,  // measure 26
0100
0000
0010
0010
0100
0000
0000
0000
0020
0000
0000
0000
1030
0000
0000
0000
,  // measure 27
1001
0000
0000
0000
0001
0000
0011
0000
0000
0000
0010
0100
0020
0000
0031
0000
,  // measure 28
0020
0130
0210
1300
,  // measure 29
1000
0001
0100
0000
0001
0020
0000
0000
0130
0000
0000
0000
1001
0000
1000
0000
,  // measure 30
0010
0000
0000
0000
0100
0000
0010
0100
0001
0000
0010
0000
0010
0000
0100
0000
,  // measure 31
0110
0000
0000
0000
0100
1000
0100
0000
2000
0000
0000
0000
3001
0000
1000
0000
,  // measure 32
0200
0000
0000
0000
0000
0000
0000
0000
0000
0000
0000
0000
0010
0000
0000
0000
0000
0000
0000
0000
0000
0000
0000
0000
1000
0000
0000
0000
0000
0000
0000
0000
0000
0001
0000
0000
0000
0000
0000
0000
0000
0000
0000
0000
0010
0000
0000
0000
,  // measure 33
0300
0100
1000
0010
0100
0000
0110
0110
,  // measure 34
0002
0000
0010
0000
0010
0000
1000
0000
1000
0000
0000
0100
0000
0000
1000
0000
,  // measure 35
0003
0000
0001
0000
0010
0100
0000
0110
0000
0000
0010
0000
0001
0000
0100
0000
,  // measure 36
0010
0000
1010
1000
0001
0000
0010
0100
,  // measure 37
0010
0000
0000
0001
0000
0000
1100
0000
1000
0100
1000
0001
0100
0000
0010
0000
,  // measure 38
1000
0000
1010
1000
0001
0001
0010
0100
,  // measure 39
0110
0000
0000
0100
0000
0000
1100
0000
1000
0010
0100
0001
1000
0000
0100
0000
,  // measure 40
1100
0000
1001
0000
0101
0000
0001
0100
,  // measure 41
0010
0100
0010
1000
0001
0010
0100
1000
0010
0000
0000
0000
0110
0000
0110
0000
,  // measure 42
0002
0000
0010
1003
0001
0010
1000
0010
,  // measure 43
0100
0010
0100
0010
0001
0010
0000
0100
1000
0000
0100
0000
0001
0100
1000
0000
,  // measure 44
0010
0000
1010
1000
0100
0000
0110
0010
,  // measure 45
0001
0100
0000
0010
0000
0000
0110
0000
0000
0010
0000
0000
1010
0000
1010
0000
,  // measure 46
1000
0000
1001
0001
0010
0000
0110
0100
,  // measure 47
1000
0000
0000
0001
0000
0100
0000
0000
0001
0100
0010
1000
0100
0000
0010
0000
,  // measure 48
0110
0000
0110
0000
0011
0000
0001
1000
,  // measure 49
1001
0000
1000
0010
0110
0000
0101
0200
,  // measure 50
0320
0000
1000
1030
0010
0100
0001
0100
,  // measure 51
0001
0010
0100
0010
0001
1000
0000
1000
0010
0100
0001
0000
1000
0001
0100
0000
,  // measure 52
0010
0000
0000
0000
;

//---------------dance-single - ----------------
#NOTES:
     dance-single:
     :
     Beginner:
     1:
     0.079,0.073,0.056,0.056,0.000,47.000,6.000,6.000,0.000,0.000,0.000,0.079,0.073,0.056,0.056,0.000,47.000,6.000,6.000,0.000,0.000,0.000: // measure 0
0000
0000
0000
0000
,  // measure 1
0000
0000
0000
0000
,  // measure 2
0000
0000
0000
0000
,  // measure 3
0000
0000
0000
0000
,  // measure 4
1000
0000
0000
0000
,  // measure 5
1000
0000
0000
0000
,  // measure 6
0001
0000
0001
0000
,  // measure 7
0001
0000
0000
0000
,  // measure 8
0010
0000
0000
0000
,  // measure 9
0010
0000
0000
0000
,  // measure 10
0100
0000
0100
0000
,  // measure 11
0100
0000
0000
0000
,  // measure 12
2000
0000
0000
0000
,  // measure 13
3000
0000
0000
0000
,  // measure 14
0002
0000
0000
0000
,  // measure 15
0003
0000
0000
0000
,  // measure 16
0000
1001
0000
0000
,  // measure 17
1000
0000
0000
0000
,  // measure 18
0000
0110
0000
0000
,  // measure 19
0010
0000
0000
0000
,  // measure 20
0001
0000
0000
0000
,  // measure 21
0010
0000
0000
0000
,  // measure 22
0100
0000
0000
0000
,  // measure 23
1000
0000
0000
0000
,  // measure 24
1001
0000
0000
0000
,  // measure 25
1000
0000
0000
0000
,  // measure 26
0001
0000
0000
0000
,  // measure 27
0200
0000
0000
0000
,  // measure 28
0310
0000
0000
0000
,  // measure 29
0010
0000
0000
0000
,  // measure 30
1000
0000
0000
0000
,  // measure 31
0002
0000
0000
0000
,  // measure 32
0203
0000
0000
0000
,  // measure 33
0300
0000
0000
0000
,  // measure 34
0020
0000
0000
0000
,  // measure 35
0030
0000
0000
0000
,  // measure 36
1000
0000
0000
0000
,  // measure 37
1000
0000
0000
0000
,  // measure 38
0001
0000
0000
0000
,  // measure 39
0001
0000
0000
0000
,  // measure 40
1000
0000
0000
0000
,  // measure 41
0010
0000
0000
0000
,  // measure 42
0100
0000
0000
0000
,  // measure 43
0001
0000
0000
0000
,  // measure 44
0000
1001
0000
0000
,  // measure 45
0001
0000
0000
0000
,  // measure 46
0000
0110
0000
0000
,  // measure 47
0100
0000
0000
0000
,  // measure 48
1000
0000
0000
0000
,  // measure 49
0100
0000
0000
0000
,  // measure 50
0010
0000
0000
0000
,  // measure 51
0001
0000
0000
0000
,  // measure 52
1001
0000
0000
0000
;
