#TITLE:Schlagwerk;
#SUBTITLE:(TERROR MIX);
#ARTIST:TaQ;
#TITLETRANSLIT:;
#SUBTITLETRANSLIT:;
#ARTISTTRANSLIT:;
#CREDIT:;
#BANNER:[16ths Week] - Schlagwerk (TERROR MIX).png;
#BACKGROUND:[16ths Week] - Schlagwerk (TERROR MIX)-bg.png;
#LYRICSPATH:;
#CDTITLE:;
#MUSIC:[16ths Week] - Schlagwerk (TERROR MIX).ogg;
#OFFSET:-0.480;
#SAMPLESTART:5.963;
#SAMPLELENGTH:12.000;
#SELECTABLE:YES;
#BPMS:0.000=125.060;
#STOPS:11.000=1.440
;
#BGCHANGES:-100.000=blank.png=1.000=0=0=0,
-1.000=[16ths Week] - Schlagwerk (TERROR MIX).avi=1.000=0=0=0,
99999=-nosongbg-=1.000=0=0=0 // don't automatically add -songbackground-
;

//---------------dance-single - ----------------
#NOTES:
     dance-single:
     :
     Challenge:
     9:
     0.749,0.822,0.395,0.000,0.982: // measure 1
0000
0000
0000
0000
,  // measure 2
0000
0000
0000
0000
,  // measure 3
0000
0000
0000
0000
,  // measure 4
1000
0001
0000
1000
0001
0000
0010
0000
0001
1000
0000
0001
1000
0000
0100
0000
,  // measure 5
1000
0001
0000
1000
0001
0000
0100
0000
0001
1000
0000
0001
1000
0000
0100
0000
,  // measure 6
0010
0001
0000
0100
0010
0000
1000
0000
0100
0010
0000
0001
0100
0000
0010
0000
,  // measure 7
1000
0100
0000
0010
0001
0000
0100
0000
0001
1000
0000
0100
0010
0000
0001
0000
,  // measure 8
1000
0100
1000
0100
0010
0000
0001
0000
0100
0001
0100
0001
1000
0000
0100
0000
,  // measure 9
0010
0001
0010
0001
0010
0000
0100
0000
1000
0001
1000
0001
1000
0000
0100
0000
,  // measure 10
0010
0001
0010
0001
0010
0000
0100
0000
1000
0100
1000
0100
1000
0000
0001
0000
,  // measure 11
0100
0001
0100
0001
0100
0000
0010
0000
1000
0100
1000
0100
0010
0000
0001
0000
,  // measure 12
0010
0001
0010
0001
0100
0001
0100
0001
1000
0100
1000
0100
0010
0100
0010
0100
,  // measure 13
0010
0001
1000
0100
0010
0001
1000
0100
1000
0001
0100
0001
1000
0100
0010
0001
,  // measure 14
1000
0001
0100
0010
1000
0001
0010
0100
1000
0001
0100
0001
1000
0100
0010
0001
,  // measure 15
1000
0100
1000
0010
0100
0001
1000
0100
0010
0000
0000
1001
0000
0000
1000
0001
,  // measure 16
0100
0000
0000
0010
1000
0000
1100
0000
0100
0000
0000
0100
0010
0000
0011
0000
,  // measure 17
0001
0000
0000
0001
0100
0000
0101
0000
0100
0000
0000
0100
0010
0000
1010
0000
,  // measure 18
1000
0000
0000
1000
0100
0000
0110
0000
0001
0000
0000
0001
0100
0000
0110
0000
,  // measure 19
1000
0000
0000
1000
0001
0000
0101
0000
0110
0000
0000
0110
0000
0000
1001
0000
,  // measure 20
0100
0010
0000
0010
0001
0000
0100
0000
0001
1000
0000
1000
0100
0000
0010
0000
,  // measure 21
0001
0100
0000
0100
0001
0000
1000
0000
0100
0010
0000
0010
0100
0000
1000
0000
,  // measure 22
0001
0100
0000
0100
0001
0000
1000
0000
0100
1000
0000
1000
0001
0000
0100
0000
,  // measure 23
0010
1000
0000
1000
0001
0000
0010
0000
0110
0000
0000
0110
0000
0000
1001
0000
,  // measure 24
0100
0001
0000
0001
0100
0001
1000
0000
1000
0100
0000
0100
1000
0100
1000
0000
,  // measure 25
0001
0100
0000
0100
0010
0100
0001
0000
1000
0100
0000
0100
0010
0100
1000
0000
,  // measure 26
0001
0100
0000
0100
0010
0100
0001
0000
1000
0100
0000
0100
0010
0100
1000
0000
,  // measure 27
0001
0100
0000
0100
0010
1000
0010
0000
1000
0100
0010
0001
1000
0100
1000
0000
,  // measure 28
0001
0100
0000
0100
0010
0100
0001
0000
1000
0100
0000
0100
1000
0100
0010
0000
,  // measure 29
0100
1000
0000
1000
0100
1000
0001
0000
0001
0100
0000
0100
0010
0100
0001
0000
,  // measure 30
1000
0100
0000
0100
0010
0100
0010
0000
0010
0001
0000
0001
0010
0100
0010
0000
,  // measure 31
0010
0001
0000
1001
0000
0100
0010
0000
1001
0000
0000
1001
0000
0000
0000
0000
,  // measure 32
0101
0000
0000
0100
0010
0000
1000
0000
0100
0010
0000
0010
0001
0000
1000
0000
,  // measure 33
0101
0000
0000
0100
0010
0000
1000
0000
0100
0010
0000
0010
0100
0000
1000
0000
,  // measure 34
1100
0000
0000
1000
0010
0000
0100
0000
0001
0100
0000
0100
0001
0000
0010
0000
,  // measure 35
0110
0000
0000
0000
0000
0000
0000
0000
1001
0000
0000
1001
0000
0000
1001
0000
,  // measure 36
0110
0000
0000
0010
1000
0000
1000
0001
0100
0000
0000
0100
0001
0000
1001
0000
,  // measure 37
1100
0000
0000
0100
0010
0000
0001
1000
0100
0000
0000
0100
0010
0000
0011
0000
,  // measure 38
1001
0000
0000
0001
0100
0000
0100
0010
1000
0000
0000
1000
0100
0000
0110
0000
,  // measure 39
0011
0000
0000
0001
0100
0000
0010
1000
0001
0000
0000
1001
0000
0000
1001
0000
,  // measure 40
0000
0000
0100
0000
1001
0000
0100
0000
0001
1000
0000
1000
0001
0000
0100
0010
,  // measure 41
0100
0000
0001
0000
0001
0000
0100
0000
0100
0001
0000
1000
0100
0000
0100
0000
,  // measure 42
0010
0001
0000
0001
0010
0000
1100
0000
0100
1000
0000
1000
0001
0000
0100
0000
,  // measure 43
0010
1000
0000
1000
0001
0000
0010
0000
0100
0010
0100
1000
0000
0000
1001
0000
,  // measure 44
0100
0000
0000
0100
0010
0000
1000
0000
0001
0100
0000
0100
0001
0000
1000
0000
,  // measure 45
0100
0010
0000
0010
0001
0000
1000
0000
0001
0100
0000
0010
1000
0000
0001
0000
,  // measure 46
1000
0100
0000
0100
1000
0000
0001
0000
0100
0010
0000
0100
0001
0000
1000
0000
,  // measure 47
0010
0000
0000
0100
0000
0000
0010
0000
0000
0100
0000
0000
0001
0000
1000
0000
0001
0000
1000
0000
0001
0000
1000
0000
0010
0000
0000
0000
0000
0000
0000
0000
0000
1001
0000
0000
0000
0000
0000
0000
0000
0000
0000
0000
0000
0000
0000
0000
;

//---------------dance-single - ----------------
#NOTES:
     dance-single:
     :
     Hard:
     9:
     0.699,0.701,0.406,0.064,0.779: // measure 1
0000
0000
0000
0000
,  // measure 2
0000
0000
0000
0000
,  // measure 3
0000
0000
0000
0000
,  // measure 4
1001
0000
0000
0001
0010
0000
0100
0000
1100
0000
0000
1000
0010
0000
0100
0000
,  // measure 5
0101
0000
0000
0001
0010
0000
0100
0000
1000
0001
0000
0001
1000
0000
0010
0000
,  // measure 6
0100
0000
0000
0100
0001
0000
1000
0000
0100
0000
0000
0100
1000
0000
0001
0000
,  // measure 7
0100
0000
0000
0100
0001
0000
1000
0000
0100
0010
0000
0010
0001
0000
0000
0000
,  // measure 8
0001
0100
0001
0100
0001
0100
0001
0010
,  // measure 9
0100
1000
0100
1000
0100
1000
0100
1000
,  // measure 10
0010
0100
0010
0100
0010
0100
0010
0100
,  // measure 11
0001
1000
0100
1000
0001
0100
0010
0100
,  // measure 12
0110
0000
0001
0000
1000
0000
0100
0000
0010
0100
0010
0001
1000
0000
0010
0000
,  // measure 13
0110
0000
0100
0000
0001
0000
1000
0000
0100
0010
0001
1000
0010
0000
0100
0000
,  // measure 14
0010
0100
0010
0100
0010
0100
0010
0100
0001
1000
0001
1000
0001
1000
0001
1000
,  // measure 15
0001
0100
0001
0100
0010
1000
0010
1000
0100
0000
0000
0110
0000
0000
0010
0000
,  // measure 16
1001
0000
0000
0001
1000
0000
0100
0000
0110
0000
0000
0010
0001
0000
0100
0000
,  // measure 17
0110
0000
0000
0010
1000
0000
0100
0000
0110
0000
0000
0010
0001
0000
0100
0000
,  // measure 18
0110
0000
0000
1000
0100
0000
0010
0000
0110
0000
0000
0010
0001
0000
0100
0000
,  // measure 19
0110
0000
0000
1000
0001
0000
0100
0000
2002
0000
0000
0000
3003
0000
1001
0000
,  // measure 20
0100
0000
0000
0100
0010
0000
1000
0000
1001
0000
0000
0100
0010
0000
0001
0000
,  // measure 21
1001
0000
0000
0100
0010
0000
1000
0000
1001
0000
0000
0100
0010
0000
0001
0000
,  // measure 22
1001
0000
0000
0100
0010
0000
1000
0000
1001
0000
0000
0100
0010
0000
0001
0000
,  // measure 23
1001
0000
0000
0100
0010
0000
1000
0000
1001
0000
0000
1001
0000
0000
0100
0000
,  // measure 24
0010
0100
0000
0100
0001
0100
0001
0000
0010
0100
0000
0100
1000
0100
1000
0000
,  // measure 25
0010
0100
0000
0100
0001
0100
0001
0000
1000
0100
0000
0010
0001
1000
0001
0000
,  // measure 26
1000
0100
0000
1000
0100
1000
0001
0000
0001
0100
0000
0001
0100
0001
1000
0000
,  // measure 27
1000
0100
0000
1000
0100
1000
0010
0000
0010
0100
0001
0000
1000
0100
1000
0000
,  // measure 28
0010
1000
0000
1000
0001
0100
0010
0000
0010
0100
0000
0100
0001
1000
0100
0000
,  // measure 29
0100
0010
0000
0010
0001
1000
0010
0000
0010
0100
0000
0100
0001
1000
0100
0000
,  // measure 30
0010
0001
0000
0001
1000
0010
0100
0000
0100
0010
0000
0010
1000
0001
0010
0000
,  // measure 31
0010
0100
0000
0110
0000
0110
0000
1000
0001
0000
0000
2002
0000
0000
3003
0000
,  // measure 32
0100
0001
0000
0001
1000
0000
0100
0000
0010
0001
0000
0001
1000
0000
0010
0000
,  // measure 33
0100
0001
0000
0001
1000
0000
0100
0000
0010
0001
0000
0001
1000
0000
0010
0000
,  // measure 34
0100
0001
0000
0001
1000
0000
0100
0000
0010
0001
0000
0001
0100
0000
0000
0000
,  // measure 35
0110
0000
0000
0000
0000
0000
0000
0000
1001
0000
0000
1001
0000
0000
1001
0000
,  // measure 36
0110
0000
0000
1000
0100
0000
0010
0000
0001
1000
0000
1000
0010
0000
0100
0000
,  // measure 37
0010
1000
0000
1000
0001
0000
0010
0000
0100
1000
0000
1000
0010
0000
0100
0000
,  // measure 38
0010
1000
0000
1000
0001
0000
0010
0000
0100
1000
0000
1000
0001
0000
0100
0000
,  // measure 39
0010
1000
0000
1000
0001
0000
0010
0000
0100
1000
0001
1000
0000
0000
1001
0000
,  // measure 40
0000
0000
0100
0000
1001
0000
0100
0000
0010
1000
0010
1000
0010
0000
0100
0000
,  // measure 41
0100
0001
0000
0001
0010
0000
0011
0000
1000
0100
1000
0100
1000
0000
0010
0000
,  // measure 42
0100
0001
0000
0001
1000
0000
1001
0000
0100
1000
0000
1000
0010
0000
1010
0000
,  // measure 43
0100
0001
0000
0001
1000
0000
0001
0000
1001
0000
0010
0010
0000
0000
0000
0000
,  // measure 44
0001
0010
0000
0010
0001
0000
1000
0000
0010
1000
0000
1000
0010
0000
0100
0000
,  // measure 45
0001
1000
0000
1000
0001
0000
0100
0000
0001
1000
0000
1000
0100
0000
0010
0000
,  // measure 46
0001
0100
0000
0100
0001
0000
0010
0000
0100
0010
0000
0010
0001
0000
0100
0000
,  // measure 47
0001
1000
0001
1000
0001
0100
0010
0100
0010
0000
0000
2002
0000
0000
3003
0000
;

//---------------dance-single - ----------------
#NOTES:
     dance-single:
     :
     Medium:
     7:
     0.450,0.449,0.577,0.128,0.027: // measure 1
0000
0000
0000
0000
,  // measure 2
0000
0000
0000
0000
,  // measure 3
0000
0000
0000
0000
,  // measure 4
1001
0000
1000
0100
1100
0000
0001
0010
,  // measure 5
0011
0000
1000
0001
1001
0000
0100
0100
,  // measure 6
0010
0000
0010
1000
1010
0000
0010
0100
,  // measure 7
0101
0000
0001
1000
1001
0000
0110
0000
,  // measure 8
2000
0000
0000
3000
,  // measure 9
0002
0000
0000
0003
,  // measure 10
0020
0000
0000
0030
,  // measure 11
0200
0000
0000
0300
,  // measure 12
2200
0000
0000
0000
3000
0000
0300
1000
,  // measure 13
2002
0000
0000
0000
0000
0000
3003
0010
,  // measure 14
0220
0000
0330
0001
2002
0000
3003
0010
,  // measure 15
0110
0000
0000
0000
1001
0000
0000
0000
0110
0000
0000
0110
0000
0000
0000
0000
,  // measure 16
1001
0000
1000
0100
1100
0000
0001
0010
,  // measure 17
0011
0000
1000
0010
1010
0000
0100
0001
,  // measure 18
0101
0000
0001
1000
1001
0000
1000
0010
,  // measure 19
1010
0000
0100
0001
0101
0000
1001
0000
,  // measure 20
0010
0000
0010
1000
1010
0000
0100
0001
,  // measure 21
0101
0000
0001
1000
1001
0000
1000
0100
,  // measure 22
1100
0000
0100
0010
0011
0000
0001
0010
,  // measure 23
0100
0000
0100
1000
1010
0000
1001
0000
,  // measure 24
0001
0000
0100
0001
0100
0000
0100
0010
,  // measure 25
1000
0000
1000
0010
0100
0000
0100
0010
,  // measure 26
1000
0000
1000
0001
0010
0000
0010
0100
,  // measure 27
0010
0000
0010
0001
1000
0010
1000
0001
,  // measure 28
0010
0000
0010
0100
1000
0000
1000
0100
,  // measure 29
0010
0000
0010
0001
1000
0000
1000
0010
,  // measure 30
0100
0000
0100
0010
1000
0000
1000
0001
,  // measure 31
0100
0000
0000
0000
0010
0000
0000
0000
1001
0000
0000
1001
0000
0000
0000
0000
,  // measure 32
1001
0000
1000
0001
0101
0000
0001
1000
,  // measure 33
1100
0000
1000
0010
1010
0000
0010
0100
,  // measure 34
0101
0000
0001
0010
0011
0000
0100
1000
,  // measure 35
1001
0000
0000
0000
0000
0000
0000
0000
0110
0000
0000
1001
0000
0000
0010
0000
,  // measure 36
1001
0000
1000
0010
1010
0000
0100
0001
,  // measure 37
0101
0000
0001
0010
0011
0000
1000
0100
,  // measure 38
1100
0000
1000
0010
1010
0000
0001
0010
,  // measure 39
0011
0000
1000
0010
0110
0000
1001
0000
,  // measure 40
1000
0000
0100
0000
0010
0000
0001
1000
,  // measure 41
0010
0000
0100
0000
0010
1000
0001
1000
,  // measure 42
0010
0000
0100
0000
0010
1000
0001
0000
,  // measure 43
0010
0000
0100
0000
1000
0000
0000
0000
0001
0000
0001
0001
0000
0000
0000
0000
,  // measure 44
1000
0001
0100
0010
1000
0001
0010
0100
,  // measure 45
0010
0001
1000
0010
0100
0010
1000
0001
,  // measure 46
0010
0100
1000
0010
0001
1000
0010
1000
,  // measure 47
0001
0000
0010
0000
0100
0000
0010
0000
1001
0000
0000
1001
0000
0000
0000
0000
;

//---------------dance-single - ----------------
#NOTES:
     dance-single:
     :
     Easy:
     5:
     0.276,0.349,0.203,0.043,0.021: // measure 1
0000
0000
0000
0000
,  // measure 2
0000
0000
0000
0000
,  // measure 3
0000
0000
0000
0000
,  // measure 4
1001
0000
0110
0000
,  // measure 5
1001
0000
0110
0000
,  // measure 6
1001
0000
0110
0000
,  // measure 7
1001
0000
1001
0000
,  // measure 8
2000
0000
0000
3000
,  // measure 9
0002
0000
0000
0003
,  // measure 10
0200
0000
0000
0300
,  // measure 11
0020
0000
0000
0030
,  // measure 12
1000
0000
0000
0000
0000
0000
0000
0001
,  // measure 13
0001
0000
0000
0000
0000
0000
0000
0010
,  // measure 14
0010
0000
0000
0000
,  // measure 15
0100
0000
0000
0000
0000
0000
0000
0000
0010
0000
0000
0010
0000
0000
0000
0000
,  // measure 16
1001
1000
1010
1000
,  // measure 17
1001
1000
1010
1000
,  // measure 18
1001
0001
0011
0001
,  // measure 19
1001
0100
0110
0000
,  // measure 20
1000
1000
0001
0001
,  // measure 21
0010
0010
0100
0100
,  // measure 22
0010
0001
0010
1000
,  // measure 23
0010
0100
0010
0000
,  // measure 24
1000
1000
0001
0001
,  // measure 25
1000
1000
0001
0001
,  // measure 26
0010
0100
0010
0010
,  // measure 27
0100
0000
1000
0001
0100
0000
0010
0000
,  // measure 28
0100
0100
0010
0010
,  // measure 29
1000
1000
0001
0001
,  // measure 30
0010
0100
0010
0001
,  // measure 31
1000
0000
0000
0000
0001
0000
0000
0000
0100
0000
0000
0100
0000
0000
0000
0000
,  // measure 32
0010
0000
0010
1000
0010
0000
0010
0000
,  // measure 33
0100
0000
0001
0100
0001
0000
0001
0000
,  // measure 34
0010
0000
0010
0100
0010
0000
0100
0000
,  // measure 35
0010
0000
0000
0000
0000
0000
0000
0000
0010
0000
0000
0010
0000
0000
0010
0000
,  // measure 36
0100
0000
1000
0100
1000
0000
0010
0000
,  // measure 37
0100
0000
0001
0100
0001
0000
0001
0000
,  // measure 38
1000
0000
0100
1000
0100
0000
0010
0000
,  // measure 39
0001
0000
0010
0010
0010
0000
0100
0000
,  // measure 40
0000
0010
0001
1000
,  // measure 41
0010
0100
0010
0010
,  // measure 42
1000
1000
0001
0001
,  // measure 43
0010
0100
0010
1001
,  // measure 44
1000
0000
0100
0000
1000
0100
1000
0000
,  // measure 45
0010
0000
0110
0000
0001
0100
0001
0000
,  // measure 46
1000
0100
1000
0000
0001
0100
0001
0000
,  // measure 47
0010
0000
0100
0000
0010
0000
0000
0000
0010
0000
0000
1001
0000
0000
0000
0000
;
