#TITLE:SCHEIßE;
#SUBTITLE:GUENA LG CLUB REMIX;
#ARTIST:LADY GAGA;
#TITLETRANSLIT:;
#SUBTITLETRANSLIT:;
#ARTISTTRANSLIT:;
#GENRE:;
#CREDIT:;
#BANNER:Scheisse Remix-bn.png;
#BACKGROUND:Scheisse Remix-bg.png;
#LYRICSPATH:;
#CDTITLE:;
#MUSIC:Scheisse (Guena LG Club Remix).mp3;
#OFFSET:-0.737000;
#SAMPLESTART:22.677000;
#SAMPLELENGTH:14.700000;
#SELECTABLE:YES;
#BPMS:0.000000=131.000000
;
#STOPS:172.000000=1.373000
;
#BGCHANGES:;
#KEYSOUNDS:;
#ATTACKS:;

//---------------dance-single - Blank----------------
#NOTES:
     dance-single:
     :
     Hard:
     9:
     0.587984,0.583084,0.213812,0.142542,0.605801,422.000000,24.000000,16.000000,0.000000,0.000000,0.000000,0.587984,0.583084,0.213812,0.142542,0.605801,422.000000,24.000000,16.000000,0.000000,0.000000,0.000000:
0000
0000
0000
0000
,
0000
0000
0000
0000
,
0000
0000
0000
0000
,
0000
0000
0000
0000
,
0010
0000
0100
0000
0001
0000
1000
0001
0000
0100
0000
0010
1000
0000
0001
0000
,
0100
0000
0010
0000
1000
0000
0001
0010
0000
0100
0000
1000
0100
0000
0010
0000
,
0100
0000
1000
0000
0001
0000
0100
0010
0000
1000
0000
0100
0010
0000
0001
0000
,
0100
0000
0010
0000
1000
0000
0001
1000
0000
0100
0000
0010
0001
0000
0200
0000
,
0001
0000
0000
0001
0000
0000
0001
0000
0000
0301
0000
0100
0010
0000
2000
0000
,
0100
0000
0000
0100
0000
0000
0100
0000
0000
3100
0000
1000
0001
0000
0020
0000
,
0001
0000
0000
0001
0000
0000
0001
0000
0000
0031
0000
0010
0001
0000
0200
0000
,
0010
0000
0000
0010
0000
0000
0010
0000
0000
0310
0000
0100
0001
0000
1000
0000
,
0001
0000
0000
0010
0000
0000
0100
0000
0000
1000
0000
0010
0100
0000
0001
0000
,
1000
0000
0000
0100
0000
0000
1000
0000
0001
0010
0001
0000
1000
0000
0001
0000
,
1000
0000
0000
0100
0000
0000
0010
0000
0000
0001
0000
0100
0010
0000
1000
0000
,
0001
0000
0000
0010
0000
0000
0001
0000
1000
0100
1000
0000
0001
0000
1000
0000
,
0001
0000
0000
0010
0000
0000
0100
0000
0000
0010
0000
0001
1000
0000
0010
0000
,
0100
0000
0000
0010
0000
0000
0100
0000
0001
1000
0001
0000
1000
0000
0100
0000
,
0001
0000
0000
0100
0000
0000
0010
0000
0000
0001
0000
1000
0010
0000
0100
0000
,
0001
0000
0000
0010
0000
0000
0100
0000
1000
0001
1000
0000
0001
0000
0010
0000
,
0100
0000
0000
0100
1000
0000
0000
1000
0001
0000
0000
0001
0100
0000
1000
0000
,
0100
0001
0100
1000
0100
0100
0100
0000
,
0010
0000
0000
0010
1000
0000
0000
1000
0001
0000
0000
0001
0010
0000
1000
0000
,
0010
0001
0010
1000
0010
0010
0010
0000
,
0001
0000
0000
0001
1000
0000
0000
1000
0010
0000
0000
0010
0100
0000
0001
0000
,
0100
1000
0100
0001
0100
0100
0100
0000
,
0001
0000
0000
0001
1000
0000
0000
1000
0100
0000
0000
0100
0010
0000
0001
0000
,
0010
1000
0010
0001
0010
0010
0010
0000
,
0001
0000
0000
0001
0000
0000
0001
0000
0000
0001
0000
0000
0100
0000
0010
0000
,
1000
0000
0000
1000
0000
0000
1000
0000
0000
1000
0000
0000
0001
0000
0010
0000
,
0100
0000
0000
0100
0000
0000
0100
0000
0000
0100
0000
0000
1000
0000
0001
0000
,
0010
0000
0000
0010
0000
0000
0010
0000
0000
0000
0000
0000
0000
0000
0000
0000
,
0100
0000
0010
0000
1000
0000
0001
0010
0000
0100
0000
1000
0010
0000
0100
0000
,
0001
0000
1000
0000
0100
0000
0010
0001
0000
1000
0000
0010
0100
0000
0001
0000
,
0010
0000
0100
0000
1000
0000
0001
0010
0000
0001
0000
0100
0001
0000
1000
0000
,
0001
0000
0100
0000
0001
0000
0100
0000
0000
0010
0000
0000
1000
0000
0100
0000
1000
0000
0100
0000
0000
0000
0000
0000
,
1000
0000
0010
0100
0010
0000
1000
0001
0000
0100
0000
0001
0010
0000
0100
0000
,
1000
0000
0001
0100
0001
0000
0010
0100
0000
1000
0000
0010
0100
0000
0001
0000
,
1000
0000
0010
0100
0010
0000
1000
0100
0000
0010
0000
0001
0100
0000
0001
0000
,
1001
0000
0000
0101
0000
0000
1010
0000
0000
0011
0000
1000
0100
0000
1001
0000
,
0200
0000
0000
0002
0300
0000
2000
0000
0003
3010
0000
0000
0100
0000
0001
0000
,
2000
0000
0000
0002
3000
0000
0200
0003
0000
0310
0000
0000
1000
0000
0001
0000
,
0200
0000
0000
0020
0300
0000
2000
0030
0000
3100
0000
0000
1000
0000
0001
0000
,
0110
0000
0000
0000
0100
0000
0000
0001
0000
0000
1001
0000
0000
0001
0000
1000
,
0100
0000
0010
0000
0101
0000
0000
1000
0000
0000
1100
0000
0010
0100
0010
0000
,
1000
0000
0010
0000
0100
0000
0000
0001
0000
0000
0101
0000
0000
0100
0000
0010
,
1000
0000
0100
0000
0011
0000
0000
1000
0000
0000
1010
0000
0001
0100
0001
0000
,
1000
0000
0100
0000
0011
0000
0000
1010
0000
0000
1001
0000
0000
1000
0000
0001
,
0100
0000
0010
0000
1100
0000
0000
0101
0000
0000
0110
0000
1000
0100
1000
0000
,
0010
0000
0100
0000
0101
0000
0000
1100
0000
0000
1001
0000
0000
0010
0000
0100
,
1000
0000
0010
0000
1001
0000
0000
1010
0000
0000
0011
0000
0001
1000
0001
0000
,
1000
0000
0100
0000
0001
0000
0000
0100
0000
0000
1000
0000
0000
0010
0000
0100
,
1000
0000
0100
0000
0001
0000
0000
0010
0000
0000
0100
0000
0000
0001
0000
0100
,
1000
0000
0010
0000
0100
0000
0000
0001
0000
0000
0010
0000
0000
1000
0000
0010
,
0001
0000
0100
0000
1000
0000
0000
0100
0000
0000
0001
0000
0000
0010
0000
0100
,
0010
0100
1000
0100
0001
0100
1000
0100
,
0001
0100
1000
0010
0001
0010
1000
0010
,
0001
0000
0010
0000
1000
0100
1000
0100
1000
0100
1000
0100
1000
0100
1000
0100
,
1000
0100
2000
0000
0000
0000
3100
0000
0010
0000
0001
0000
1000
0000
0020
0000
,
0200
0000
0330
0000
;

//---------------dance-single - ----------------
#NOTES:
     dance-single:
     :
     Medium:
     6:
     0.439079,0.422279,0.213812,0.427625,0.080180,273.000000,24.000000,48.000000,0.000000,0.000000,0.000000,0.439079,0.422279,0.213812,0.427625,0.080180,273.000000,24.000000,48.000000,0.000000,0.000000,0.000000:
0000
0000
0000
0000
,
0000
0000
0000
0000
,
0000
0000
0000
0000
,
0000
0000
0000
0000
,
0100
0000
0001
0000
1000
0100
1000
0010
,
1000
0000
0100
0000
0010
0001
1000
0001
,
0100
0000
0010
0000
0100
0001
1000
0001
,
0100
0001
1000
0001
,
1000
0000
0000
1000
0000
0000
1000
0000
0000
1000
0000
0000
1000
0000
0000
0000
,
0010
0000
0000
0010
0000
0000
0010
0000
0000
0010
0000
0000
0010
0000
0000
0000
,
0100
0000
0000
0100
0000
0000
0100
0000
0000
0100
0000
0000
0100
0000
0000
0000
,
0001
0000
0000
0001
0000
0000
0001
0000
0000
0001
0000
0000
0001
0000
0000
0000
,
2002
0000
3003
0000
0100
0010
0001
0200
,
0000
0300
0010
1000
0100
0010
0001
0000
,
2002
0000
3003
0000
0001
1000
0010
0200
,
0000
0301
0010
0100
1000
0010
0100
0000
,
2002
0000
3003
0000
0010
0100
1000
0020
,
0000
0030
0100
0001
1000
0200
0000
0020
,
0000
0000
0330
0000
0100
0010
0001
2000
,
0000
3001
0010
0100
1000
0001
0100
0000
,
0101
1100
1010
0011
,
1000
0010
1000
0000
0001
0010
0001
0000
,
0101
1100
1010
0011
,
1000
0100
1000
0000
0001
0100
0001
0000
,
1100
0101
0011
1010
,
0001
0010
0001
0000
1000
0010
1000
0000
,
1100
0101
0011
1010
,
0001
0010
0001
0000
1000
0010
1000
0000
,
0100
0000
0000
0100
0000
0000
0200
0000
0000
0000
0000
0000
0300
0000
0000
0000
,
1000
0000
0000
1000
0000
0000
2000
0000
0000
0000
0000
0000
3000
0000
0000
0000
,
0001
0000
0000
0001
0000
0000
0002
0000
0000
0000
0000
0000
0003
0000
0000
0000
,
0010
0000
0000
0010
0000
0000
0010
0000
0000
0000
0000
0000
0000
0000
0000
0000
,
0010
0000
0001
0000
1000
0001
1000
0010
,
1000
0000
0001
0000
0100
0001
0010
0001
,
0100
0000
0010
0000
1000
0100
0010
0001
,
0200
0300
0002
0003
,
0010
0000
0100
0000
1000
0001
1000
0010
,
0100
0000
0001
0000
0010
0100
0010
0001
,
1000
0000
0010
0000
0100
0001
1000
0001
,
0100
0100
0100
0000
,
0010
0000
0000
0010
0000
0000
0010
0000
0000
0010
0000
0000
0010
0000
0000
0000
,
1000
0000
0000
1000
0000
0000
1000
0000
0000
1000
0000
0000
1000
0000
0000
0000
,
0001
0000
0000
0001
0000
0000
0001
0000
0000
0001
0000
0000
0001
0000
0000
0000
,
0110
0000
2002
0000
3003
0000
0010
0001
,
1000
0020
0000
0030
1000
0100
0010
0001
,
0100
0000
2002
0000
3003
0000
0001
0010
,
0100
0020
0000
0031
1000
0100
1000
0010
,
0100
0000
2002
0000
3003
0000
0010
0100
,
1000
0020
0000
0030
0100
0001
1000
0200
,
0000
0020
0000
0330
0000
0000
1000
0100
,
0010
0002
0000
1003
0001
1000
0010
0100
,
0020
2030
3200
0320
,
0032
0203
0320
2030
,
3002
0023
0230
2300
,
3020
0230
0302
0023
,
0230
0000
1300
0010
1000
0010
1000
0010
,
1000
0000
0001
0010
0001
0010
0001
0010
,
0001
0010
0002
0000
0000
0000
0000
0000
,
0000
2003
0000
3100
0010
0001
1000
0010
,
0100
1001
0000
0000
;

//---------------dance-single - ----------------
#NOTES:
     dance-single:
     :
     Easy:
     3:
     0.229085,0.237532,0.080180,0.213812,0.000000,147.000000,9.000000,24.000000,0.000000,0.000000,0.000000,0.229085,0.237532,0.080180,0.213812,0.000000,147.000000,9.000000,24.000000,0.000000,0.000000,0.000000:
0000
0000
0000
0000
,
0000
0000
0000
0000
,
0000
0000
0000
0000
,
0000
0000
0000
0000
,
0100
1000
0010
0000
,
0010
1000
0100
0000
,
0100
1000
0010
1000
,
0100
0000
0010
0000
,
0002
0000
0000
0003
,
0020
0000
0000
0030
,
0200
0000
0000
0300
,
2000
0000
0000
3000
,
0200
0300
1000
0001
,
1001
0000
0001
0000
,
0020
0030
0001
1000
,
1001
0000
1000
0000
,
0002
0003
1000
0010
,
1010
0000
1000
0000
,
0200
0300
1000
0100
,
0010
0001
0010
0100
,
1000
1000
0001
0002
,
0003
0010
0001
0100
,
0010
0010
1000
2000
,
3000
0010
1000
0100
,
0010
0010
0001
0002
,
0003
0100
0001
0010
,
0100
0100
1000
2000
,
3000
0010
0010
1001
,
1000
0000
0100
0000
,
0001
0000
0010
0000
,
1000
0000
0100
0000
,
0001
0000
0010
0000
,
1000
0010
0001
0000
,
0100
0001
0010
0000
,
1000
0001
1000
0010
,
0200
0300
0020
0030
,
0100
0001
0010
0000
,
0100
1000
0010
0000
,
0010
0001
0100
1000
,
0010
0000
0000
0000
,
2000
0000
0000
3000
,
0002
0000
0000
0003
,
0020
0000
0000
0030
,
1001
0020
0030
0001
,
1000
1001
0000
1000
,
0000
0200
0300
1000
,
0001
1001
0000
0001
,
0000
2000
3000
0001
,
0100
0101
0000
0001
,
0000
0020
0030
0001
,
0010
0100
1000
0100
,
0010
0001
0010
1000
,
0100
0001
0010
1000
,
0100
0001
0010
1000
,
0100
0001
0010
1000
,
0100
0002
0000
0000
,
0003
2000
0000
0000
,
3000
0020
0000
0000
,
0030
0100
0001
1000
,
0001
1001
0000
0000
;

//---------------dance-single - ----------------
#NOTES:
     dance-single:
     :
     Beginner:
     1:
     0.123451,0.130849,0.008909,0.008909,0.000000,95.000000,1.000000,1.000000,0.000000,0.000000,0.000000,0.123451,0.130849,0.008909,0.008909,0.000000,95.000000,1.000000,1.000000,0.000000,0.000000,0.000000:
// measure 0
0000
0000
0000
0000
,  // measure 1
0000
0000
0000
0000
,  // measure 2
0000
0000
0000
0000
,  // measure 3
0000
0000
0000
0000
,  // measure 4
0001
0000
0001
0000
,  // measure 5
1000
0000
1000
0000
,  // measure 6
0001
0000
0001
0000
,  // measure 7
1000
0000
1000
0000
,  // measure 8
0010
0000
0000
0000
,  // measure 9
0010
0000
0000
0000
,  // measure 10
0100
0000
0000
0000
,  // measure 11
0100
0000
0000
0000
,  // measure 12
0001
0000
0001
0001
,  // measure 13
0001
0000
0001
0000
,  // measure 14
1000
0000
1000
1000
,  // measure 15
1000
0000
1000
0000
,  // measure 16
0010
0000
0010
0010
,  // measure 17
0010
0000
0010
0000
,  // measure 18
0100
0000
0100
0100
,  // measure 19
0100
0000
0100
0000
,  // measure 20
0001
0000
0001
0000
,  // measure 21
0010
0000
0010
0000
,  // measure 22
0100
0000
0100
0000
,  // measure 23
1000
0000
1000
0000
,  // measure 24
0010
0000
0010
0000
,  // measure 25
0100
0000
0100
0000
,  // measure 26
0001
0000
0001
0000
,  // measure 27
1000
0000
1000
0000
,  // measure 28
0010
0000
0000
0000
,  // measure 29
0010
0000
0000
0000
,  // measure 30
0100
0000
0000
0000
,  // measure 31
0100
0000
0000
0000
,  // measure 32
0001
0000
0001
0000
,  // measure 33
0010
0000
0010
0000
,  // measure 34
0100
0000
0100
0000
,  // measure 35
1000
0000
1000
0000
,  // measure 36
0100
0000
0100
0000
,  // measure 37
0010
0000
0010
0000
,  // measure 38
0001
0000
0001
0000
,  // measure 39
0000
0000
0000
0000
,  // measure 40
0010
0000
0000
0000
,  // measure 41
0010
0000
0000
0000
,  // measure 42
0001
0000
0000
0000
,  // measure 43
1001
1000
0000
0000
,  // measure 44
0000
1000
0000
0000
,  // measure 45
0000
0100
0000
0000
,  // measure 46
0000
0100
0000
0000
,  // measure 47
0000
0010
0000
0000
,  // measure 48
0000
0010
0000
0000
,  // measure 49
0000
0001
0000
0000
,  // measure 50
0000
0001
0000
0000
,  // measure 51
0000
1000
0000
1000
,  // measure 52
0000
1000
0000
1000
,  // measure 53
0000
0001
0000
0001
,  // measure 54
0000
0001
0000
0001
,  // measure 55
0000
0010
0010
0010
,  // measure 56
0000
0100
0100
0100
,  // measure 57
0000
2000
0000
0000
,  // measure 58
3000
0001
0000
0001
;
