#VERSION:0.81;
#TITLE:Que Veux-Tu;
#SUBTITLE:(Madeon Remix);
#ARTIST:Yelle;
#TITLETRANSLIT:;
#SUBTITLETRANSLIT:;
#ARTISTTRANSLIT:;
#GENRE:;
#ORIGIN:;
#CREDIT:;
#BANNER:[16ths Week] - Que Veux-Tu (Madeon Remix).png;
#BACKGROUND:[16ths Week] - Que Veux-Tu (Madeon Remix)-bg.png;
#PREVIEWVID:;
#JACKET:[16ths Week] - Que Veux-Tu (Madeon Remix)-jacket.png;
#CDIMAGE:;
#DISCIMAGE:;
#LYRICSPATH:;
#CDTITLE:;
#MUSIC:[16ths Week] - Que Veux-Tu (Madeon Remix).ogg;
#OFFSET:-1.036;
#SAMPLESTART:81.596;
#SAMPLELENGTH:17.400;
#SELECTABLE:YES;
#DISPLAYBPM:63.000:125.000;
#BPMS:0.000=62.500,
36.000=125.000,
100.000=62.500,
116.000=125.000,
227.500=62.500,
235.750=31.250;
#STOPS:;
#DELAYS:;
#WARPS:;
#TIMESIGNATURES:0.000=2=4,
36.000=4=4,
100.000=2=4,
116.000=4=4;
#TICKCOUNTS:0.000=4;
#COMBOS:0.000=1;
#SPEEDS:0.000=1.000=0.000=0;
#SCROLLS:0.000=1.000;
#FAKES:;
#LABELS:0.000=Song Start;
#BGCHANGES:;
#KEYSOUNDS:;
#ATTACKS:
;

//---------------dance-single - ----------------
#NOTEDATA:;
#CHARTNAME:;
#STEPSTYPE:dance-single;
#DESCRIPTION:;
#CHARTSTYLE:;
#DIFFICULTY:Hard;
#METER:8;
#RADARVALUES:0.447,0.445,0.171,0.123,0.240,414.000,25.000,18.000,0.000,0.000,0.000,0.000,0.000,0.447,0.445,0.171,0.123,0.240,414.000,25.000,18.000,0.000,0.000,0.000,0.000,0.000;
#CREDIT:;
#NOTES:
0000
0000
0000
0000
,
0000
0000
0000
0000
,
0000
0000
0000
0000
,
2000
0000
0000
0000
0000
0000
0002
0000
0000
0000
0000
0000
0000
0000
0000
0000
0000
0000
0000
0000
0000
0000
0000
0000
3003
0000
0000
0000
1000
0001
1000
0001
,
2000
0000
0000
0002
0000
0000
0000
0000
0000
0000
0000
0000
0000
0000
3003
0000
,
1000
0000
0010
0000
0100
0000
0001
0000
0010
0001
0000
0010
0000
0001
0100
0000
,
0010
0000
1000
0000
0100
0000
1000
0000
0010
0100
0000
0010
0000
0000
1000
0000
,
0100
0000
0010
0001
0010
0000
0001
0100
0001
0100
0000
0010
0000
1000
0010
0000
,
1000
0000
0001
1000
0001
0000
0010
0100
0010
0001
0000
0100
0000
0000
0010
0000
,
1000
0000
0020
0000
0130
0010
1000
0100
,
0010
0000
0001
0010
0001
0000
0100
0001
0100
0000
0010
0000
1010
0000
0000
0000
,
1000
0000
0000
0000
0100
1000
0010
0100
0001
0000
0000
0000
0010
0000
0100
0000
,
1000
0000
0000
0000
1100
0000
0000
0000
1000
0010
1000
0001
1000
0000
0000
0000
,
0100
0010
0002
0000
0103
0001
0010
0100
,
0001
0000
0100
1000
0010
0000
0100
0010
1000
0000
0001
0000
0011
0000
0000
0000
,
0010
0000
0000
0000
0001
0010
0100
1000
0010
0000
0000
0000
0100
0000
0010
0000
,
1000
0100
0000
0010
0000
0001
0100
0010
,
1000
1100
0010
0011
,
0001
0100
0010
0001
0010
0000
1010
0000
,
1000
1001
0001
1001
,
1000
0100
0010
0001
0100
0000
0110
0000
,
0010
0000
1000
0000
0100
1000
0010
0000
,
0100
0000
0001
0000
0010
0100
0001
0000
,
0100
0000
1000
0000
0010
0100
0010
0000
,
1000
0000
0001
0000
1000
0001
1000
0000
,
0001
0000
0010
0000
0100
0000
1000
0100
0000
0000
1000
0000
0010
0000
0100
0010
,
0000
0100
0010
0000
1000
0001
0000
1000
0000
0100
1000
0000
0001
0010
0000
0001
,
0000
0100
0001
0000
0010
0001
0000
1000
0000
0100
1000
0000
0010
0100
0000
0010
,
0000
1000
0010
0000
0100
0001
0000
1000
0000
0000
0001
0000
1000
0000
0001
1000
,
0002
0000
0023
0000
0130
1000
0010
0100
,
0010
0000
1000
0100
1000
0000
0010
0100
0001
0000
1000
0000
1001
0000
0000
0000
,
0001
0000
0000
0000
0100
0001
0100
1000
0100
0000
0000
0000
0010
0000
0100
0000
,
0010
0000
0000
0000
1010
0000
0000
0000
1000
0001
0010
0001
0100
0000
0000
0000
,
0010
1000
0200
0000
1300
0010
0100
0010
,
1000
0000
0001
0100
0001
0000
0010
0100
1000
0000
0010
0000
0110
0000
0000
0000
,
1000
0000
0000
0000
0001
0010
0100
0010
0001
0000
0000
0000
0010
0000
0100
0000
,
1000
0010
0000
2000
0000
0000
0002
3003
,
1000
0010
1000
0000
0001
1000
0001
0000
,
0010
0100
0001
0100
1000
0010
0100
0000
,
0001
0100
0001
0000
1000
0010
1000
0000
,
0001
0100
0001
1000
0010
1000
0100
0000
,
0010
0001
0100
0001
0010
0100
1000
0010
,
0100
0010
1000
0100
0010
0001
0100
0000
,
0010
0000
1000
0100
0010
0000
0001
0100
,
0020
0000
1030
0002
0000
0023
0000
0130
,
1000
0010
1000
0001
1000
0100
1000
0001
,
0010
1000
0010
0001
0010
1000
0010
0001
,
0100
1000
0100
0001
0100
0010
0100
0001
,
0011
0100
1000
1010
0010
0110
0100
0101
,
1010
1000
0010
0001
0010
0100
0010
1000
,
0100
0001
0100
1000
0100
0010
0100
1000
,
0001
0010
0001
0010
0100
1000
0100
1000
,
0010
0100
0010
1000
0001
1000
1001
0000
,
0001
0100
0001
0010
0100
1000
0010
0100
,
0010
1000
0100
0010
0001
0100
0010
1000
,
0101
0001
1000
1100
0100
0110
0010
0011
,
0001
0100
0001
0011
0010
0110
0100
2200
,
0000
0000
0000
0000
0000
3300
0000
1000
0100
1000
0100
1000
0100
1000
0100
1000
,
0001
1000
0001
1000
0001
1000
0001
0100
0001
0100
0001
0100
0001
0100
0002
2000
,
0000
3003
0000
0000
0000
0000
0000
0000
;

//---------------dance-single - ----------------
#NOTEDATA:;
#CHARTNAME:;
#STEPSTYPE:dance-single;
#DESCRIPTION:;
#CHARTSTYLE:;
#DIFFICULTY:Medium;
#METER:5;
#RADARVALUES:0.301,0.263,0.055,0.192,0.092,272.000,8.000,28.000,0.000,0.000,0.000,0.000,0.000,0.301,0.263,0.055,0.192,0.092,272.000,8.000,28.000,0.000,0.000,0.000,0.000,0.000;
#CREDIT:;
#NOTES:
0000
0000
0000
0000
,
0000
0000
0000
0000
,
0000
0000
0000
0000
,
0020
0000
0000
0200
0000
0000
0000
0000
0000
0000
0000
0000
0330
0000
0010
0100
,
0020
0000
0000
0200
0000
0000
0000
0000
0000
0000
0000
0000
0000
0000
0330
0000
,
0010
0000
0000
0000
1000
0000
0000
0000
0100
0000
0000
1000
0000
0000
0100
0000
,
0010
0000
0000
0000
0001
0000
0000
0000
0100
0000
0000
0001
0000
0000
0100
0000
,
0010
0000
0000
0000
1000
0000
0000
0000
0001
0000
0000
1000
0000
0000
0001
0000
,
1000
0000
0000
0000
0100
0000
0000
0000
0010
0000
0000
0100
0000
0000
0010
0000
,
0001
0000
2000
0000
3100
1000
0100
0010
,
0001
0000
0100
0000
0010
0100
0010
0000
,
1000
0000
0010
1000
0010
0000
1000
0100
,
1000
0000
0001
0000
1000
0001
1000
0000
,
0100
1000
0200
0000
1300
0010
0100
0001
,
0010
0000
0001
0000
0100
0010
0100
0000
,
0001
0000
1000
0001
1000
0000
0001
0010
,
0100
1000
0000
0001
0000
1000
0001
1000
,
0002
0100
0010
0100
,
0023
0100
0001
1000
,
0032
1000
0010
1000
,
0023
0100
0001
0100
,
0032
1000
0010
1000
,
0023
0001
0100
0001
,
0230
0010
1000
0010
,
2300
0001
0100
0010
,
3001
0000
1000
0000
0010
0000
0000
0100
0000
0000
0010
0000
0100
0000
0000
0001
,
0000
0000
1000
0000
0001
0000
0000
1000
0000
0000
0100
0000
0010
0000
0000
0100
,
0000
0000
1000
0000
0100
0000
0000
1000
0000
0000
0010
0000
1000
0000
0000
0010
,
0000
0000
0100
0000
0010
0000
0000
0100
0000
0000
0000
0000
0000
0000
0000
0000
,
0001
0000
2000
0000
3100
1000
0100
0010
,
0001
0000
0100
0000
0010
0100
0010
0000
,
1000
0000
0100
1000
0100
0000
0010
0001
,
0010
0000
0001
0000
1000
0001
1000
0000
,
0010
0001
0020
0000
1030
0010
0100
0001
,
0010
0000
0100
0000
0010
0100
0010
0000
,
0100
0000
1000
0001
1000
0000
0001
0100
,
0010
2000
0000
0002
0000
0000
3003
0000
,
1000
1001
0001
1001
,
1000
0000
0001
0000
1000
0001
1000
0000
,
0010
0110
0100
0110
,
0010
0000
0100
0000
0010
0100
0010
0000
,
1000
1100
0001
0101
,
1000
0000
0001
0000
1000
0001
1000
0000
,
0001
0101
1000
1010
,
2000
0000
0000
3020
0000
0230
0000
0301
,
1000
0100
1000
0100
,
1000
0010
1000
0010
,
0100
0010
0100
0010
,
0200
0000
0000
0320
0000
0230
0000
0301
,
0100
0001
0100
0001
,
1000
0001
1000
0001
,
1000
0100
1000
0100
,
1000
0000
0001
0000
1000
0001
1000
0000
,
0001
0000
0010
0000
0100
0000
1000
0100
,
1000
0000
0010
0000
0100
0010
0100
0000
,
0001
0000
0100
0001
0000
0010
0000
0001
,
1000
0000
0100
1000
0000
0020
0000
0200
,
0000
0000
0000
0000
0000
0330
0000
0010
0000
0100
0000
0010
0000
0100
0000
0001
,
0000
1000
0000
0001
0000
1000
0000
0100
0000
0010
0000
0100
0010
0100
0020
0200
,
0000
0330
0000
0000
0000
0000
0000
0000
;

//---------------dance-single - ----------------
#NOTEDATA:;
#CHARTNAME:;
#STEPSTYPE:dance-single;
#DESCRIPTION:;
#CHARTSTYLE:;
#DIFFICULTY:Easy;
#METER:3;
#RADARVALUES:0.220,0.222,0.062,0.096,0.027,202.000,9.000,14.000,0.000,0.000,0.000,0.000,0.000,0.220,0.222,0.062,0.096,0.027,202.000,9.000,14.000,0.000,0.000,0.000,0.000,0.000;
#CREDIT:;
#NOTES:
0000
0000
0000
0000
,
0000
0000
0000
0000
,
0000
0000
0000
0000
,
2002
0000
0000
0000
0000
0000
3003
1000
,
2002
0000
0000
0000
0000
0000
0000
3003
,
0001
1000
0001
0000
0100
0000
0010
0000
,
1000
0010
1000
0000
0100
0000
0010
0000
,
0001
0011
0010
0110
,
0100
1000
0001
1001
,
1000
0010
1000
0100
,
0010
0100
0010
0100
,
0010
0001
0100
0001
,
0100
0001
0100
0001
,
1000
0010
0100
0010
,
1000
0001
1000
0001
,
0010
0100
0010
0002
,
2000
0000
0000
3003
,
0001
0010
0001
0100
,
0010
1000
0010
0100
,
0001
1000
0001
0010
,
0100
1000
0100
0001
,
1000
0010
1000
0001
,
0100
1000
0100
0001
,
0010
1000
0010
0001
,
1000
0010
0100
0110
,
0020
0000
0000
0000
,
2030
0000
0000
0000
,
3200
0000
0000
0000
,
0320
0000
0000
0000
,
0031
0010
0001
0100
,
0010
1000
0001
1000
,
0100
0010
0100
0010
,
0001
0100
0010
1000
,
0001
0010
0001
0100
,
0010
1000
0100
1000
,
0010
0100
0010
0100
,
0001
1000
2002
3003
,
0001
0010
0001
1000
,
0001
0100
0001
0010
,
0100
1000
0100
0001
,
0100
1000
0100
0010
,
0001
1000
0001
0100
,
0001
0010
0001
0100
,
0010
1000
0010
0001
,
0010
0000
1000
0001
,
1000
0010
0100
0001
,
0010
0100
1000
0001
,
1000
0100
0010
0001
,
0100
0010
1000
0001
,
1000
0001
1000
0001
,
0100
0010
0100
0010
,
1000
0010
1000
0100
,
0010
0001
1000
0001
,
0100
0001
0010
0001
,
1000
0100
1000
0010
,
0100
0000
0010
1000
,
0001
0000
0000
0000
0000
0000
0000
0000
1000
0000
0000
0000
0001
0000
0000
2002
,
0000
0000
0000
0000
0000
3003
0000
1000
0000
0000
0000
0001
0000
0000
0000
1000
,
0000
0000
0000
0001
0000
0000
0000
1000
0000
0000
0000
0001
0000
0000
0000
1001
;

//---------------dance-single - ----------------
#NOTEDATA:;
#CHARTNAME:;
#STEPSTYPE:dance-single;
#DESCRIPTION:;
#CHARTSTYLE:;
#DIFFICULTY:Beginner;
#METER:1;
#RADARVALUES:0.088,0.120,0.000,0.000,0.014,90.000,0.000,0.000,0.000,0.000,0.000,0.000,0.000,0.088,0.120,0.000,0.000,0.014,90.000,0.000,0.000,0.000,0.000,0.000,0.000,0.000;
#CREDIT:;
#NOTES:
// measure 0
0000
0000
0000
0000
,  // measure 1
0000
0000
0000
0000
,  // measure 2
0000
0000
0000
0000
,  // measure 3
0000
0000
0000
0000
,  // measure 4
0000
0000
0000
0000
,  // measure 5
1000
0000
0000
0000
,  // measure 6
0001
0000
0000
0000
,  // measure 7
0100
0100
0100
0000
,  // measure 8
0010
0010
0010
0000
,  // measure 9
0100
0000
0000
0000
,  // measure 10
0010
0000
0010
0000
,  // measure 11
0010
0000
0000
0000
,  // measure 12
1000
0000
1000
0000
,  // measure 13
1000
0000
0000
0000
,  // measure 14
0001
0000
0001
0000
,  // measure 15
0001
0000
0000
0000
,  // measure 16
0010
0000
0010
0000
,  // measure 17
0010
0000
0010
0000
,  // measure 18
0100
0000
0100
0000
,  // measure 19
1000
0000
1000
0000
,  // measure 20
0001
0000
0001
0000
,  // measure 21
0100
0000
0100
0000
,  // measure 22
0010
0000
0010
0000
,  // measure 23
1000
0000
1000
0000
,  // measure 24
0001
0000
0001
0000
,  // measure 25
1000
0000
0000
0000
,  // measure 26
0000
0000
0000
0000
,  // measure 27
0001
0000
0000
0000
,  // measure 28
0000
0000
0000
0000
,  // measure 29
1000
0000
0010
0000
,  // measure 30
0100
0000
0000
0000
,  // measure 31
0001
0000
0100
0000
,  // measure 32
0001
0000
0000
0000
,  // measure 33
1000
0000
0100
0000
,  // measure 34
1000
0000
0000
0000
,  // measure 35
0001
0000
1000
0000
,  // measure 36
0001
0000
0000
0000
,  // measure 37
1000
0000
0010
0000
,  // measure 38
0100
0000
0100
0000
,  // measure 39
0001
0000
0010
0000
,  // measure 40
0100
0000
0100
0000
,  // measure 41
1000
0000
0010
0000
,  // measure 42
1000
0000
1000
0000
,  // measure 43
0001
0000
0010
0000
,  // measure 44
0001
0000
0001
0000
,  // measure 45
1000
0000
0000
0000
,  // measure 46
0001
0000
0000
0000
,  // measure 47
0100
0000
0000
0000
,  // measure 48
0010
0000
0010
0010
,  // measure 49
0010
0000
0000
0000
,  // measure 50
0100
0000
0000
0000
,  // measure 51
0001
0000
0000
0000
,  // measure 52
1000
0000
0001
0001
,  // measure 53
0001
0000
0000
0000
,  // measure 54
1000
0000
0000
0000
,  // measure 55
0100
0000
0100
0100
,  // measure 56
0100
0000
0000
0000
0000
0000
0000
0000
0010
0000
0000
0000
0010
0000
0000
0010
,  // measure 57
0000
0000
0000
0000
0000
0000
0000
0100
0000
0000
0000
0000
0000
0000
0000
0010
,  // measure 58
0000
0000
0000
0000
0000
0000
0000
0100
0000
0000
0000
0000
0000
0000
0000
0000
;
