#TITLE:Part of Your World;
#SUBTITLE:(Euro Mix);
#ARTIST:Unknown artist;
#TITLETRANSLIT:;
#SUBTITLETRANSLIT:;
#ARTISTTRANSLIT:;
#GENRE:;
#CREDIT:;
#BANNER:Part of Your World (Euro Mix).png;
#BACKGROUND:Part of Your World (Euro Mix)-bg.png;
#LYRICSPATH:;
#CDTITLE:;
#MUSIC:Part of Your World (Euro Mix).mp3;
#OFFSET:-0.040;
#SAMPLESTART:46.380;
#SAMPLELENGTH:12.000;
#SELECTABLE:YES;
#BPMS:0.000=150.000
;
#STOPS:
;
#BGCHANGES:;
#KEYSOUNDS:;
#ATTACKS:;

//---------------dance-single - ----------------
#NOTES:
     dance-single:
     :
     Hard:
     8:
     0.483,0.602,0.206,0.230,0.202,371.000,26.000,29.000,0.000,0.000,0.000,0.483,0.602,0.206,0.230,0.202,371.000,26.000,29.000,0.000,0.000,0.000:
0000
0000
0000
0000
,
0000
0000
0000
0000
,
0000
0000
0000
0000
,
0000
0000
0000
0000
,
0000
0000
0000
0000
,
0000
0000
0000
0000
,
0000
0000
0000
0000
,
0000
0000
0000
0000
,
0000
0000
0000
0000
,
0000
0000
0000
0000
,
0000
1000
0010
0100
,
0101
0001
0010
0100
,
1100
1000
1010
0010
,
0110
0100
0101
0001
,
0011
0001
0010
0100
,
1100
1000
0010
0100
,
0101
0000
0000
0000
0001
0000
0000
0000
0010
0000
0000
0000
0100
0000
0000
1000
,
0000
0000
0001
0000
1001
0000
0000
0000
0000
0000
0000
0000
0001
0000
0000
0001
,
0000
0000
0001
0000
1000
0000
0000
0010
0000
0000
0100
0010
0000
0010
1000
0000
,
0001
0000
0010
0000
0100
0000
0000
1000
0000
0000
0010
0100
0000
0100
0001
0000
,
0010
0000
0100
0000
1000
0000
0010
0100
0000
0100
0010
0000
0000
0000
1000
0000
,
0100
0010
0002
0000
0203
0000
2300
0000
,
3020
0000
0000
0000
0031
0000
0000
0100
0000
0000
0010
0100
0000
0100
0001
0000
,
1000
0000
0100
0000
0010
0000
0000
0001
0000
0000
0100
0010
0000
0010
1000
0000
,
0100
0000
0010
0000
0001
0000
0100
0010
0000
0010
0100
0000
0000
0000
0001
0000
,
0010
0100
1000
0000
1000
0001
0000
1001
,
0000
0000
1000
0100
0001
0100
0000
1000
,
1001
0000
0001
0100
1000
0100
0000
0001
,
1001
0000
1000
0010
0100
0002
0000
1003
,
0000
0001
0010
1000
0010
0001
0000
1000
,
1001
0000
0001
0010
0100
1000
0000
0100
,
1000
0000
0000
0000
1100
0000
0000
0000
1000
0000
0010
0000
0200
0000
0000
0301
,
0000
0010
0010
0000
0000
0100
0100
0000
,
1000
0000
0001
1000
0001
0000
0000
0000
0000
0000
1000
0000
1000
0000
0000
0000
,
1001
0000
0000
0000
1000
0000
0100
0000
0001
0000
0100
0000
0000
0000
1000
0010
,
1000
0000
0000
0000
0001
0000
0100
0000
1000
0000
0100
0000
0000
0000
0001
0010
,
0001
0000
1000
0010
0100
0001
0000
0100
,
0001
0000
1000
0100
0001
0100
2000
0000
,
3001
0000
1000
0010
0100
0001
0000
0100
,
0001
0000
0000
0000
0101
0000
0000
0000
0001
0000
0010
0000
0200
0000
0000
1300
,
0000
0010
0010
0000
0000
0100
0100
0000
,
0001
0000
1000
0001
1000
0000
0000
0000
0000
0000
0001
0000
1001
0000
0000
0000
,
0001
0000
0010
0000
0100
0000
0000
0100
0010
0000
0001
0000
0100
0000
0000
0100
,
0001
0010
0100
1000
0001
0100
0010
1000
,
1000
0000
0100
0000
0010
0000
0000
0010
0100
0000
1000
0000
0010
0000
0000
0010
,
1000
0100
0010
0001
1000
0010
0100
0001
,
0000
0101
0000
0000
0100
0000
0000
0110
0000
0000
0010
0000
1010
0000
0000
0000
,
0000
1000
0002
0000
1003
0000
0000
0010
,
0000
0200
0002
0303
0000
0011
0000
0010
,
0000
0200
2000
3300
0000
1010
0000
0010
,
0000
0200
0002
0303
0010
0100
1000
0000
,
0010
0100
0001
0000
0000
1000
1001
0000
,
0000
0000
0001
0010
0100
1000
0000
0100
,
1000
0000
1000
0002
0000
1003
0000
0000
,
0000
0000
1000
0010
0100
0001
0000
0100
,
0001
0000
0001
0020
0000
0230
0000
1300
,
0000
0000
0001
0100
0010
1000
0000
0010
,
1000
0000
1000
0010
0100
0001
0000
0100
,
0001
2002
0000
0000
,
0000
3003
0000
0000
,
0000
0000
1000
0100
0001
0100
0000
1000
,
0100
0000
0100
2000
0000
3001
0000
0000
,
0000
0000
0001
0100
1000
0100
0000
0001
,
0100
0000
0100
0002
0000
0023
0000
0130
,
0000
0000
1000
0010
0001
0010
0000
1000
,
0100
0000
0000
0100
0010
0001
0000
0010
,
0001
0000
0000
0000
0000
2002
0000
0000
,
0000
0000
0000
0000
0000
0000
0000
0000
3003
0000
0000
0000
1000
0000
0000
1000
,
0000
0000
1000
0000
0001
0000
0100
0010
0000
0010
0100
0001
0000
0010
0100
0000
,
1000
0000
0010
0000
1000
0000
0100
0010
0000
0010
0100
1000
0000
0010
0100
0000
,
0001
0000
0010
0000
0001
0000
0100
0010
0000
0010
0100
0000
0000
0000
0001
0000
,
0010
0100
2000
0000
3020
0000
0032
0000
,
0203
0000
0000
0000
1300
0000
0010
0100
0000
0100
0010
1000
0000
0100
0010
0000
,
0001
0000
0100
0000
0001
0000
0010
0100
0000
0100
0010
0001
0000
0100
0010
0000
,
1000
0000
0100
0000
1000
0000
0010
0100
0000
0100
0010
0000
0000
0000
1000
0000
,
0100
0010
0001
0000
0001
1000
0000
1001
;

//---------------dance-single - ----------------
#NOTES:
     dance-single:
     :
     Medium:
     5:
     0.323,0.361,0.254,0.032,0.000,249.000,32.000,4.000,0.000,0.000,0.000,0.323,0.361,0.254,0.032,0.000,249.000,32.000,4.000,0.000,0.000,0.000:
0000
0000
0000
0000
,
0000
0000
0000
0000
,
0000
0000
0000
0000
,
0000
0000
0000
0000
,
0000
0000
0000
0000
,
0000
0000
0000
0000
,
0000
0000
0000
0000
,
0000
0000
0000
0000
,
0000
0000
0000
0000
,
0000
0000
0000
0000
,
0000
1000
0010
0100
,
0101
0001
0010
0100
,
1100
1000
1010
0010
,
0110
0100
0101
0001
,
0011
0001
0010
0100
,
1100
1000
0010
0100
,
0101
0001
0010
0100
,
1000
1001
0000
0000
,
0000
1000
0010
1000
,
1000
0001
0010
0001
,
0001
0100
0010
1000
,
0000
0001
0000
1000
,
0000
0001
0010
0100
,
0100
1000
0010
0100
,
0100
0001
1000
0001
,
1000
0001
1000
0000
0001
1000
0000
1001
,
0000
0001
0010
0100
,
1100
1000
0010
0100
,
0101
0001
0010
0100
,
1000
0001
0100
0010
,
1010
1000
0100
0001
,
0100
1000
0010
0100
,
0001
0101
0000
0011
,
0000
0110
0000
1100
,
0000
1000
0010
0100
,
0101
0001
0010
0100
,
1100
1000
0010
0100
,
0001
0010
0100
1000
,
0001
1000
0100
0001
,
0100
1000
0010
0100
,
0001
0101
0000
0011
,
0000
0110
0000
1100
,
1000
0010
1000
0000
0001
0100
0001
0000
,
0010
0001
0010
0000
0100
0010
0100
0000
,
1000
0100
1000
0000
0010
0100
0010
0000
,
0100
0001
0100
0000
0001
0010
0001
0000
,
0010
0100
1000
0000
0001
0100
0010
0000
,
1000
0100
0010
0000
0001
0010
0100
0000
,
1000
0010
0100
0000
0000
0000
0000
0000
,
0001
0010
0100
0000
0000
0000
0000
0000
,
1000
0010
0100
0000
0001
0010
0100
0000
,
1000
0001
1000
0000
0000
0000
1001
0000
,
0000
1000
0100
0001
,
0100
1000
0010
0100
,
0100
0001
0010
0100
,
0010
0001
0001
1000
,
1000
0010
0100
0001
,
1000
0100
0010
0001
,
1000
2002
0000
0000
,
0000
3003
0000
0000
,
0000
1000
0010
0100
,
0100
0001
0010
0100
,
0100
1000
0010
0100
,
0100
0001
0010
0100
,
0100
1000
0010
0100
,
0100
0001
1000
0001
,
0001
0000
0000
0000
0000
2002
0000
0000
,
0000
0000
0000
3003
,
0000
0001
0100
0010
,
0010
1000
0100
0010
,
0010
0001
0100
0010
,
1000
1001
1010
1001
,
0011
0001
0100
0010
,
0010
1000
0100
0010
,
0010
0001
0100
0010
,
1000
0000
1001
0000
1000
0001
0000
1001
;

//---------------dance-single - ----------------
#NOTES:
     dance-single:
     :
     Easy:
     3:
     0.239,0.303,0.103,0.000,0.000,198.000,13.000,0.000,0.000,0.000,0.000,0.239,0.303,0.103,0.000,0.000,198.000,13.000,0.000,0.000,0.000,0.000: // measure 0
0000
0000
0000
0000
,  // measure 1
0000
0000
0000
0000
,  // measure 2
0000
0000
0000
0000
,  // measure 3
0000
0000
0000
0000
,  // measure 4
0000
0000
0000
0000
,  // measure 5
0000
0000
0000
0000
,  // measure 6
0000
0000
0000
0000
,  // measure 7
0000
0000
0000
0000
,  // measure 8
0000
0000
0000
0000
,  // measure 9
0000
0000
0000
0000
,  // measure 10
0000
1000
0000
1000
,  // measure 11
0000
0001
0000
0001
,  // measure 12
0000
1000
0000
1000
,  // measure 13
0000
0001
0000
0001
,  // measure 14
0000
0010
0000
0010
,  // measure 15
0000
0100
0000
0100
,  // measure 16
0000
0010
0000
0010
,  // measure 17
0000
0100
0000
0100
,  // measure 18
0000
1000
0010
0100
,  // measure 19
0001
1000
0100
0010
,  // measure 20
0001
1000
0000
0001
,  // measure 21
0000
1000
0000
0001
,  // measure 22
0000
1000
0010
0100
,  // measure 23
0001
1000
0100
0010
,  // measure 24
0001
1000
0000
1000
,  // measure 25
0000
0001
0000
0001
,  // measure 26
0000
1000
0000
0000
,  // measure 27
1001
0001
0000
0000
,  // measure 28
1001
1000
1000
0001
,  // measure 29
0001
1000
0001
1001
,  // measure 30
1001
1000
0010
0100
,  // measure 31
0001
1000
0100
0010
,  // measure 32
0001
1000
0000
0001
,  // measure 33
0000
1000
0000
0001
,  // measure 34
0000
0001
0100
0010
,  // measure 35
1100
1000
0100
0010
,  // measure 36
0011
0001
0100
0010
,  // measure 37
1000
0001
0010
0100
,  // measure 38
1000
0010
0100
0001
,  // measure 39
1000
0100
0010
0001
,  // measure 40
1000
1001
0000
1001
,  // measure 41
0000
0110
0000
1001
,  // measure 42
0000
0001
0000
1000
,  // measure 43
0000
0001
1000
0001
,  // measure 44
1000
0001
0000
1000
,  // measure 45
0000
0001
1000
0001
,  // measure 46
1000
0010
0000
0100
,  // measure 47
0000
0010
0100
0010
,  // measure 48
0100
0001
0000
0000
,  // measure 49
0000
0010
0000
0000
,  // measure 50
0000
0100
0000
1000
,  // measure 51
0000
0010
0000
0100
,  // measure 52
0000
0001
0010
0100
,  // measure 53
1000
0001
0100
0010
,  // measure 54
0000
1000
0100
0010
,  // measure 55
0001
1000
0010
0100
,  // measure 56
0000
0001
0010
0100
,  // measure 57
1000
0001
0100
0010
,  // measure 58
1000
0100
0010
0001
,  // measure 59
1000
0010
0100
0001
,  // measure 60
0000
1000
0100
0010
,  // measure 61
0001
1000
0010
0100
,  // measure 62
0000
0001
0010
0100
,  // measure 63
1000
0001
0100
0010
,  // measure 64
0000
1000
0100
0010
,  // measure 65
0001
1000
0010
0100
,  // measure 66
0001
0010
0100
1000
,  // measure 67
0001
0100
0010
1000
,  // measure 68
0000
0001
0000
0001
,  // measure 69
0000
1000
0000
1000
,  // measure 70
0000
0001
1000
0001
,  // measure 71
0000
1000
1000
0001
,  // measure 72
0001
1000
0000
1000
,  // measure 73
0000
0001
0000
0001
,  // measure 74
0000
1000
0001
1000
,  // measure 75
0001
1001
1000
1001
,  // measure 76
0001
1001
0000
0000
;
