#TITLE:PULSE LASER;
#SUBTITLE:;
#ARTIST:ヒゲドライバー;
#TITLETRANSLIT:;
#SUBTITLETRANSLIT:;
#ARTISTTRANSLIT:Hige Driver;
#GENRE:;
#CREDIT:;
#BANNER:[16ths Week] - PULSE LASER.png;
#BACKGROUND:[16ths Week] - PULSE LASER-bg.png;
#LYRICSPATH:;
#CDTITLE:cdtitle.png;
#MUSIC:[16ths Week] - PULSE LASER.mp3;
#OFFSET:-0.797;
#SAMPLESTART:15.316;
#SAMPLELENGTH:14.680;
#LASTBEATHINT:271.750;
#SELECTABLE:YES;
#BPMS:0.000=165.000
;
#STOPS:
;
#BGCHANGES:;
#KEYSOUNDS:;
#ATTACKS:;

//---------------dance-single - ----------------
#NOTES:
     dance-single:
     :
     Hard:
     9:
     0.662,0.635,0.403,0.177,0.462,412.000,41.000,18.000,0.000,0.000,0.000,0.662,0.635,0.403,0.177,0.462,412.000,41.000,18.000,0.000,0.000,0.000:
0000
0000
0000
0000
,
0000
0000
0000
0000
,
1001
0000
0000
0001
0000
0000
0001
0000
1000
0000
0000
0010
0000
0000
0010
0000
,
0000
1000
0000
0000
1000
0000
0100
0000
0010
0000
0001
0000
0200
0000
0000
0000
,
0310
0000
0000
1000
0000
0000
1000
0000
0001
0000
0000
0010
0000
0000
0100
0000
,
0000
0010
0000
0000
0001
0000
0100
0000
0010
0000
1000
0000
0100
0000
0010
0000
,
0001
0000
0000
0100
0000
0000
0100
0000
1000
0000
0000
0100
0000
0000
0100
0000
,
0000
0001
0000
0000
0001
0000
0010
0000
0100
0000
1000
0000
0010
0000
0100
0010
,
0000
1000
0000
1000
0000
0000
0001
0000
0010
0000
0000
0001
0000
0000
0100
0000
,
0100
0001
0010
0001
1000
0010
1000
0100
,
1001
0000
0001
0000
0100
0000
0001
0100
0000
0000
0010
0000
1000
0000
0010
0000
,
0100
0000
0000
0100
0000
0000
0001
0000
0100
0000
1000
0000
0100
0000
0001
0000
,
0000
0000
1000
0000
0100
0000
1000
0100
0000
0000
0010
0000
0001
0000
0010
0000
,
0100
0000
0000
0100
0000
0000
0001
0000
0100
0000
1000
0000
0010
0000
0100
0000
,
0000
0000
0001
0000
1000
0000
0001
1000
0000
0000
0010
0000
1000
0000
0100
0000
,
0010
0000
0000
0010
0000
0000
0100
0000
1000
0000
0010
0000
0100
0000
0002
0000
,
0000
0000
0000
1000
2000
0000
3003
0000
,
1000
0001
0100
0001
1000
0010
1000
0100
,
0011
0000
0000
0101
0000
0000
0000
0000
1010
0000
0000
0101
0000
0000
0000
0000
,
1001
0000
0000
1100
0000
0000
0000
0000
1000
0000
0100
0000
0020
0000
0000
0000
,
0031
0000
0000
0101
0000
0000
0000
0000
1100
0000
0000
0011
0000
0000
0000
0000
,
0101
0000
0000
1010
0000
0000
1000
0000
0010
0000
0001
0000
1000
0000
0100
0000
,
0001
0000
0000
0101
0000
0000
0000
0000
1100
0000
0000
1010
0000
0000
0000
0000
,
0101
0000
0000
1010
0000
0000
0010
0000
1000
0000
0010
0000
0200
0000
0000
0000
,
0300
0000
0000
0001
0000
0000
0001
0000
1000
0000
0000
1000
0000
0000
1000
0000
,
0002
0023
0230
2300
,
3000
0000
0101
0000
0000
0000
0001
1000
0001
0000
0000
1000
0000
0000
0100
0000
,
0000
0000
1100
0000
0000
0000
1000
0001
1000
0000
0000
0010
0000
0000
0100
0000
,
0000
0000
0101
0000
0000
0000
0001
1000
0001
0000
0000
0010
0000
0000
0100
0000
,
0010
0001
1000
0100
0010
0001
0100
0010
,
0000
0000
1010
0000
0000
0000
1000
0001
1000
0000
0000
0001
0000
0000
0010
0000
,
0000
0000
0011
0000
0000
0000
0001
1000
0001
0000
0000
1000
0000
0000
0010
0000
,
0200
0000
0000
0000
0000
0000
0300
0001
,
0100
0010
1000
0001
0100
0000
0110
0000
,
0001
1000
0000
0001
0000
0000
0001
0000
1000
0000
0000
0010
0000
0000
0010
0100
,
0000
0001
0000
0000
0001
0000
0010
0000
0100
0000
0010
0000
0002
0000
0000
0000
,
1003
0001
0000
1000
0000
0000
1000
0000
0100
0000
0000
0010
0000
0000
0100
1000
,
0000
0010
0000
0000
0010
0000
0100
0000
0001
0000
0100
0000
0010
0000
1000
0000
,
0001
1000
0000
0001
0000
0000
1000
0000
0010
0000
0000
0100
0000
0000
0001
0100
,
0000
0001
0000
0000
0001
0000
0100
0000
0010
0000
1000
0000
0100
0000
0010
0100
,
0000
1000
0000
1000
0000
0000
0001
0000
0100
0000
0000
0001
0000
0000
0100
0000
,
0100
0001
1000
0010
0100
0001
1000
0010
,
0200
0001
0001
0301
,
2000
0100
3100
1100
,
0020
1000
1000
1030
,
0002
0010
0010
0013
,
0101
0000
1001
0000
0101
0000
1001
1000
,
1100
0000
1001
0000
1100
0000
1001
0001
,
0100
0010
0100
0010
0100
0010
0100
0010
,
0100
0010
0100
0010
0100
0010
0100
0010
0100
0000
0000
0000
1001
0000
0000
0000
,
0000
0000
0101
0000
0000
0000
0001
1000
0001
0000
0000
1000
0000
0000
0100
0000
,
0000
0000
1100
0000
0000
0000
1000
0001
1000
0000
0000
0001
0000
0000
0100
0000
,
0000
0000
0110
0000
0000
0000
0010
0100
0010
0000
0000
1000
0000
0000
0100
0000
,
0010
0001
0100
1000
0100
0010
1000
0100
,
0000
0000
1100
0000
0000
0000
1000
0001
1000
0000
0000
0001
0000
0000
0010
0000
,
0000
0000
0011
0000
0000
0000
0001
1000
0001
0000
0000
0010
0000
0000
0001
0000
,
0200
0000
0000
0000
0000
0000
0300
0010
,
0001
0010
1000
0100
0001
0000
0110
0000
,
1001
0000
0000
0001
0000
0000
0001
0000
0100
0000
0000
0010
0000
0000
0010
1000
,
0000
0100
0000
0000
0100
0000
1000
0000
0100
0000
0010
0000
0002
0000
0000
0000
,
1003
0001
0000
1000
0000
0000
1000
0000
0010
0000
0000
0100
0000
0000
0010
1000
,
0000
0001
0000
0000
0001
0000
0100
0000
1000
0000
0100
0000
0020
0000
0000
0000
,
1030
0010
0000
1000
0000
0000
0001
0000
0100
0000
0000
0001
0000
0000
1000
0001
,
0000
0100
0000
0000
0100
0000
0010
0000
1000
0000
0010
0000
0001
0000
0010
0100
,
0000
0001
0000
0001
0000
0000
0001
0000
1000
0000
0000
0001
0000
0000
1000
0000
,
1000
0001
0100
0010
1000
0001
0100
0010
,
1000
0010
0100
0001
1000
0010
0100
0001
,
0000
0000
1000
0000
0000
0000
0001
0010
0000
0000
1000
0100
0000
0000
0001
0010
;

//---------------dance-single - ----------------
#NOTES:
     dance-single:
     :
     Medium:
     7:
     0.468,0.501,0.089,0.295,0.069,294.000,9.000,30.000,0.000,0.000,0.000,0.468,0.501,0.089,0.295,0.069,294.000,9.000,30.000,0.000,0.000,0.000:
0000
0000
0000
0000
,
0000
0000
0000
0000
,
0001
0001
0000
0100
0000
0001
0000
1000
,
0000
0100
0000
1000
0000
0010
0000
0100
,
0000
0001
0000
0010
0000
0001
0000
1000
,
0000
0000
0010
0100
0000
0000
0001
0000
0000
0000
1000
0000
1000
0000
0000
0000
,
0000
0001
0000
1000
0000
0010
0000
1000
,
0000
0001
0000
0010
0000
0100
0000
1000
,
0000
0001
0000
0100
0000
0010
0000
1000
,
2000
3002
0023
0130
,
1001
0000
0001
0000
1000
0001
1000
0000
,
0010
0000
1000
0000
0010
1000
0001
1000
,
0100
0000
1000
0000
0010
0100
0010
0000
,
0100
0000
0001
0000
0100
0001
1000
0001
,
0010
0000
0100
0000
1000
0001
1000
0000
,
0010
0000
0100
0000
0001
1000
0001
2000
,
0000
0000
0000
0001
0002
0000
3003
0000
,
0002
2003
3020
0130
,
0110
0000
0000
1000
0000
0000
0000
0000
1000
0000
0000
0001
0000
0000
0000
0000
,
0001
0000
0000
0100
0000
0000
0000
0000
0100
0000
0010
0000
0100
0000
0000
0000
,
0010
0000
0000
1000
0000
0000
0000
0000
1000
0000
0000
0100
0000
0000
0000
0000
,
0100
0000
0000
1000
0000
0000
1000
0000
0010
0000
1000
0000
0001
0000
1000
0000
,
0100
0000
0000
0010
0000
0000
0000
0000
0010
0000
0000
0001
0000
0000
0000
0000
,
0001
0000
0000
0100
0000
0000
0100
0000
0010
0000
0100
0000
0020
0000
0000
0000
,
0030
0000
0000
1000
0000
0000
1000
0000
1000
0000
0000
0001
0000
0000
0001
0000
,
0002
0023
0230
2300
,
3001
0000
0100
0000
0010
1000
0010
0000
,
0100
0000
0001
0000
0010
0100
0010
0000
,
0001
0000
1000
0000
0100
0010
0100
0000
,
0010
0001
0010
0000
0001
0100
0001
0000
,
1000
0000
0010
0000
0100
0001
0100
0000
,
0010
0000
1000
0000
0100
0010
0100
0000
,
1000
0001
0100
0010
,
1000
0001
1000
0001
0100
0000
0110
0000
,
0000
0001
0000
0100
0000
0001
0000
1000
,
0000
0010
0000
1000
0000
0100
0000
1000
,
0000
0001
0000
0010
0000
0001
0000
0100
,
0000
0000
0010
1000
0000
0000
0010
0000
0000
0000
0100
0000
0100
0000
0000
0000
,
0000
0001
0000
0010
0000
0001
0000
1000
,
0000
0100
0000
1000
0000
0010
0000
1000
,
0000
0001
0000
0100
0000
0001
0000
1000
,
2000
3200
0320
0032
,
2003
0000
0000
0000
,
3002
0000
0000
0000
,
0203
0000
0000
0000
,
0320
0000
0000
0030
,
1000
1001
1000
1001
,
0001
1001
0001
1001
,
0001
1000
0001
1000
0001
1000
0001
1000
,
0010
0100
0010
0100
0010
0000
0110
0000
,
1000
0000
0001
0000
0010
0100
0010
0000
,
0001
0000
1000
0000
0010
0100
0010
0000
,
1000
0000
0100
0000
0010
0001
0010
0000
,
0001
0100
0001
0000
0010
0100
0010
0000
,
0001
0000
1000
0000
0100
0010
0100
0000
,
1000
0000
0001
0000
0100
0010
0100
0000
,
0002
0010
1000
0103
,
0001
1000
0001
1000
0100
0000
0110
0000
,
0000
0001
0000
0010
0000
0001
0000
1000
,
0000
0100
0000
1000
0000
0010
0000
0100
,
0000
0001
0000
1000
0000
0010
0000
0100
,
0000
0000
0001
0100
0000
0000
0010
0000
0000
0000
1000
0000
1000
0000
0000
0000
,
0000
0010
0000
1000
0000
0100
0000
0001
,
0000
0100
0000
1000
0000
0010
0000
0001
,
0000
0010
0000
1000
0000
0001
0000
1000
,
2000
3200
0320
0032
,
0203
0320
2030
3002
,
0003
1000
0000
1000
0000
1000
0000
1000
;

//---------------dance-single - ----------------
#NOTES:
     dance-single:
     :
     Easy:
     5:
     0.396,0.534,0.334,0.187,0.000,229.000,34.000,19.000,0.000,0.000,0.000,0.396,0.534,0.334,0.187,0.000,229.000,34.000,19.000,0.000,0.000,0.000:
0000
0000
0000
0000
,
0000
0000
0000
0000
,
1001
0001
0100
0001
,
1000
0100
1000
0010
,
0100
0010
0100
0001
,
1000
0100
0100
0110
,
0001
1000
0010
1000
,
0001
0100
0010
1000
,
0100
0010
0001
1000
,
0001
0010
0100
1000
,
1001
1000
0010
0010
,
0100
0001
1000
0001
,
0010
0010
0100
0100
,
1000
0001
1000
0010
,
1000
1000
0010
0010
,
0100
0001
1000
0010
,
0200
0000
0020
0330
,
2000
3002
2003
3001
,
0110
0000
0101
0000
,
1001
0000
1100
0000
,
1010
0000
1100
0000
,
1001
0000
0101
0000
,
1001
0000
1010
0000
,
0110
0000
0101
0000
,
1000
0000
0001
0000
,
1000
0001
1000
0001
,
1001
1000
0001
0100
,
0010
1000
0100
0100
,
1000
0001
0010
0100
,
0010
0001
1000
0010
,
0100
0001
1000
1000
,
0010
0100
0001
0001
,
2000
0000
0000
3000
,
0100
0100
0110
0000
,
0002
0000
0203
0000
,
0310
1000
0100
1000
,
0020
0000
2030
0000
,
3100
0010
0100
0010
,
0002
1000
2003
0001
,
3001
0100
0010
1000
,
0200
0010
0320
0001
,
0031
0010
0100
1000
,
2002
0000
0000
0000
,
3003
0000
0000
0110
,
1000
1000
1000
1000
,
1000
1000
1000
1000
,
0001
1001
0001
1001
,
1000
1001
1000
1001
,
0110
0110
1001
1001
,
0110
1001
0220
0330
,
1001
0001
1000
0100
,
0010
0001
0100
0100
,
0001
1000
0010
0100
,
0010
1000
0001
0010
,
0100
1000
0001
0001
,
0010
0100
1000
1000
,
0002
0000
0000
0003
,
0100
0100
0110
0000
,
1001
0001
0010
0001
,
1000
0010
1000
0100
,
0010
0100
0010
0001
,
1000
0010
0100
0110
,
0001
1000
0010
1000
,
0001
0010
0100
1000
,
0010
0100
0001
1000
,
0001
0001
0010
0010
,
0100
0100
1000
1000
,
0000
0001
0000
0001
0000
0001
0000
0001
;

//---------------dance-single - ----------------
#NOTES:
     dance-single:
     :
     Beginner:
     2:
     0.146,0.163,0.069,0.069,0.000,90.000,7.000,7.000,0.000,0.000,0.000,0.146,0.163,0.069,0.069,0.000,90.000,7.000,7.000,0.000,0.000,0.000: // measure 0
0000
0000
0000
0000
,  // measure 1
0000
0000
0000
0000
,  // measure 2
1000
0000
0000
0000
,  // measure 3
1000
0000
0000
0000
,  // measure 4
0001
0000
0000
0000
,  // measure 5
0001
0000
0000
0000
,  // measure 6
1000
0000
0000
0000
,  // measure 7
1000
0000
0000
0000
,  // measure 8
0001
0000
0000
0000
,  // measure 9
0001
0000
0000
0000
,  // measure 10
1001
0000
0000
0000
,  // measure 11
0100
0000
0000
0000
,  // measure 12
0010
0000
0000
0000
,  // measure 13
0100
0000
0000
0000
,  // measure 14
0001
0000
0000
0000
,  // measure 15
1000
0000
0000
0000
,  // measure 16
0002
0000
0003
0000
,  // measure 17
2000
0000
3000
0000
,  // measure 18
1001
0000
0000
0000
,  // measure 19
0110
0000
0000
0000
,  // measure 20
1001
0000
0000
0000
,  // measure 21
0110
0000
0000
0000
,  // measure 22
1000
0000
1000
0000
,  // measure 23
1000
0000
0000
0000
,  // measure 24
0001
0000
0000
0000
,  // measure 25
1000
0000
0000
0000
,  // measure 26
1000
0000
0001
0000
,  // measure 27
1000
0000
0001
0000
,  // measure 28
1000
0000
0001
0000
,  // measure 29
1000
0000
0000
0000
,  // measure 30
0100
0000
0010
0000
,  // measure 31
0100
0000
0010
0000
,  // measure 32
0200
0000
0300
0000
,  // measure 33
0002
0000
0003
0000
,  // measure 34
0010
0000
0000
0000
,  // measure 35
0010
0000
0000
0000
,  // measure 36
0100
0000
0000
0000
,  // measure 37
0100
0000
0000
0000
,  // measure 38
0010
0000
0000
0000
,  // measure 39
0100
0000
0000
0000
,  // measure 40
0010
0000
0000
0000
,  // measure 41
0100
0000
0000
0000
,  // measure 42
2002
0000
3003
0000
,  // measure 43
0000
0000
0000
0000
,  // measure 44
0000
0000
0000
0000
,  // measure 45
0000
0000
0000
0000
,  // measure 46
1000
0000
1000
0000
,  // measure 47
0010
0000
0010
0000
,  // measure 48
0100
0000
0100
0000
,  // measure 49
0001
0000
0001
0000
,  // measure 50
0001
0000
1000
0000
,  // measure 51
0001
0000
1000
0000
,  // measure 52
0001
0000
1000
0000
,  // measure 53
0001
0001
0001
0000
,  // measure 54
0100
0000
0010
0000
,  // measure 55
1000
0000
0001
0000
,  // measure 56
2000
0000
3000
0000
,  // measure 57
0010
0010
0010
0000
,  // measure 58
1001
0000
1000
0000
,  // measure 59
0001
0000
0001
0000
,  // measure 60
0100
0000
0100
0000
,  // measure 61
0010
0000
0010
0000
,  // measure 62
1000
0000
1000
0000
,  // measure 63
0001
0000
0001
0000
,  // measure 64
0010
0000
0010
0000
,  // measure 65
0100
0000
0100
0000
,  // measure 66
1000
0000
1000
0000
;
