#TITLE:PARA X;
#SUBTITLE:;
#ARTIST:sin;
#TITLETRANSLIT:;
#SUBTITLETRANSLIT:;
#ARTISTTRANSLIT:;
#CREDIT:;
#BANNER:[16ths Week] - PARA X.png;
#BACKGROUND:[16ths Week] - PARA X-bg.png;
#LYRICSPATH:;
#CDTITLE:;
#MUSIC:para10.mp3;
#OFFSET:-0.074;
#SAMPLESTART:63.034;
#SAMPLELENGTH:9.000;
#SELECTABLE:YES;
#BPMS:0.000=320.000,188.500=640.000,193.000=160.000,225.000=20.000,227.000=40.000,229.000=80.000,231.000=160.000,243.000=320.000;
#STOPS:62.000=0.280
,307.000=0.140
,307.250=0.140
,307.500=0.140
,307.750=0.140
,308.000=0.140
,308.250=0.140
,308.500=0.280
;
#BGCHANGES:;

//---------------dance-single - ----------------
#NOTES:
     dance-single:
     :
     Beginner:
     5:
     0.184,0.416,0.009,0.009,0.009: // measure 1
0000
0000
0000
0000
,  // measure 2
0000
0000
0000
0000
,  // measure 3
0000
0000
0000
0000
,  // measure 4
0000
0000
0000
0000
,  // measure 5
0000
0000
0000
0000
,  // measure 6
0000
0000
0000
0000
,  // measure 7
0000
0000
0000
0000
,  // measure 8
0000
0000
0000
0000
,  // measure 9
1000
0000
0000
0000
,  // measure 10
0100
0000
0000
0000
,  // measure 11
0010
0000
0000
0000
,  // measure 12
0001
0000
0000
0000
,  // measure 13
0010
0000
0000
0000
,  // measure 14
0100
0000
0000
0000
,  // measure 15
0001
0000
0000
0000
,  // measure 16
1000
0000
0000
0000
0010
0100
0000
0000
,  // measure 17
0000
0000
0000
0000
0000
0010
0000
0000
,  // measure 18
0000
0000
0000
0000
0000
0100
0000
0000
,  // measure 19
0000
0000
0000
0000
0000
0001
0000
0000
,  // measure 20
0000
0000
0000
0000
0000
1000
0000
0000
,  // measure 21
0000
0000
0000
0000
0000
0001
0000
0000
,  // measure 22
0000
0000
0000
0000
0000
0100
0000
0000
,  // measure 23
0000
0000
0000
0000
0000
0010
0000
0000
,  // measure 24
0000
0000
0000
0000
0000
0100
0000
0000
,  // measure 25
0000
0000
0000
0000
0000
0001
0000
0000
,  // measure 26
0000
0000
0000
0000
0000
0010
0000
0000
,  // measure 27
0000
0000
0000
0000
0000
1000
0000
0000
,  // measure 28
0000
0000
0000
0000
0000
0010
0000
0000
,  // measure 29
0000
0000
0000
0000
0000
0100
0000
0000
,  // measure 30
0000
0000
0000
0000
0000
0001
0000
0000
,  // measure 31
0000
0000
0000
0000
0000
0010
0000
0000
,  // measure 32
0000
0000
0000
0000
0000
0100
0000
0000
,  // measure 33
0000
0000
0000
0000
0000
0001
0000
0000
,  // measure 34
0000
0000
0000
0000
0000
0010
0000
0000
,  // measure 35
0000
0000
0000
0000
0000
1000
0000
0000
,  // measure 36
0000
0000
0000
0000
0000
0010
0000
0000
,  // measure 37
0000
0000
0000
0000
0000
0100
0000
0000
,  // measure 38
0000
0000
0000
0000
0000
0010
0000
0000
,  // measure 39
0000
0000
0000
0000
0000
0001
0000
0000
,  // measure 40
0000
0000
0000
0000
0000
0010
0000
0000
,  // measure 41
0000
0000
0000
0000
0000
1000
0000
0000
,  // measure 42
0000
0000
0000
0000
0000
0010
0000
0000
,  // measure 43
0000
0000
0000
0000
0000
0100
0000
0000
,  // measure 44
0000
0000
0000
0000
0000
0001
0000
0000
,  // measure 45
0000
0000
0000
0000
0000
0010
0000
0000
,  // measure 46
0000
0000
0000
0000
0000
1000
0000
0000
,  // measure 47
0000
0000
0000
0000
0000
0010
0000
0000
,  // measure 48
0000
0200
0000
0000
0000
0000
0000
0000
,  // measure 49
0000
0300
0000
0010
,  // measure 50
0000
0000
0000
1000
,  // measure 51
0000
0000
0000
0010
,  // measure 52
0000
0000
0000
0100
,  // measure 53
0000
0000
0000
0001
,  // measure 54
0000
0000
0000
0010
,  // measure 55
0000
0000
0000
1000
,  // measure 56
0000
0000
0000
0010
,  // measure 57
0000
1000
0100
0010
,  // measure 58
0001
0010
0100
0001
,  // measure 59
0010
0000
1000
0000
0010
0000
0000
0100
,  // measure 60
0000
0001
0100
0000
,  // measure 61
1000
0000
0000
0100
0000
0000
0000
0010
0000
0000
0000
0000
0001
0000
0000
0000
,  // measure 62
0000
0000
0000
0100
,  // measure 63
0000
0000
0000
0010
,  // measure 64
0000
0000
0000
1000
,  // measure 65
0000
0000
0000
0001
,  // measure 66
0000
0000
0000
0100
,  // measure 67
0000
0000
0000
0010
,  // measure 68
0000
0000
0000
1000
,  // measure 69
0000
0000
0000
0001
,  // measure 70
0000
0000
0000
0100
,  // measure 71
0000
0000
0000
0010
,  // measure 72
0000
0000
0000
0100
,  // measure 73
0000
0000
0000
0001
,  // measure 74
0000
0000
0000
0010
,  // measure 75
0000
0000
0000
0010
,  // measure 76
0000
0000
0000
1000
,  // measure 77
0000
0000
0000
0010
,  // measure 78
0000
1000
0100
0000
0000
0000
0000
0000
,  // measure 79
0000
0010
0000
0000
,  // measure 80
0000
0100
0000
0000
,  // measure 81
0000
0001
0000
0000
,  // measure 82
0000
0010
0000
0000
,  // measure 83
0000
1000
0000
0000
,  // measure 84
0000
0010
0000
0000
,  // measure 85
0000
0100
0000
0000
,  // measure 86
0000
0001
0000
0000
,  // measure 87
0000
0010
0000
0000
,  // measure 88
0000
1000
0000
0000
,  // measure 89
0000
0010
0000
0000
,  // measure 90
0000
0100
0000
0000
,  // measure 91
0000
0001
0000
0000
,  // measure 92
0000
0010
0000
0000
,  // measure 93
0000
0001
0000
0000
,  // measure 94
0000
0100
0000
1000
,  // measure 95
0000
0010
0000
0001
,  // measure 96
0000
0100
0000
0010
,  // measure 97
0000
0001
0000
1000
,  // measure 98
0000
0010
0000
0100
,  // measure 99
0000
1000
0000
0100
,  // measure 100
0000
0010
0000
0100
,  // measure 101
0000
0001
0000
0010
,  // measure 102
0000
0100
0000
0001
,  // measure 103
0000
0010
0000
0010
,  // measure 104
0000
0100
0000
0010
,  // measure 105
0000
0001
0000
0100
,  // measure 106
0000
0010
0000
0100
,  // measure 107
0000
1000
0000
0100
,  // measure 108
0000
0010
0000
0001
,  // measure 109
0000
0100
0000
0001
,  // measure 110
0000
0000
1000
0000
0000
0100
0000
0000
,  // measure 111
0000
0000
0000
0000
0000
0010
0000
0000
,  // measure 112
0000
0000
0000
0000
0000
1000
0000
0000
,  // measure 113
0000
0000
0000
0000
0000
0001
0000
0000
,  // measure 114
0000
0110
0000
0000
0000
0000
0000
0000
;

//---------------dance-single - ----------------
#NOTES:
     dance-single:
     :
     Hard:
     10:
     0.722,1.000,0.028,0.110,0.138:
0000
0000
0000
0000
,
0000
0000
0000
0000
,
0000
0000
0000
0000
,
0000
0000
0000
0000
,
0000
0000
0000
0000
,
0000
0000
0000
0000
,
0000
0000
0000
0000
,
0000
0000
0000
0000
,
1000
0000
0000
0200
0000
0000
0000
0000
,
0310
0000
0000
0002
0000
0000
0000
0000
,
0103
0000
0000
0020
0000
0000
0000
0000
,
0031
0000
0000
0200
0000
0000
0000
0000
,
1300
0000
0000
0002
0000
0000
0000
0000
,
0013
0000
0000
0002
0000
0000
0000
0000
,
0103
0000
0000
0200
0000
0000
0000
0000
,
1300
0000
0100
0000
1000
0000
0200
0000
0020
0330
1000
0000
0010
0000
0100
0000
,
0000
0010
0000
0001
0000
0100
0000
0010
,
0100
0000
0010
0100
0000
0010
0000
0100
,
0000
1000
0000
0100
0000
0001
0000
0010
,
0000
0100
0000
0001
0000
0010
1000
0001
,
0000
0100
0000
0010
0000
0100
0000
0001
,
0010
0000
0010
0100
0000
1000
0000
0010
,
0000
0100
0000
0010
0000
0100
0000
0001
,
0000
0010
0000
0100
0000
1000
0010
0001
,
0000
0100
0000
0010
0000
0100
0000
0001
,
0100
0000
0001
1000
0000
0100
0000
0010
,
0000
1000
0000
0100
0000
0010
0000
0001
,
0000
0100
0000
1000
0000
0010
0001
0100
,
0000
0001
0000
0010
0000
0001
0000
0010
,
0001
0000
0010
0100
0000
0001
0000
0100
,
0000
0010
0000
0100
0010
0100
0000
0100
,
1000
0100
0000
0100
0001
0100
0010
0100
,
0000
0001
0000
0100
0000
0010
0000
0100
,
0010
0000
0010
1000
0000
0001
0000
0010
,
0000
1000
0000
0100
0000
1000
0000
0100
,
0000
0010
0000
0100
0000
0001
0100
0010
,
0000
1000
0000
0010
0000
0100
0000
0001
,
0100
0000
0100
1000
0000
0100
0000
0010
,
0000
0100
0000
0001
0000
0010
0000
0100
,
0000
1000
0000
0010
0000
0100
0010
0001
,
0000
0010
0000
0001
0000
0100
0000
0010
,
1000
0000
1000
0001
0000
0010
0000
0001
,
0000
0100
0000
0010
0000
0100
0000
1000
,
0000
0100
0000
0001
0000
1000
0100
1000
,
0000
0100
0000
0010
0000
1000
0000
0010
,
0100
0000
0010
0100
0000
0010
0000
0100
,
0000
0010
0000
1000
0000
0001
0010
0001
,
0010
0200
0000
0000
0000
0000
0000
0000
,
0000
0000
0000
0000
0301
0000
0000
0000
0010
0000
0000
0100
1000
0000
0000
0000
,
0010
0000
0000
0100
0001
0000
0000
0000
0100
0000
0000
0000
0010
0000
0000
0000
,
1000
0000
0000
0000
0101
0000
0000
0000
0010
0000
0000
0100
0001
0000
0000
0000
,
0100
0000
0000
0001
0010
0000
0000
0000
0100
0000
0000
1000
0001
0000
0000
0000
,
0010
0000
0000
0000
1010
0000
0000
0000
0000
0000
0000
0010
0100
0000
0000
0000
,
0001
0000
0000
0000
0010
0000
0000
0000
0001
0000
0000
1000
0100
0000
0000
0000
,
0010
0000
0000
0000
0100
0000
0000
0000
0001
0000
0000
0100
0010
0000
0000
0000
,
1000
0010
0100
0001
,
0010
0000
0000
0000
0001
0001
0010
0010
0100
0100
1000
1000
0100
0010
0100
1000
,
0100
0010
0100
0001
0100
0010
0001
0100
1000
0100
0010
0100
0001
0010
0100
0010
,
0001
0010
0100
1000
0100
0000
0010
0000
0100
0000
0010
0100
0010
0000
1000
0000
,
0000
0000
1000
0100
0010
0001
0000
0000
,
1000
0000
0000
0100
0000
0000
0000
0010
0000
0000
0000
0000
1000
0000
0000
0000
,
0100
0010
0001
0010
,
0100
0001
0010
0001
,
0100
0010
0100
0001
,
0010
1000
0010
0001
,
0100
0010
0100
0001
,
0010
0001
0100
0010
,
0100
0001
0010
1000
,
0010
0100
0001
0010
,
0001
0100
0010
0100
,
0001
0010
1000
0010
,
0100
0001
0010
0001
,
0100
0010
0100
0001
,
0010
1000
0010
0001
,
0100
0010
0100
0001
,
0010
0001
0100
0010
,
0100
0000
0000
0000
0001
0000
0000
0000
0010
0000
0000
0000
1000
0100
0010
1000
,
0001
0010
0100
0000
0100
0000
0000
0000
0001
0000
0000
0000
0010
0000
0000
0000
,
0001
1000
0010
0100
,
0001
0100
0010
0100
,
0001
0010
1000
0010
,
0100
0001
0010
0001
,
0100
0010
1000
0001
,
0010
0001
0100
0010
,
0100
0001
0010
1000
,
0010
0001
0100
0010
,
0100
0001
0010
1000
,
0010
0100
0001
0010
,
0001
0100
0010
0100
,
0001
0010
1000
0010
,
0100
0010
1000
0010
,
0100
0001
0010
0100
,
1000
0010
0100
0001
,
0010
0000
0001
0010
0001
0100
0010
0001
,
1000
0100
0010
0100
0001
0100
0010
0001
,
0100
0010
0001
0010
0100
0010
0001
0010
,
0100
0010
1000
0100
0001
0100
0010
0100
,
1000
0100
0010
1000
0100
0010
0001
0100
,
0010
0100
1000
0100
0010
0001
0100
0010
,
0001
1000
0100
0001
0010
0100
1000
0010
,
0001
0100
0010
0001
0100
0010
1000
0100
,
0001
0100
0010
1000
0001
0010
0100
1000
,
0010
0001
0100
0010
0001
0100
0010
0100
,
1000
0001
0010
1000
0100
0010
0001
0100
,
0010
1000
0001
0100
1000
0001
0010
1000
,
0100
0010
0001
0100
0010
1000
0100
0010
,
0001
0100
0010
0001
1000
0100
0010
0100
,
0001
0010
0100
0001
0010
1000
0100
0010
,
0001
0100
0010
0001
1000
0100
0010
0001
,
1000
0000
0000
0000
0010
0100
0010
0100
,
0000
0100
0000
0010
0000
0001
0100
0000
,
1000
0000
0100
0000
1000
0100
0000
0100
,
0001
0010
0000
0001
0100
0001
0100
0000
,
0010
2002
0000
0000
,
0000
0000
0000
0000
,
0000
0000
0000
0000
,
0000
3003
0000
0000
;

//---------------dance-single - ----------------
#NOTES:
     dance-single:
     :
     Easy:
     9:
     0.347,0.630,0.009,0.037,0.009:
0000
0000
0000
0000
,
0000
0000
0000
0000
,
0000
0000
0000
0000
,
0000
0000
0000
0000
,
0000
0000
0000
0000
,
0000
0000
0000
0000
,
0000
0000
0000
0000
,
0000
0000
0000
0000
,
1000
0000
0000
0000
,
0100
0000
0000
0000
,
0010
0000
0000
0000
,
0001
0000
0000
0000
,
0100
0000
0000
0100
0000
0000
0000
0000
,
0010
0000
0000
0001
0000
0000
0000
0000
,
1000
0000
0000
0010
0000
0000
0000
0000
,
0001
0000
0000
0020
0030
0100
0000
0000
,
0000
0010
0000
0000
0000
1000
0000
0000
,
0000
0010
0000
0000
0000
0001
0000
0000
,
0000
0100
0000
0000
0000
1000
0000
0000
,
0000
0100
0000
0001
0000
0010
0000
0000
,
0000
0001
0000
0000
0000
0100
0000
0000
,
0000
1000
0000
0000
0000
0001
0000
0000
,
0000
0010
0000
0000
0000
0100
0000
0000
,
0000
0010
0000
0100
0000
0001
0000
0000
,
0000
1000
0000
0000
0000
0100
0000
0000
,
0000
0100
0000
0000
0000
0010
0000
0000
,
0000
0001
0000
0000
0000
1000
0000
0000
,
0000
0010
0000
1000
0000
0001
0000
0000
,
0000
0100
0000
0000
0000
0010
0000
0000
,
0000
0100
0000
0000
0000
1000
0000
0000
,
0000
0001
0000
0000
0000
0100
0000
0000
,
0000
1000
0000
0000
0000
0010
0000
0000
,
0000
0100
0000
0000
0000
0001
0000
0000
,
0000
0010
0000
0000
0000
0100
0000
0000
,
0000
0001
0000
0000
0000
0010
0000
0000
,
0000
0010
0000
0100
0000
1000
0000
0000
,
0000
0100
0000
0000
0000
0001
0000
0000
,
0000
1000
0000
0000
0000
0100
0000
0000
,
0000
0100
0000
0000
0000
0010
0000
0000
,
0000
0100
0000
0001
0000
1000
0000
0000
,
0000
0001
0000
0000
0000
0001
0000
0000
,
0000
0010
0000
0000
0000
0010
0000
0000
,
0000
0100
0000
0000
0000
0100
0000
0000
,
0000
1000
0000
0100
0000
1000
0000
0000
,
0000
0100
0000
0000
0000
0001
0000
0000
,
0000
0010
0000
0000
0000
0010
0000
0000
,
0000
0001
0000
0000
0000
0100
0000
0000
,
0000
0002
0000
0000
0000
0000
0000
0000
,
0000
0103
0000
0010
,
0000
0100
0000
1000
,
0000
1000
0000
0010
,
0000
0010
0000
0001
,
0000
0100
0000
0010
,
0000
0001
0000
0100
,
0000
0010
0000
0001
,
0000
0100
0000
1000
,
0000
0000
0100
0010
0100
1000
0001
0010
,
0100
0001
1000
0000
0100
0000
0010
0000
,
0100
0001
0010
1000
,
0000
0000
0001
0000
0100
0010
0000
0000
,
1000
0000
0000
0100
0000
0000
0000
0010
0000
0000
0000
0000
0010
0000
0000
0000
,
0000
1000
0000
0100
,
0000
0010
0000
0001
,
0000
0100
0000
0010
,
0000
0100
0000
1000
,
0000
0100
0000
0001
,
0000
0010
0000
0100
,
0000
0001
0000
0010
,
0000
0010
0000
1000
,
0000
0100
0000
0001
,
0000
0010
0000
0100
,
0000
1000
0000
0010
,
0000
0010
0000
1000
,
0000
0100
0000
0001
,
0000
0010
0000
0100
,
0000
0001
0000
0010
,
0000
0100
0000
1000
,
0010
1000
0010
0000
0000
0000
0001
0000
,
0000
0100
0000
0100
,
0000
0001
0000
0100
,
0000
0010
0000
0100
,
0000
1000
0000
0100
,
0000
0001
0000
0010
,
0000
0100
0000
0001
,
0000
0010
0000
0100
,
0000
1000
0000
0100
,
0000
0001
0000
0010
,
0000
0100
0000
0001
,
0000
0010
0000
0001
,
0000
1000
0000
0010
,
0000
0001
0000
0100
,
0000
0010
0000
1000
,
0000
0100
0000
0001
,
0000
0100
0010
0100
,
0001
0010
1000
0001
,
0100
0010
0100
0001
,
0010
1000
0001
0100
,
0010
1000
0001
0010
,
1000
0010
0100
0001
,
0010
0001
0100
0010
,
0100
0001
0010
1000
,
0010
0100
0001
0010
,
0001
0100
0010
0100
,
0001
0010
1000
0010
,
0100
0001
0010
0001
,
0100
0010
0100
0001
,
0010
0100
1000
0001
,
0100
0010
0100
0010
,
0100
1000
0001
0100
,
0010
0000
0000
0010
0000
0000
0000
0010
,
0000
1000
0000
0000
0000
0001
0000
0000
,
0000
0100
0000
0000
0000
0010
0000
0000
,
0000
0100
0000
0000
0000
1000
0000
0000
,
0000
0202
0000
0000
0000
0000
0000
0000
,
0000
0303
0000
0000
0000
0000
0000
0000
;

//---------------dance-single - ----------------
#NOTES:
     dance-single:
     :
     Medium:
     10:
     0.565,1.000,0.009,0.037,0.046:
0000
0000
0000
0000
,
0000
0000
0000
0000
,
0000
0000
0000
0000
,
0000
0000
0000
0000
,
0000
0000
0000
0000
,
0000
0000
0000
0000
,
0000
0000
0000
0000
,
0000
0000
0000
0000
,
1000
0000
0000
0100
0000
0000
0000
0000
,
0100
0000
0000
0010
0000
0000
0000
0000
,
0010
0000
0000
1000
0000
0000
0000
0000
,
0001
0000
0000
0100
0000
0000
0000
0000
,
0010
0000
0000
0001
0000
0000
0000
0000
,
0100
0000
0000
0001
0000
0000
0000
0000
,
0001
0000
0000
0100
0000
0000
0000
0000
,
0010
0000
0000
0000
0000
0000
2000
0000
0000
3000
0100
0000
0000
0000
0010
0000
,
0000
0100
0000
0001
0000
0010
0000
0001
,
0000
0100
0000
0010
0000
0100
0000
0001
,
0000
0010
0000
1000
0000
0010
0000
0100
,
0000
0001
0000
0010
0000
0001
0000
0100
,
0000
0010
0000
0100
0000
1000
0000
0001
,
0000
0010
0000
0001
0000
0100
0000
0010
,
0000
0100
0000
0001
0000
0010
0000
0100
,
0000
1000
0000
0100
0000
0010
0000
0100
,
0000
0001
0000
0010
0000
0001
0000
0100
,
0000
0010
0000
1000
0000
0010
0000
0100
,
0000
0001
0000
0010
0000
0100
0000
0001
,
0000
0010
0000
0001
0000
0100
0000
0010
,
0000
1000
0000
0100
0000
0010
0000
0100
,
0000
0001
0000
0010
0000
0100
0000
0001
,
0000
0010
0000
0001
0000
0100
0000
1000
,
0000
0010
0000
0100
0000
0010
0000
0100
,
0000
1000
0000
0100
0000
1000
0000
0100
,
0000
1000
0000
0100
0000
0010
0000
0001
,
0000
0010
0000
0001
0000
0010
0000
0100
,
0000
0010
0000
0001
0000
0010
0000
1000
,
0000
0001
0000
0100
0000
0010
0000
0100
,
0000
0001
0000
0010
0000
1000
0000
0010
,
0000
0100
0000
0001
0000
0010
0000
0001
,
0000
0100
0000
0010
0000
1000
0000
0001
,
0000
0010
0000
0100
0000
1000
0000
0001
,
0000
0100
0000
0010
0000
1000
0000
0010
,
0000
0001
0000
0100
0000
0010
0000
1000
,
0000
0001
0000
0010
0000
0001
0000
0100
,
0000
0010
0000
0001
0000
0010
0000
1000
,
0000
0100
0000
0010
0000
0001
0000
0100
,
0000
0010
0000
1000
0000
0001
0000
0100
,
0000
2000
0000
0000
0000
0000
0000
0000
,
0000
3010
0010
0001
,
0010
0100
1000
0001
,
0100
0010
0100
0001
,
0010
1000
0010
0001
,
0100
0010
0100
0001
,
0010
0100
1000
0001
,
0100
0010
1000
0001
,
0010
0100
1000
0001
,
0100
0000
0000
0000
0010
0100
0010
0100
0001
1000
0001
1000
0001
0010
0100
1000
,
0001
0010
0100
1000
0100
0000
0010
0000
0100
0000
1000
0000
0100
0000
0001
0000
,
0100
1000
0010
0100
1000
0001
0000
1000
,
0000
0000
1000
0010
1000
0010
0000
0000
,
0100
0000
0000
0010
0000
0000
0000
1000
0000
0000
0000
0000
1000
0000
0000
0000
,
0010
0100
0001
0010
,
1000
0010
0001
0100
,
0010
0100
0001
0010
,
1000
0010
0100
0001
,
0010
0001
0100
0010
,
0100
0001
0010
1000
,
0010
0001
0100
0010
,
0100
0001
0010
1000
,
0010
0001
0100
0010
,
0100
0001
0010
0001
,
0100
0010
0100
0001
,
0010
1000
0010
0100
,
0001
0010
0001
0100
,
0010
0100
0001
0010
,
0100
1000
0001
0100
,
0010
0000
0100
0000
0001
0000
1000
0100
,
0010
1000
0100
0000
0010
0000
0100
0000
,
0001
0010
0100
0001
,
1000
0100
0001
0010
,
0001
0100
0010
0100
,
0001
1000
0010
0100
,
0001
0010
1000
0100
,
1000
0010
0100
0100
,
1000
0010
0100
0001
,
0010
1000
0010
0001
,
0100
0010
0100
0001
,
0010
1000
0010
0001
,
0100
0010
0100
0001
,
0010
0001
0100
0010
,
0100
1000
0001
0010
,
0100
1000
0001
0100
,
0010
0100
0001
0010
,
1000
0010
0100
0001
,
0010
0100
0001
0010
,
1000
0010
0001
0100
,
0010
0100
0001
0010
,
0001
0100
0010
0100
,
0001
0010
1000
0010
,
0001
1000
0010
0001
,
0100
0010
1000
0001
,
0010
0001
0010
0001
,
0100
0010
1000
0100
,
0010
0001
0010
0010
,
0001
0100
0010
0100
,
0010
0100
0001
1000
,
0100
0010
1000
0001
,
0010
0001
0100
0010
,
0001
0100
0001
0100
,
1000
0000
0000
0100
0000
0010
0000
1000
,
0010
0100
0001
0010
,
0100
0010
0001
0000
0010
0000
0001
0000
,
0100
0010
1000
0001
,
0100
0220
0000
0000
,
0000
0000
0000
0000
,
0000
0330
0000
0000
;
