#TITLE:OrBiTal;
#SUBTITLE:;
#ARTIST:Paul Bazooka;
#TITLETRANSLIT:;
#SUBTITLETRANSLIT:;
#ARTISTTRANSLIT:;
#GENRE:;
#CREDIT:;
#BANNER:[16ths Week] - OrBiTal-bn.png;
#BACKGROUND:[16ths Week] - OrBiTal-bg.png;
#LYRICSPATH:;
#CDTITLE:cdtitle.png;
#MUSIC:[16ths Week] - OrBiTal.ogg;
#OFFSET:-0.141;
#SAMPLESTART:44.447;
#SAMPLELENGTH:12.000;
#SELECTABLE:YES;
#DISPLAYBPM:130.000;
#BPMS:0.000=130.000
,28.000=190.000
,29.500=130.000
,34.000=220.000
,39.000=130.000
,50.000=220.000
,54.000=190.000
,55.000=130.000
,56.000=220.000
,58.000=190.000
,60.000=130.000
,95.000=200.000
,98.000=130.000
,101.000=230.000
,104.000=130.000
,112.000=190.000
,113.000=130.000
,117.000=230.000
,120.000=130.000
,129.000=230.000
,131.000=130.000
,134.000=230.000
,135.000=130.000
,139.000=190.000
,141.000=130.000
,145.000=190.000
,146.000=230.000
,148.500=130.000
,149.000=150.000
,153.000=260.000
,157.000=130.000
,173.000=190.000
,174.000=130.000
,184.000=190.000
,185.000=230.000
,189.000=130.000
,193.000=190.000
,195.000=130.000
,199.000=230.000
,201.000=130.000
,204.500=190.000
,205.000=130.000
,209.000=190.000
,211.000=130.000
,215.000=230.000
,217.000=130.000
,223.000=190.000
,225.000=130.000
,225.500=190.000
,226.000=130.000
,226.500=190.000
,227.000=130.000
,231.000=230.000
,233.000=130.000
,237.000=200.000
,238.000=130.000
,241.000=190.000
,243.000=130.000
;
#STOPS:28.000=0.073,
28.500=0.073,
29.000=0.073,
34.000=0.094,
34.500=0.095,
35.000=0.094,
35.500=0.095,
36.000=0.094,
36.500=0.095,
37.000=0.094,
37.500=0.095,
38.000=0.094,
38.500=0.095,
50.000=0.047,
50.250=0.046,
50.500=0.047,
50.750=0.046,
51.000=0.095,
51.500=0.095,
52.000=0.095,
52.500=0.047,
52.750=0.047,
53.000=0.094,
53.500=0.095,
54.000=0.036,
54.250=0.037,
54.500=0.036,
54.750=0.037,
56.000=0.047,
56.250=0.047,
56.500=0.047,
56.750=0.048,
57.000=0.047,
57.250=0.047,
57.500=0.047,
57.750=0.047,
58.000=0.036,
58.250=0.037,
58.500=0.036,
58.750=0.037,
59.000=0.073,
59.500=0.073,
92.000=1.384,
95.000=0.040,
95.250=0.041,
95.500=0.040,
95.750=0.041,
96.000=0.040,
96.250=0.041,
96.500=0.040,
96.750=0.040,
97.000=0.081,
97.500=0.040,
97.750=0.041,
101.000=0.050,
101.250=0.101,
101.750=0.050,
102.000=0.050,
102.250=0.050,
102.500=0.050,
102.750=0.050,
103.000=0.100,
103.500=0.051,
103.750=0.050,
112.000=0.036,
112.250=0.037,
112.500=0.036,
112.750=0.037,
117.000=0.050,
117.250=0.101,
117.750=0.050,
118.000=0.050,
118.250=0.050,
118.500=0.050,
118.750=0.050,
119.000=0.100,
119.500=0.050,
119.750=0.051,
129.000=0.050,
129.250=0.050,
129.500=0.050,
129.750=0.050,
130.000=0.101,
130.500=0.100,
134.000=0.050,
134.250=0.050,
134.500=0.050,
134.750=0.050,
139.000=0.036,
139.250=0.037,
139.500=0.036,
139.750=0.037,
140.000=0.036,
140.250=0.037,
140.500=0.036,
140.750=0.037,
145.000=0.036,
145.250=0.037,
145.500=0.036,
145.750=0.037,
146.000=0.100,
146.500=0.101,
147.000=0.201,
148.000=0.100,
149.000=0.016,
149.250=0.015,
149.500=0.016,
149.750=0.015,
150.000=0.016,
150.250=0.015,
150.500=0.016,
150.750=0.015,
151.000=0.016,
151.250=0.015,
151.500=0.015,
151.750=0.015,
152.000=0.016,
152.250=0.015,
152.500=0.015,
152.750=0.015,
153.000=0.115,
153.500=0.116,
154.000=0.115,
154.500=0.116,
155.000=0.115,
155.500=0.116,
156.000=0.115,
156.500=0.115,
173.000=0.036,
173.250=0.037,
173.500=0.036,
173.750=0.037,
184.000=0.036,
184.250=0.037,
184.500=0.036,
184.750=0.037,
185.000=0.200,
186.000=0.200,
187.000=0.200,
188.000=0.050,
188.250=0.051,
188.500=0.050,
188.750=0.051,
193.000=0.036,
193.250=0.037,
193.500=0.036,
193.750=0.037,
194.000=0.036,
194.250=0.037,
194.500=0.036,
194.750=0.037,
199.000=0.100,
199.500=0.101,
200.000=0.100,
200.500=0.101,
204.500=0.036,
204.750=0.037,
209.000=0.036,
209.250=0.037,
209.500=0.036,
209.750=0.037,
210.000=0.036,
210.250=0.037,
210.500=0.036,
210.750=0.037,
215.000=0.100,
215.500=0.100,
216.000=0.100,
216.500=0.100,
223.000=0.036,
223.250=0.037,
223.500=0.036,
223.750=0.037,
224.000=0.036,
224.250=0.037,
224.500=0.036,
224.750=0.037,
225.500=0.036,
225.750=0.037,
226.500=0.036,
226.750=0.037,
231.000=0.100,
231.500=0.101,
232.000=0.100,
232.500=0.101,
237.000=0.040,
237.250=0.040,
237.500=0.040,
237.750=0.040,
241.000=0.036,
241.250=0.037,
241.500=0.036,
241.750=0.037,
242.000=0.036,
242.250=0.037,
242.500=0.036,
242.750=0.037
;
#BGCHANGES:;
#KEYSOUNDS:;
#ATTACKS:;

//---------------dance-single - ----------------
#NOTES:
     dance-single:
     :
     Hard:
     9:
     0.628,0.653,0.203,0.382,0.427,468.000,25.000,47.000,17.000,0.000,8.000,0.628,0.653,0.203,0.382,0.427,468.000,25.000,47.000,17.000,0.000,8.000:
0000
0000
0000
0000
,
0000
0000
0000
0000
,
0000
0000
0000
0000
,
0000
0000
0000
0000
,
2002
0003
0020
3000
,
0200
0030
0002
0300
,
0020
0003
0200
0330
,
1000
0000
1000
0000
1000
0000
0001
0000
0100
0010
0100
0010
0100
0000
0001
0000
,
2000
0000
3200
0000
1300
0010
0100
0001
,
1000
0100
0010
0001
1000
0010
0200
0000
,
0300
0010
0000
1010
0000
1000
0000
1001
,
0000
0001
0000
0011
0000
0010
0200
0000
,
1300
0000
0000
0000
0040
0000
0030
0000
1000
0100
0010
0100
1000
0000
0010
0000
,
0100
0000
0001
0010
0100
0000
0010
0000
0001
1000
0001
1000
0020
0000
0000
0000
,
1030
0100
1000
0100
1000
0010
0100
0001
0010
0100
0010
0100
0010
0000
0001
0000
,
2000
0010
3010
0100
0002
0000
2003
0000
,
3001
0010
0100
1000
0001
0100
1000
0100
,
0001
1000
0100
1000
0001
0010
1000
0010
,
0001
0000
0100
0010
0000
0000
1000
0000
0001
0000
0010
0100
0000
0000
1000
0000
,
0001
0100
0010
1000
0100
0010
0001
1000
,
0001
0100
0010
0100
0001
0010
0100
0000
1000
0000
1000
0000
0010
0000
1000
0000
,
0001
0010
0100
0010
0001
0100
0010
0000
1000
0000
0100
0000
0010
0000
0100
0000
,
1000
0010
0000
1000
0000
0000
0001
0000
0100
0001
0000
0100
0000
0000
0010
0000
,
1001
0000
0000
0000
2000
0000
0000
0000
3020
0000
0000
0000
1030
0100
1000
0100
,
0010
0100
0010
0001
1000
0000
0010
0100
0001
0000
0000
0000
1001
0000
0000
0000
,
1100
0000
0000
0000
0001
0100
0000
0001
1000
0100
1000
0100
0010
0000
0001
0100
,
0010
0010
1000
0100
1000
0010
0100
0001
,
0020
0000
0000
0000
0031
0100
0001
0100
0010
0000
0000
0000
1001
0000
0000
0000
,
1000
0100
0010
0100
1000
0010
1000
0010
0100
0000
0000
0000
0101
0000
0000
0000
,
1001
0000
0000
0000
1000
0100
0000
1000
0010
0100
0001
1000
0001
0000
0010
0100
,
1000
0010
2000
0000
0001
0001
0100
0000
,
0010
3010
0020
0000
0230
0000
0302
0000
,
4003
0000
0000
0000
3001
0100
0010
0100
0010
0000
1000
0000
0400
0000
0000
0000
,
0340
0000
0000
0000
0031
1000
0000
0001
0100
0010
0100
0010
2000
0000
0000
0000
,
3020
0000
0000
0000
1030
0100
1000
0100
0010
0001
0010
0001
1000
0010
0100
0001
,
1000
0100
0010
0100
1000
0000
0000
0000
1001
0000
0000
0000
0202
0000
0000
0000
,
0303
0000
0000
0000
0001
0100
0001
0100
0004
0000
0043
0000
0032
0000
0000
0000
,
2003
0000
0000
0000
3001
0100
0001
0100
0010
1000
0010
1000
0001
0010
0001
0010
,
0100
1000
0100
1000
00M1
0000
00M1
0000
M100
0000
M100
0000
001M
0000
001M
0000
,
001M
001M
1000
0100
0010
0000
0011
0000
,
1001
0000
1000
0010
0100
0000
0101
0000
,
1001
0000
0000
0000
1000
0100
0010
0000
0001
0000
1000
0000
0010
0000
0001
0000
,
0010
0000
1000
0000
0001
0010
0100
0000
1000
0000
0100
0000
0001
0000
0100
0000
,
0010
0000
0001
0000
1000
0100
0010
0100
1000
0000
0000
0000
1010
0000
0000
0000
,
0101
0100
0001
0010
0100
0000
1000
0010
,
1000
0001
0010
0100
0010
0100
00M0
0000
,
0010
0100
0010
0100
002M
0000
0030
0000
002M
0000
0030
0000
002M
0000
0030
0000
,
0M10
0000
0000
0001
0M00
0000
0010
0000
0M00
0001
0000
0000
1M00
0000
0000
0000
0000
0000
0010
0000
0000
0000
0000
0000
0100
0000
0000
0000
0000
0000
0000
0000
0000
0000
0000
0000
0101
0000
0000
0000
0000
0000
0000
0000
0000
0000
0000
0000
,
1001
0000
0000
0000
1000
0100
0010
0100
0010
0001
0010
0100
1000
0000
0000
0000
,
1010
0000
0000
0000
0001
0000
0001
0000
0100
0000
0010
1000
0001
0000
0001
0000
,
0010
0000
0010
0000
0100
0000
1000
0000
0010
0000
0100
0001
2000
0000
0000
0000
,
3002
0000
1003
1000
0001
0000
0100
0000
0010
0000
0000
0000
1010
0000
1000
0000
,
0002
0000
0000
0000
1003
0100
0010
0100
1000
0010
0100
0010
0200
0000
0000
0000
,
0302
0000
M003
0000
1001
0000
1000
1000
,
0100
0100
0020
0000
0031
0100
0020
0000
,
1030
0000
0001
0000
0020
0000
0000
0000
0032
0000
0000
0000
1003
0010
0100
0010
,
0100
0001
0010
0100
0040
0000
0031
0100
0040
0000
1030
0100
1000
0000
0010
0000
,
0001
0000
0010
0000
1000
0000
0100
0000
0010
0000
0100
1000
0010
0000
0010
0000
,
0100
0000
0100
0000
0001
0000
0010
0000
0001
0000
0100
0010
2000
0000
0000
0000
,
3002
0000
0000
0000
1003
0100
1000
0100
0010
0000
0000
0000
0011
0000
0001
0000
,
2000
0000
0000
0000
3001
0100
0010
0100
0010
1000
0100
0010
0200
0000
0000
0000
,
2300
0000
3001
0100
0001
0010
1000
0010
,
0001
0100
0010
1000
0001
0100
1000
0100
,
0001
2002
0000
0000
,
0000
3003
0000
0000
;

//---------------dance-single - ----------------
#NOTES:
     dance-single:
     :
     Medium:
     7:
     0.486,0.444,0.195,0.293,0.000,358.000,24.000,36.000,0.000,0.000,0.000,0.486,0.444,0.195,0.293,0.000,358.000,24.000,36.000,0.000,0.000,0.000:
0000
0000
0000
0000
,
0000
0000
0000
0000
,
0000
0000
0000
0000
,
0000
0000
0000
0000
,
2000
0000
3020
0000
,
0230
0000
0302
0000
,
0023
0000
0230
0000
,
1300
0001
1000
0001
0100
0100
0010
1000
,
0001
0000
0011
0000
0001
0100
0010
1000
,
0001
0010
0100
1000
0001
0100
0020
0000
,
0030
1000
0000
1100
0000
0001
0000
0101
,
0000
1000
0000
1100
0000
0001
0100
0000
,
0010
0000
1010
0000
1000
0100
0010
0100
,
1000
0001
0001
0100
0001
0010
0100
0000
,
1000
0100
1000
0100
0010
0001
1000
0001
,
2000
0000
3010
0100
0002
0000
2003
0000
,
3001
0100
0001
1000
0001
0010
0100
1000
,
0001
0100
0001
1000
0001
0010
0100
1000
,
0001
0100
0001
0000
1000
0100
1000
0000
,
0001
0100
0010
1000
0001
0000
1000
0000
,
0001
0010
0001
0010
0100
0000
1000
0000
,
0001
0100
0001
0100
0010
0000
1000
0000
,
0001
0100
0010
0000
1000
0100
0010
0000
,
0110
0000
0010
0000
0011
0000
0001
0100
,
0001
0100
0010
1000
0001
0000
0011
0000
,
1100
0000
1000
0000
1000
0010
0100
0010
,
0010
1000
0001
0010
0100
0010
0001
0100
,
0010
0000
1000
0100
0010
0000
0011
0000
,
0001
0001
1000
0010
0100
0000
0101
0000
,
1001
0000
1000
0000
1000
0100
0010
0100
,
0100
1000
0002
0000
0100
0100
1000
0000
,
1003
1000
0200
0000
0320
0000
0032
0000
,
2003
0000
3001
0100
0001
1000
0200
0000
,
2300
0000
3001
0000
0001
0100
0010
0000
,
1010
0000
1000
0100
1000
0100
0010
0001
,
1000
0001
0100
0000
0110
0000
2020
0000
,
3030
0000
1000
0100
1000
0010
0200
0000
,
0302
0000
1003
0100
1000
0100
0010
0001
,
0010
0001
1000
1000
0001
0001
0100
0100
,
0100
0100
0010
1000
0001
0000
1000
0000
,
1100
0000
0100
1000
0001
0000
0100
0000
,
0101
0000
0001
0010
0100
1000
0001
0100
,
0010
0100
0001
0010
0100
1000
0001
0100
,
0001
0100
0010
1000
0010
0000
1000
0000
,
0001
0010
0100
0010
0100
0000
1000
0001
,
1000
0010
0100
0001
1000
0001
0000
0000
,
1000
0100
1000
0000
1000
0000
1000
0000
,
1000
0001
1000
0010
0100
0000
0101
0000
,
1001
0000
0001
0010
0001
0010
0100
0000
,
1100
0000
1000
0010
1000
0100
0010
0010
,
0001
0001
1000
0010
1000
0010
0200
0000
,
0301
1000
0001
0010
0200
0000
1300
0001
,
0200
0000
0310
1000
0010
1000
0001
0000
,
2002
0000
3003
0000
1100
0000
1000
0100
,
1000
0100
0020
0000
0031
0100
0020
0000
,
1030
0100
1000
0000
1001
0000
0001
0100
,
0001
0100
0010
1000
0100
1000
0010
0100
,
0010
0100
0001
1000
0100
0010
0100
0100
,
1000
1000
0001
0100
0010
1000
0002
0000
,
2003
0000
3001
0010
0002
0000
0103
0010
,
2000
0000
3001
0010
0001
0010
0200
0000
,
2300
0000
3001
0000
0001
0000
0100
0010
,
0100
0010
1000
0001
1000
0001
0010
0100
,
1000
2002
0000
0000
,
0000
3003
0000
0000
;

//---------------dance-single - ----------------
#NOTES:
     dance-single:
     :
     Easy:
     4:
     0.298,0.288,0.130,0.195,0.000,216.000,16.000,24.000,0.000,0.000,0.000,0.298,0.288,0.130,0.195,0.000,216.000,16.000,24.000,0.000,0.000,0.000: // measure 0
0000
0000
0000
0000
,  // measure 1
0000
0000
0000
0000
,  // measure 2
0000
0000
0000
0000
,  // measure 3
0000
0000
0000
0000
,  // measure 4
2000
3000
0200
0300
,  // measure 5
0020
0030
0002
0003
,  // measure 6
0200
0300
0020
0030
,  // measure 7
1000
1000
0001
0100
,  // measure 8
0001
1000
0001
0010
,  // measure 9
0100
1000
0100
0010
,  // measure 10
0000
0010
0001
0010
,  // measure 11
0001
1000
0002
0000
,  // measure 12
1003
0100
1000
0010
,  // measure 13
0100
0010
0100
0001
,  // measure 14
1000
1000
0001
1000
,  // measure 15
0001
0100
0010
0100
,  // measure 16
0001
0010
0100
1000
,  // measure 17
0001
0100
0010
1000
,  // measure 18
0001
0010
0100
0010
,  // measure 19
0001
0010
0100
1000
,  // measure 20
0001
0001
0100
0010
,  // measure 21
1000
1000
0100
0010
,  // measure 22
0001
0100
0001
1000
,  // measure 23
1001
2000
3000
0001
,  // measure 24
0001
0100
0001
1000
,  // measure 25
0001
1000
1000
0100
,  // measure 26
0010
0001
0001
0100
,  // measure 27
0020
0130
0100
0110
,  // measure 28
0000
0010
0010
1010
,  // measure 29
0000
1000
1000
0100
,  // measure 30
0010
0002
1000
1000
,  // measure 31
1003
1000
1010
0010
,  // measure 32
0110
0100
0001
2000
,  // measure 33
3200
1300
1000
0001
,  // measure 34
0100
0001
0010
0100
,  // measure 35
0100
1000
0001
0101
,  // measure 36
0000
0001
1000
0100
,  // measure 37
1100
1000
0001
1000
,  // measure 38
0001
0200
0300
0020
,  // measure 39
0030
1000
0100
1100
,  // measure 40
0000
0001
0100
0101
,  // measure 41
0000
0001
0010
0100
,  // measure 42
1000
0001
0100
0010
,  // measure 43
0100
0001
1000
1010
,  // measure 44
0000
1000
0001
0010
,  // measure 45
0001
1000
0001
0000
,  // measure 46
1000
0100
0100
0100
,  // measure 47
0200
1300
0001
0100
,  // measure 48
0001
0010
0010
0100
,  // measure 49
0110
0010
0001
1000
,  // measure 50
1000
0001
0100
0202
,  // measure 51
0303
0001
1000
0100
,  // measure 52
1000
0001
0100
0010
,  // measure 53
0220
0330
0100
0010
,  // measure 54
1000
0010
0100
0001
,  // measure 55
1000
0002
0003
1000
,  // measure 56
0100
1000
0001
1000
,  // measure 57
0010
0100
0001
1000
,  // measure 58
1000
0100
0010
0220
,  // measure 59
0330
0010
0010
0001
,  // measure 60
1000
0001
0100
0010
,  // measure 61
0110
0100
0010
1000
,  // measure 62
0010
0100
0001
1000
,  // measure 63
0001
2002
0000
0000
,  // measure 64
0000
3003
0000
0000
;
