#TITLE:Onigo;
#SUBTITLE:;
#ARTIST:Hommarju;
#TITLETRANSLIT:;
#SUBTITLETRANSLIT:;
#ARTISTTRANSLIT:;
#GENRE:;
#CREDIT:Telperion;
#BANNER:[16ths Week] - Onigo.png;
#BACKGROUND:[16ths Week] - Onigo-bg.png;
#LYRICSPATH:;
#CDTITLE:cdtitle.png;
#MUSIC:Onigo.ogg;
#OFFSET:-0.980000;
#SAMPLESTART:27.046000;
#SAMPLELENGTH:10.971000;
#SELECTABLE:YES;
#DISPLAYBPM:175.000000;
#BPMS:0.000000=175.000000
;
#STOPS:
;
#BGCHANGES:;
#KEYSOUNDS:;
#ATTACKS:;

//---------------dance-single - Telperion----------------
#NOTES:
     dance-single:
     Telperion:
     Challenge:
     11:
     0.794070,0.927590,0.519732,0.079281,0.612227,563.000000,59.000000,9.000000,20.000000,0.000000,0.000000,0.794070,0.927590,0.519732,0.079281,0.612227,563.000000,59.000000,9.000000,20.000000,0.000000,0.000000:
0000
0000
0000
0000
,
1001
0100
0010
0100
,
0001
1000
0001
1000
,
0100
0010
0100
0010
,
0001
1000
0001
1000
,
0001
0000
0100
0001
1000
0001
0100
0010
,
00M1
0100
0010
0000
00M1
0100
0010
0000
00M1
0100
0010
0000
1000
0010
M000
0100
,
0001
1000
0100
0010
0001
1000
0001
0000
,
0010
0100
1000
0001
,
0100
0000
0001
0010
0100
1000
0010
0001
,
0000
0010
0000
0100
0000
0010
0000
0100
,
0001
0000
0100
0000
1000
0000
0100
0000
0001
0000
0000
0100
0000
0000
0010
0000
,
0000
0100
0000
0010
0000
1000
0001
0010
,
1000
0000
0010
0100
1000
0100
0000
0100
,
0001
0100
1000
0100
0001
0100
0000
0010
,
0000
0100
0000
0010
0000
0100
0000
0010
,
0000
0100
0000
0010
0000
0100
0000
1000
,
1010
0000
0000
0001
1000
0001
1000
0001
0100
0000
0010
0000
0010
0000
1000
0000
,
0001
1000
0001
1000
0100
0000
0020
0000
1000
0000
0000
0000
0031
0000
0000
0000
,
0110
0000
0100
0010
0100
0010
0100
0010
0001
0000
0010
0000
1000
0000
0010
0000
,
0100
0010
0100
0010
0001
0010
0100
0000
1000
0000
0100
0000
0001
0000
0100
0000
,
1000
0000
0010
0100
0010
0100
0010
0100
0001
0000
0100
0000
1000
0000
0100
0000
,
0010
0100
0010
0100
0001
0100
0010
0000
0001
0000
0010
0000
1000
0000
0000
0000
,
0001
0000
0010
0100
0010
0100
0010
0100
1000
0000
0100
0000
0001
0000
0100
0000
,
0010
0100
0010
0100
1000
0100
0010
0000
1000
0000
0010
0000
0001
0000
1000
0000
,
1001
0000
0001
0100
0001
0000
1000
0100
0010
0000
0100
0010
0100
0000
1000
0000
,
0001
1000
0001
1000
0010
0000
0100
0001
0010
0000
0100
1000
0001
0000
0100
0010
,
1000
0000
0000
1010
0000
0000
0110
0000
0000
0101
0000
0000
1001
0000
1000
0000
,
0001
0000
0000
0011
0000
0000
0110
0000
0000
1100
0000
0000
1001
0000
0001
0000
,
0100
0000
0000
0110
0000
0000
1010
0000
0000
1001
0000
0000
0011
0000
0010
0000
,
0100
0000
0000
0110
0000
0000
0011
0000
0000
1001
0000
0000
1010
0000
0010
0000
,
0100
0000
0000
0100
0001
0000
1001
0000
1000
0000
0000
0001
1000
0000
1100
0000
,
0100
0000
0000
1000
0100
0000
0110
0000
0010
0000
0000
0100
0010
0000
0011
0000
,
0001
0010
0001
0010
0100
0010
0100
0010
0100
1000
0100
1000
0001
1000
0001
1000
,
0010
1000
0010
1000
0010
0100
0010
0100
0001
0100
0001
1000
0001
0010
0100
1000
,
0002
0000
0000
0000
,
0000
0003
0000
0000
,
2000
0000
0000
0000
,
0000
3000
0000
0000
,
0020
0000
0000
0000
,
0000
0030
0000
0000
,
0200
0000
0000
0000
,
0000
0300
0000
0000
,
10M1
0000
0100
0000
0001
0010
0100
1000
,
0002
0000
0100
0000
1003
0100
0010
0001
,
2000
0000
0010
0000
3001
0100
0010
0100
,
0002
0000
1000
0000
0103
1000
0100
0001
,
0010
0000
0100
0010
0100
0000
1000
0000
,
0001
1000
0001
1000
0010
0100
0000
0001
,
0000
0100
0000
0010
0000
0100
0000
0001
,
0000
0100
0000
0010
0000
0100
0000
0001
,
1MM1
0000
MM00
0000
,
00MM
0000
M0M0
0000
,
0011
0000
0000
1000
0001
1000
0001
1000
0100
0000
0010
0000
0010
0000
0001
0000
,
1000
0001
1000
0001
0100
0000
0020
0000
0001
0000
0000
0000
1030
0000
0000
0000
,
0110
0000
0100
0010
0100
0010
0100
0010
1000
0000
0010
0000
0001
0000
0010
0000
,
0100
0010
0100
0010
1000
0010
0100
0000
0001
0000
0100
0000
1000
0000
0100
0000
,
0001
0000
0010
0100
0010
0100
0010
0100
1000
0000
0100
0000
0001
0000
0100
0000
,
0010
0100
0010
0100
1000
0100
0010
0000
1000
0000
0010
0000
0001
0000
0000
0000
,
1000
0000
0010
0100
0010
0100
0010
0100
0001
0000
0100
0000
1000
0000
0100
0000
,
0010
0100
0010
0100
0001
0100
0010
0000
0001
0000
0010
0000
1000
0000
0001
0000
,
0010
0000
0100
0010
0100
1000
0100
0010
0001
0000
1000
0000
0010
0000
0100
0000
,
0001
0100
0010
1000
0010
0100
0001
0000
0010
0000
0001
0000
0100
0000
0000
0000
,
1010
0000
1000
0100
1000
0000
0001
0100
0010
0000
0100
0010
0100
0000
0001
0000
,
1000
0000
1000
0001
0010
0000
0100
0000
0001
0000
0100
0000
1000
0000
0000
0000
,
0011
0000
0001
0100
0001
0000
1000
0100
0010
0000
0100
0010
0100
0000
1000
0000
,
0001
0100
0001
0100
0010
0000
0100
0000
1000
0000
0100
0000
0001
0000
0000
0000
,
0011
0000
0000
1000
0000
0000
0101
0000
0000
1000
0000
0000
0011
0000
0010
0000
,
0110
0000
0000
1100
0000
0000
1001
0000
0000
1000
0000
0000
1010
0000
0010
0000
,
0110
0100
0000
0001
0000
1000
0000
0010
,
1000
0001
1000
0001
0010
0000
0100
1000
0001
0000
0100
0010
1000
0000
0001
0000
,
1001
0000
0000
0011
0000
0000
0110
0000
0000
1100
0000
0000
1001
0000
0001
0000
,
1000
0000
0000
1010
0000
0000
0110
0000
0000
0101
0000
0000
1001
0000
1000
0000
,
0100
0000
0000
0110
0000
0000
0011
0000
0000
1001
0000
0000
1010
0000
0010
0000
,
0100
0000
0000
0110
0000
0000
1010
0000
0000
1001
0000
0000
0011
0000
0010
0000
,
0100
0000
0000
0100
1000
0000
1001
0000
0001
0000
0000
1000
0001
0000
0101
0000
,
0100
0000
0000
0001
0100
0000
0110
0000
0010
0000
0000
0100
0010
0000
1010
0000
,
1000
0010
1000
0010
0100
0010
0100
0010
0100
0001
0100
0001
1000
0001
1000
0001
,
0010
0001
0010
0001
0010
0100
0010
0100
1000
0001
1000
0100
0010
0001
0100
0010
,
1M0M
0000
M0M0
0000
,
000M
0000
M000
0000
,
00M0
0000
0000
0000
;

//---------------dance-single - Telperion----------------
#NOTES:
     dance-single:
     Telperion:
     Hard:
     8:
     0.522249,0.556730,0.211416,0.035236,0.127731,387.000000,24.000000,4.000000,0.000000,0.000000,0.000000,0.522249,0.556730,0.211416,0.035236,0.127731,387.000000,24.000000,4.000000,0.000000,0.000000,0.000000:
0000
0000
0000
0000
,
1001
1000
0001
1000
,
0010
0100
0010
0100
,
0001
1000
0001
1000
,
0100
1000
0100
1000
,
0001
0000
1000
0000
0001
0000
1000
0010
,
0000
0000
0010
0000
0000
0000
0010
0000
0000
0000
0010
0000
0000
0100
0000
0000
,
0001
1000
0001
1000
,
0001
0100
0001
0100
,
0010
1000
0001
0100
,
1000
0100
0001
1000
,
0010
1000
0100
0010
,
0001
0010
0001
0010
,
0100
0010
0001
1000
,
0100
0001
0100
1000
,
0001
0100
0001
1000
,
0001
0100
0001
1000
,
1001
0000
0000
0000
,
0000
0000
0000
0000
,
1000
0100
0001
0100
0010
0100
0001
0100
,
1000
0100
0010
0100
0001
0000
0100
0000
,
1000
0010
0001
0010
0100
0010
0001
0010
,
1000
0010
0100
0010
0001
0000
0010
1000
,
0001
0010
1000
0010
0100
0010
1000
0010
,
0001
0010
0100
0010
1000
0000
0010
0000
,
0001
1000
0000
0010
0100
0001
0000
0010
,
0100
1000
0001
0100
0010
0000
0010
0000
,
1010
0000
0000
1000
0000
0000
0001
0000
0000
0100
0000
0000
0001
0000
0010
0000
,
0011
0000
0000
0001
0000
0000
1000
0000
0000
0100
0000
0000
0010
0000
0100
0000
,
1100
0000
0000
1000
0000
0000
0001
0000
0000
0010
0000
0000
0001
0000
0100
0000
,
0101
0000
0000
0001
0000
0000
1000
0000
0000
0010
0000
0000
0100
0000
0010
0000
,
1000
0000
0000
1010
0000
0000
0000
0000
0001
0000
0000
0011
0000
0000
0000
0000
,
1000
0000
0000
1100
0000
0000
0000
0000
0001
0000
0000
0101
0000
0000
0000
0000
,
1000
0001
0010
0100
1000
0001
0010
0100
,
1000
0001
0010
1000
0001
0100
1000
0001
,
0200
0000
0000
0000
,
0000
0300
0000
0000
,
0020
0000
0000
0000
,
0000
0030
0000
0000
,
2000
0000
0000
0000
,
0000
3000
0000
0000
,
0002
0000
0000
0000
,
0000
0003
0000
0000
,
1001
0000
0001
0000
1000
0001
1000
0001
,
0100
0000
0100
0000
0010
0100
0010
0100
,
0001
0000
0001
0000
1000
0100
1000
0100
,
0010
0000
0010
0000
0001
0010
0001
0010
,
1000
0000
0010
0000
0100
1000
0100
1000
,
0001
0000
0100
0000
0001
0100
0001
0100
,
0010
0100
0001
0100
,
0010
0100
0001
1000
,
1001
0000
0000
0000
,
0000
0000
0000
0000
,
1010
0000
0001
1000
0100
0000
1000
0010
,
0100
0000
0001
0100
1000
0000
0100
0000
,
0001
0100
1000
0100
0010
0100
1000
0100
,
0001
0100
0010
0100
1000
0000
0100
0000
,
0001
0010
1000
0010
0100
0010
1000
0010
,
0001
0010
0100
0010
1000
0000
0010
0001
,
1000
0010
0001
0010
0100
0010
0001
0010
,
1000
0010
0100
0010
0001
0000
0010
0000
,
1000
0100
0001
0100
0010
0100
1000
0001
,
0100
0010
0100
0010
1000
0000
0001
0000
,
0010
0100
1000
0000
0010
0100
0001
0000
,
0010
0100
1000
0100
0001
0000
0100
0000
,
1000
0010
0100
0000
0001
0010
0100
0000
,
1000
0010
0100
0010
0001
0000
0010
0000
,
1000
0000
0000
0001
0000
0000
1010
0000
0000
1000
0000
0000
0001
0000
0010
0000
,
0110
0000
0000
1000
0000
0000
0011
0000
0000
0001
0000
0000
1000
0000
0010
0000
,
0100
0001
0000
0010
0100
1000
0000
0010
,
0100
0001
1000
0100
0010
0000
0010
0000
,
0011
0000
0000
0001
0000
0000
1000
0000
0000
0100
0000
0000
1000
0000
0010
0000
,
1010
0000
0000
1000
0000
0000
0001
0000
0000
0100
0000
0000
0010
0000
0100
0000
,
0101
0000
0000
0001
0000
0000
1000
0000
0000
0010
0000
0000
1000
0000
0100
0000
,
1100
0000
0000
1000
0000
0000
0001
0000
0000
0010
0000
0000
0100
0000
0010
0000
,
0001
0000
0000
0011
0000
0000
0001
0000
1000
0000
0000
1010
0000
0000
1000
0000
,
0001
0000
0000
0101
0000
0000
0001
0000
1000
0000
0000
1100
0000
0000
1000
0000
,
0001
1000
0010
0100
0001
1000
0010
0100
,
0001
1000
0010
0001
1000
0100
0001
1000
,
0100
0000
0000
0000
;

//---------------dance-single - Telperion----------------
#NOTES:
     dance-single:
     Telperion:
     Medium:
     5:
     0.336001,0.382752,0.299507,0.096899,0.000000,222.000000,34.000000,11.000000,0.000000,0.000000,0.000000,0.336001,0.382752,0.299507,0.096899,0.000000,222.000000,34.000000,11.000000,0.000000,0.000000,0.000000:
0000
0000
0000
0000
,
1001
0000
1000
0000
,
0010
0000
0100
0000
,
0001
0000
1000
0000
,
0001
0000
1000
0000
,
0001
0000
0010
0000
,
0100
0100
0100
0100
,
1000
0000
0001
0000
,
1000
0000
0001
0000
,
0100
0000
0001
0100
,
0001
0000
1000
0001
,
1000
0000
0100
1000
,
0100
0000
1000
0100
,
0010
0000
0100
0010
,
0100
0000
0010
0001
,
1000
0001
1000
0001
,
1000
0001
1000
0001
,
0110
0000
0000
0000
,
0000
0000
0000
0000
,
1000
0100
0001
0100
,
1000
0200
0001
1300
,
0001
0100
1000
0100
,
0001
0020
1000
0031
,
1000
0010
0001
0010
,
1000
0020
0001
1030
,
0001
0000
1000
0000
,
0001
1000
0100
0010
,
0011
0000
0000
1000
0000
0000
0100
0000
,
1100
0000
0000
0001
0000
0000
0100
0000
,
0101
0000
0000
1000
0000
0000
0010
0000
,
1010
0000
0000
0001
0000
0000
1000
0000
,
1100
0100
0110
0010
,
0011
0001
1001
1000
,
1010
0010
0100
0001
,
1000
0010
0100
0001
,
2000
0000
0000
0000
,
0000
3000
0000
0000
,
0002
0000
0000
0000
,
0000
0003
0000
0000
,
0020
0000
0000
0000
,
0000
0030
0000
0000
,
0200
0000
0000
0000
,
0000
0300
0000
0000
,
0010
0000
0100
1000
,
0010
0000
0100
0001
,
1000
0000
0001
1000
,
0100
0000
0010
0100
,
1000
0000
0010
0100
,
0001
0000
0100
0010
,
1000
0000
0001
0100
,
1000
0000
0001
0010
,
1000
0000
0000
0000
,
0000
0000
0000
0000
,
1001
0000
0000
0000
,
1000
0001
0010
0010
,
0001
0010
1000
0010
,
0001
0020
1000
0031
,
1000
0010
0001
0010
,
1000
0200
0001
1300
,
0001
0100
1000
0100
,
0001
0200
1000
0301
,
1000
0100
0001
0100
,
1000
0020
0001
1030
,
1001
0010
0000
0010
,
0000
1010
0011
0001
,
1001
0010
0000
0010
,
0000
0011
1010
1000
,
1001
0000
0000
0101
0000
0000
0110
0000
,
1010
0000
0000
1001
0000
0000
1100
0000
,
0110
0000
0010
0000
,
0001
0010
0100
1000
,
1010
0000
0000
0001
0000
0000
0100
0000
,
0101
0000
0000
1000
0000
0000
0100
0000
,
1100
0000
0000
0001
0000
0000
0010
0000
,
0011
0000
0000
1000
0000
0000
0001
0000
,
0101
0100
0110
0010
,
1010
1000
1001
0001
,
0011
0010
0100
1000
,
0001
0010
0100
1000
,
0001
0000
0000
0000
;

//---------------dance-single - Telperion----------------
#NOTES:
     dance-single:
     Telperion:
     Easy:
     3:
     0.208900,0.243569,0.211416,0.000000,0.000000,142.000000,24.000000,0.000000,0.000000,0.000000,0.000000,0.208900,0.243569,0.211416,0.000000,0.000000,142.000000,24.000000,0.000000,0.000000,0.000000,0.000000:
0000
0000
0000
0000
,
1001
0000
0000
0000
,
0010
0000
0000
0000
,
0100
0000
0000
0000
,
0010
0000
0000
0000
,
1000
0000
0000
0000
,
0001
0001
0001
0001
,
0001
0000
0000
0000
,
1000
0000
0000
0000
,
0100
0000
0010
0000
,
0100
0000
0010
0000
,
0100
0000
0010
0000
,
0100
0000
0010
0000
,
0001
0000
0010
0000
,
0001
0000
1000
0000
,
0010
0000
1000
0000
,
0001
0000
1000
0000
,
1001
0000
0000
0000
,
0000
0000
0000
0000
,
1000
1000
0100
0100
,
1000
1000
0001
0000
,
0001
0001
0100
0100
,
0001
0001
1000
0000
,
1000
1000
0010
0010
,
1000
1000
0001
0000
,
1001
0000
0000
0000
,
1000
0100
0010
0001
,
1000
0000
0000
0000
,
1100
0000
0000
0000
,
1001
0000
0000
0000
,
0101
0000
0000
0000
,
0110
0000
1010
0000
,
1001
0000
0011
0000
,
0110
0000
0000
0000
,
0000
0000
0000
0000
,
1001
0000
0000
0000
,
0000
0000
0000
0000
,
0000
0000
0000
0000
,
0000
0000
0000
0000
,
0000
0000
0000
0000
,
0000
0000
0000
0000
,
0000
0000
0000
0000
,
0000
0000
0000
0000
,
1000
0000
0010
0000
,
0100
0000
0010
0000
,
0100
0000
0010
0000
,
0100
0000
0010
0000
,
1000
0000
0010
0000
,
1000
0000
0001
0000
,
0010
0000
0001
0000
,
1000
0000
0001
0000
,
1001
0000
0000
0000
,
0000
0000
0000
0000
,
0001
0000
0001
0000
,
1000
0000
1000
0000
,
0001
0001
0100
0100
,
0001
0001
1000
0000
,
1000
1000
0100
0100
,
1000
1000
0001
0000
,
0001
0001
0010
0010
,
0001
0001
1000
0000
,
1000
1000
0010
0010
,
1000
0001
1000
0000
,
0100
0100
0010
0000
,
0001
1000
0001
0000
,
0100
0100
0010
0000
,
1000
0010
0100
0000
,
0101
0000
0000
0000
,
1100
0000
0000
0000
,
1001
0000
0000
0000
,
0001
0100
0010
1000
,
0001
0000
0000
0000
,
0101
0000
0000
0000
,
1001
0000
0000
0000
,
1100
0000
0000
0000
,
0110
0000
0011
0000
,
1001
0000
1010
0000
,
0110
0000
0000
0000
,
0000
0000
0000
0000
,
0001
0000
0000
0000
;

//---------------dance-single - Telperion----------------
#NOTES:
     dance-single:
     Telperion:
     Beginner:
     1:
     0.081798,0.104387,0.000000,0.000000,0.000000,65.000000,0.000000,0.000000,0.000000,0.000000,0.000000,0.081798,0.104387,0.000000,0.000000,0.000000,65.000000,0.000000,0.000000,0.000000,0.000000,0.000000:
0000
0000
0000
0000
,
0000
0000
0000
0000
,
0000
0000
0000
0000
,
0000
0000
0000
0000
,
0000
0000
0000
0000
,
0000
0000
0000
0000
,
0000
0000
0000
0000
,
0000
0000
0000
0000
,
0000
0000
0000
0000
,
0001
0000
0000
0000
,
0000
0000
0000
0000
,
1000
0000
0000
0000
,
0000
0000
0000
0000
,
0100
0000
0000
0000
,
0100
0000
0000
0000
,
0100
0000
0000
0000
,
0000
0000
0000
0000
,
1000
0000
0000
0000
,
0000
0000
0000
0000
,
0001
0000
0001
0000
,
0001
0000
0000
0000
,
1000
0000
1000
0000
,
1000
0000
0000
0000
,
0001
0000
0001
0000
,
0001
0000
0000
0000
,
1000
0000
1000
0000
,
1000
0000
1000
0000
,
1000
0000
0000
0000
,
0000
0000
0000
0000
,
0100
0000
0000
0000
,
0000
0000
0000
0000
,
0010
0000
0000
0000
,
0001
0000
0000
0000
,
1000
0000
0000
0000
,
0000
0000
0000
0000
,
0010
0000
0000
0000
,
0000
0000
0000
0000
,
0000
0000
0000
0000
,
0000
0000
0000
0000
,
0000
0000
0000
0000
,
0000
0000
0000
0000
,
0000
0000
0000
0000
,
0000
0000
0000
0000
,
0100
0000
0000
0000
,
0000
0000
0000
0000
,
0010
0000
0000
0000
,
0000
0000
0000
0000
,
1000
0000
0000
0000
,
0000
0000
0000
0000
,
0001
0000
0000
0000
,
0001
0000
0000
0000
,
1000
0000
0000
0000
,
0000
0000
0000
0000
,
0001
0000
0000
0000
,
0000
0000
0000
0000
,
1000
0000
1000
0000
,
1000
0000
0000
0000
,
0001
0000
0001
0000
,
0001
0000
0000
0000
,
1000
0000
1000
0000
,
1000
0000
0000
0000
,
0001
0000
0001
0000
,
0001
0000
0000
0000
,
0100
0000
0100
0000
,
0100
0000
0000
0000
,
0010
0000
0010
0000
,
0010
0000
0000
0000
,
1000
0000
1000
0000
,
1000
0000
0000
0000
,
0001
0000
0001
0000
,
0001
0000
0001
0000
,
0001
0000
0000
0000
,
1000
0000
0000
0000
,
0100
0000
0000
0000
,
0010
0000
0000
0000
,
0001
0000
0000
0000
,
0100
0000
0000
0000
,
0010
0000
0000
0000
,
0000
0000
0000
0000
,
1000
0000
0000
0000
;

//---------------dance-double - Telperion----------------
#NOTES:
     dance-double:
     Telperion:
     Challenge:
     11:
     0.685845,0.835095,0.105708,0.140944,0.493305,517.000000,12.000000,16.000000,0.000000,0.000000,0.000000,0.685845,0.835095,0.105708,0.140944,0.493305,517.000000,12.000000,16.000000,0.000000,0.000000,0.000000:
00000000
00000000
00000000
00000000
,
00011000
00010000
00001000
00010000
,
00000010
00010000
00001000
00010000
,
00000100
00010000
00000100
00010000
,
00000100
00001000
00000010
00010000
,
00001000
00000000
00010000
00000000
00001000
00000000
00010000
00000100
,
00010000
00001000
01000000
00000000
00001000
00010000
00000100
00000000
00010000
00001000
01000000
00000000
00001000
00010000
00000000
00001000
,
01000000
00001000
01000000
00001000
,
01000000
00010000
00100000
00001000
,
00010000
00000000
00000100
00010000
00000100
00001000
00000100
00000010
,
00000000
00000001
00000000
00001000
00000000
00000001
00000000
00000010
,
00000100
00000000
00001000
00000000
00000100
00000000
00000010
00000000
00001000
00000000
00000000
00010000
00000000
00000000
00000010
00000000
,
00000000
00010000
00000000
00001000
00000000
00010000
00001000
01000000
,
00100000
00000000
01000000
00010000
01000000
00100000
00000000
01000000
,
00010000
00100000
01000000
10000000
01000000
00010000
00000000
00001000
,
00000000
01000000
00000000
00001000
00000000
00010000
00000000
00001000
,
00000000
01000000
00000000
00001000
00000000
00010000
00000000
00001000
,
00100000
00000000
00000000
00010000
00100000
00010000
00100000
00010000
10000000
00000000
00010000
00000000
01000000
00000000
00100000
00000000
,
01000000
00100000
01000000
00100000
10000000
00000000
00200000
00000000
00010000
00000000
00000000
00000000
10300000
00000000
00000000
00000000
,
10010000
00000000
10000000
01000000
10000000
01000000
10000000
01000000
00010000
00000000
00001000
00000000
00000100
00000000
00000010
00000000
,
00001000
00000010
00001000
00000010
00000100
00000000
00000020
00000000
00000001
00000000
00000000
00000000
00001030
00000000
00000000
00000000
,
00001001
00000000
00000001
00000100
00000001
00000100
00000001
00000100
00001000
00000000
00010000
00000000
00100000
00000000
01000000
00000000
,
00010000
01000000
00010000
01000000
00100000
00000000
02000000
00000000
10000000
00000000
00000000
00000000
03010000
00000000
00000000
00000000
,
10010000
00000000
10000000
00100000
10000000
00100000
10000000
00100000
00010000
00000000
00001000
00000000
00000010
00000000
00000100
00000000
,
00001000
00000100
00001000
00000100
00000010
00000000
00000200
00000000
00000001
00000000
00000000
00000000
00001300
00000000
00000000
00000000
,
00001001
00000000
00000001
00000100
00000001
00000000
00001000
00000000
00000010
00000000
00010000
00001000
00010000
00000000
00000100
00000000
,
00001000
00000100
00010000
00001000
00100000
00000000
00010000
01000000
00100000
00000000
10000000
00100000
01000000
00000000
00010000
00000000
,
10000000
00000000
00000000
00100000
00000000
00000000
00010000
00000000
00000000
00000100
00000000
00000000
00000010
00000000
00000100
00000000
,
00001000
00000000
00000000
00000001
00000000
00000000
00000100
00000000
00000000
00001000
00000000
00000000
00100000
00000000
01000000
00000000
,
10000000
00000000
00000000
01000000
00000000
00000000
00010000
00000000
00000000
00000010
00000000
00000000
00000100
00000000
00000001
00000000
,
00001000
00000000
00000000
00000010
00000000
00000000
00000001
00000000
00000000
00001000
00000000
00000000
00010000
00000000
01000000
00000000
,
00100000
00000000
00000000
00010000
10000000
00000000
01000000
00000000
00010000
00000000
00000000
00001000
00000010
00000000
00000001
00000000
,
00001000
00000000
00000000
00000001
00000100
00000000
00001000
00000000
00010000
00000000
00000000
00100000
10000000
00000000
00010000
00000000
,
01000000
00100000
10000000
01000000
00100000
00001000
01000000
00100000
,
00010000
00001000
00000100
00000001
00010000
00000100
00001000
00000001
,
00000020
00000000
00000000
00000000
,
00000000
00000030
00000000
00000000
,
00000200
00000000
00000000
00000000
,
00000000
00000300
00000000
00000000
,
00020000
00000000
00000000
00000000
,
00000000
00030000
00000000
00000000
,
00002000
00000000
00000000
00000000
,
00000000
00003000
00000000
00000000
,
00010000
00000000
00001000
00000000
00010000
01000000
10000000
00100000
,
00010000
00000000
00100000
00000000
10000000
01000000
00010000
00001000
,
00010000
00000000
00001000
00000000
00000100
00000001
00000010
00000100
,
00001000
00000000
00000100
00000000
00010000
00001000
01000000
00001000
,
00010000
00000000
00001000
00000100
00000001
00000000
00000010
00000000
,
00001000
00000010
00000001
00000100
00001000
00010000
00000000
00000100
,
00000000
00010000
00000000
00001000
00000000
00010000
00000000
00000100
,
00000000
00010000
00000000
00001000
00000000
00010000
00000000
00000010
,
00011000
00000000
00000000
00000000
,
00000000
00000000
00000000
00000000
,
00000010
00000000
00000000
00001000
00000010
00001000
00000010
00001000
00000001
00000000
00001000
00000000
00000100
00000000
00000010
00000000
,
00000100
00000010
00000100
00000010
00000001
00000000
00000020
00000000
00001000
00000000
00000000
00000000
00000031
00000000
00000000
00000000
,
00001001
00000000
00000001
00000100
00000010
00000100
00000001
00000100
00001000
00000000
00010000
00000000
01000000
00000000
00100000
00000000
,
00010000
10000000
00010000
10000000
00100000
00000000
02000000
00000000
10000000
00000000
00000000
00000000
03010000
00000000
00000000
00000000
,
10010000
00000000
10000000
01000000
00100000
01000000
10000000
01000000
00010000
00000000
00001000
00000000
00000010
00000000
00000100
00000000
,
00001000
00000001
00001000
00000001
00000100
00000000
00000020
00000000
00000001
00000000
00000000
00000000
00001030
00000000
00000000
00000000
,
00001001
00000000
00000001
00000010
00000100
00000010
00000001
00000010
00001000
00000000
00010000
00000000
00100000
00000000
01000000
00000000
,
00010000
10000000
00010000
10000000
00100000
00000000
02000000
00000000
10000000
00000000
00000000
00000000
03010000
00000000
00000000
00000000
,
10010000
00000000
10000000
00100000
01000000
00100000
10000000
00100000
00010000
00000000
00001000
00000000
00000010
00000000
00001000
00000000
,
00010000
00000100
00010000
00000100
00001000
00000000
00000200
00000000
00000001
00000000
00000000
00000000
00001300
00000000
00000000
00000000
,
00000100
00000000
00001000
00000001
00000100
00000000
00000010
00000000
00000001
00000000
00000010
00000100
00000001
00000000
00001000
00000000
,
00000100
00000000
00000010
00000100
00001000
00000000
00000100
00000000
02000000
00000000
00000000
00000000
03002000
00000000
00000000
00000000
,
00013000
00000000
00001000
00100000
01000000
00000000
00100000
00000000
00010000
00000000
00100000
01000000
10000000
00000000
00010000
00000000
,
01000000
00010000
01000000
00010000
01000000
00000000
00200000
00000000
00010000
00000000
00000000
00000000
01300000
00000000
00000000
00000000
,
01001000
00000000
00000000
10000000
00000000
00000000
00010000
00000000
00000000
00100000
00000000
00000000
01000000
00000000
00100000
00000000
,
00011000
00000000
00000000
00010000
00000000
00000000
00000010
00000000
00000000
00000100
00000000
00000000
00000010
00000000
00001000
00000000
,
00000001
00000100
00000010
00001000
,
00000100
00010000
00001000
00010000
00000100
00000000
00001000
00000100
00000010
00000000
00000001
00000010
00000100
00000000
00001000
00000000
,
00000001
00000000
00000000
00000010
00000000
00000000
00001000
00000000
00000000
01000000
00000000
00000000
00100000
00000000
01000000
00000000
,
00010000
00000000
00000000
10000000
00000000
00000000
01000000
00000000
00000000
00010000
00000000
00000000
00000010
00000000
00000100
00000000
,
00000001
00000000
00000000
00000100
00000000
00000000
00001000
00000000
00000000
00100000
00000000
00000000
01000000
00000000
10000000
00000000
,
00010000
00000000
00000000
00100000
00000000
00000000
10000000
00000000
00000000
00010000
00000000
00000000
00001000
00000000
00000100
00000000
,
00000010
00000000
00000000
00001000
00000001
00000000
00000100
00000000
00001000
00000000
00000000
00010000
00100000
00000000
10000000
00000000
,
00010000
00000000
00000000
10000000
01000000
00000000
00010000
00000000
00001000
00000000
00000000
00000010
00000001
00000000
00001000
00000000
,
00000001
00001000
00000001
00001000
00000100
00010000
00000100
00010000
00001000
00100000
00001000
00100000
00010000
00100000
00010000
00100000
,
01000000
00100000
01000000
00100000
01000000
10000000
01000000
10000000
00010000
10000000
00010000
10000000
00010000
01000000
00010000
01000000
,
00100000
00000000
00000000
00000000
;

//---------------dance-double - Telperion----------------
#NOTES:
     dance-double:
     Telperion:
     Hard:
     8:
     0.480721,0.487139,0.026427,0.035236,0.123326,375.000000,3.000000,4.000000,0.000000,0.000000,0.000000,0.480721,0.487139,0.026427,0.035236,0.123326,375.000000,3.000000,4.000000,0.000000,0.000000,0.000000:
00000000
00000000
00000000
00000000
,
00011000
00001000
00010000
00001000
,
00100000
00001000
00100000
00001000
,
00100000
00010000
00100000
00010000
,
01000000
00001000
01000000
00001000
,
00010000
00001000
00010000
00001000
,
00000100
00000100
00000100
00000100
,
00001000
00010000
00001000
00010000
,
00000100
00010000
00000100
00010000
,
00000100
00010000
00001000
00010000
,
00000010
00010000
00000010
00010000
,
00000010
00001000
00000010
00001000
,
00000100
00010000
00000100
00010000
,
00001000
00010000
00001000
01000000
,
00010000
00100000
00001000
00010000
,
00000100
00001000
00000010
00000100
,
00000001
00000010
00000100
00001000
,
00000001
00000000
00000000
00000000
,
00000000
00000000
00000000
00000000
,
00001000
00000100
00000001
00000100
00001000
00000100
00000001
00000100
,
00000010
00001000
00010000
01000000
10000000
00000000
10000000
00000000
,
00010000
01000000
10000000
01000000
00010000
01000000
10000000
01000000
,
00100000
00010000
00001000
00000100
00000001
00000000
00000001
00000000
,
00000010
00000100
00000001
00000100
00001000
00000100
00000001
00000100
,
00000010
00001000
00010000
01000000
10000000
00000000
10000000
00000000
,
00100000
01000000
00010000
00000000
10000000
00100000
01000000
00000000
,
00010000
01000000
00001000
00010000
00000100
00001000
00000100
00000010
,
00000001
00000000
00000000
00000010
00000000
00000000
00001000
00000000
00000000
00010000
00000000
00000000
01000000
00000000
10000000
00000000
,
00010000
00000000
00000000
10000000
00000000
00000000
00100000
00000000
00000000
00010000
00000000
00000000
00001000
00000000
00000100
00000000
,
00000001
00000000
00000000
00000100
00000000
00000000
00001000
00000000
00000000
00010000
00000000
00000000
00100000
00000000
10000000
00000000
,
00010000
00000000
00000000
10000000
00000000
00000000
01000000
00000000
00000000
00010000
00000000
00000000
00001000
00000000
00000010
00000000
,
00000001
00000000
00000000
00000010
00000000
00000000
00000100
00000000
00001000
00000000
00000000
00000001
00000000
00000000
00001000
00000000
,
00000100
00000000
00000000
00010000
00000000
00000000
00001000
00000000
01000000
00000000
00000000
00001000
00000000
00000000
00100000
00000000
,
01000000
00010000
01000000
00100000
01000000
10000000
00010000
10000000
,
00100000
01000000
00100000
00010000
00100000
01000000
00010000
10000000
,
02000000
00000000
00000000
00000000
,
00000000
03000000
00000000
00000000
,
00200000
00000000
00000000
00000000
,
00000000
00300000
00000000
00000000
,
00002000
00000000
00000000
00000000
,
00000000
00003000
00000000
00000000
,
00020000
00000000
00000000
00000000
,
00000000
00030000
00000000
00000000
,
00011000
00000000
00000100
00000000
00010000
00001000
01000000
00010000
,
00100000
00000000
00010000
00000000
01000000
00001000
00010000
00000100
,
00001000
00000000
00000010
00000000
00001000
00000100
00010000
00001000
,
00100000
00000000
00001000
00000000
00010000
00010000
00001000
00010000
,
00001000
00000000
01000000
00000000
00001000
00010000
00000100
00001000
,
00000010
00000000
00001000
00000000
00000100
00010000
00001000
00100000
,
00010000
01000000
00001000
00100000
,
01000000
10000000
00010000
01000000
,
10000000
00000000
00000000
00000000
,
00000000
00000000
00000000
00000000
,
01100000
00000000
00000000
00000000
,
00000000
00000000
00000000
00000000
,
00010000
01000000
10000000
01000000
00010000
01000000
10000000
01000000
,
00100000
00010000
00001000
00000100
00000001
00000000
00000001
00000000
,
00001000
00000100
00000001
00000100
00001000
00000100
00000001
00000100
,
00000010
00001000
00010000
01000000
10000000
00000000
10000000
00000000
,
00100000
01000000
10000000
01000000
00010000
01000000
10000000
01000000
,
00100000
00010000
00001000
00000100
00000001
00000000
00000001
00000000
,
00000010
00000100
00000001
00000100
00001000
00000100
00000010
00001000
,
00010000
01000000
00100000
00010000
10000000
00000000
00010000
00000000
,
10000000
00100000
00010000
00000000
00001000
00000100
00000001
00000000
,
00000010
00000000
00000010
00000100
00001000
00000000
00001000
00000000
,
00000001
00000100
00001000
00000000
00010000
00100000
10000000
00000000
,
01000000
00100000
01000000
10000000
00010000
00000000
00010000
00000000
,
10000000
00000000
00000000
00100000
00000000
00000000
00010000
00000000
00000000
00001000
00000000
00000000
01000000
00000000
00001000
00000000
,
00010000
00000000
00000000
00000100
00000000
00000000
00000010
00000000
00000000
00001000
00000000
00000000
00000010
00000000
00000001
00000000
,
00001000
00000100
00001000
00000100
,
00010000
00001000
01000000
00100000
,
10000000
00000000
00000000
00100000
00000000
00000000
00010000
00000000
00000000
00001000
00000000
00000000
00000100
00000000
00000001
00000000
,
00001000
00000000
00000000
00000001
00000000
00000000
00000010
00000000
00000000
00001000
00000000
00000000
00010000
00000000
01000000
00000000
,
10000000
00000000
00000000
01000000
00000000
00000000
00010000
00000000
00000000
00001000
00000000
00000000
00000010
00000000
00000001
00000000
,
00001000
00000000
00000000
00000001
00000000
00000000
00000100
00000000
00000000
00001000
00000000
00000000
00010000
00000000
00100000
00000000
,
10000000
00000000
00000000
00100000
00000000
00000000
01000000
00000000
00010000
00000000
00000000
10000000
00000000
00000000
00010000
00000000
,
01000000
00000000
00000000
00001000
00000000
00000000
00010000
00000000
00000100
00000000
00000000
00010000
00000000
00000000
00000010
00000000
,
00000100
00001000
00000100
00000010
00001000
00000010
00010000
00000100
,
00000010
00001000
00000010
00000100
00001000
00000100
00010000
00001000
,
01000000
00000000
00000000
00000000
;

//---------------dance-double - Telperion----------------
#NOTES:
     dance-double:
     Telperion:
     Medium:
     4:
     0.348586,0.313161,0.220226,0.035236,0.000000,248.000000,25.000000,4.000000,0.000000,0.000000,0.000000,0.348586,0.313161,0.220226,0.035236,0.000000,248.000000,25.000000,4.000000,0.000000,0.000000,0.000000:
00000000
00000000
00000000
00000000
,
00011000
00001000
00010000
00001000
,
00010000
00001000
00010000
00001000
,
00010000
00001000
00010000
00001000
,
00010000
00001000
00010000
00001000
,
01000000
00001000
01000000
00001000
,
00010000
00010000
00010000
00010000
,
00001000
01000000
00001000
01000000
,
00001000
00010000
00001000
00010000
,
00001000
00010000
00001000
00010000
,
00001000
00010000
00001000
00010000
,
00001000
00010000
00001000
00010000
,
00001000
00010000
00001000
00010000
,
00000100
00010000
00000100
00010000
,
00000100
00010000
00000100
00010000
,
00001000
00010000
00001000
00010000
,
00001000
00010000
00001000
00010000
,
00011000
00000000
00000000
00000000
,
00000000
00000000
00000000
00000000
,
00011000
00001000
00000100
00000001
,
00000010
00000001
00000100
00001000
,
00011000
00010000
01000000
10000000
,
00100000
10000000
01000000
00100000
,
00110000
00010000
10000000
01000000
,
00010000
00001000
00000100
00000010
,
00000110
00000000
00000000
00000000
,
00000001
00000100
00001000
00010000
,
00011000
00000000
00000000
00100000
00000000
00000000
00001000
00000000
,
00101000
00000000
00000000
00100000
00000000
00000000
00010000
00000000
,
00110000
00000000
00000000
00010000
00000000
00000000
10000000
00000000
,
10010000
00000000
00000000
10000000
00000000
00000000
00100000
00000000
,
01100000
10000000
00010000
01000000
,
00001000
00010000
00000010
00001000
,
00000001
00000010
00000100
00001000
,
00000010
00010000
00000100
00010000
,
00002000
00000000
00000000
00000000
,
00000000
00003000
00000000
00000000
,
00020000
00000000
00000000
00000000
,
00000000
00030000
00000000
00000000
,
00002000
00000000
00000000
00000000
,
00000000
00003000
00000000
00000000
,
00020000
00000000
00000000
00000000
,
00000000
00030000
00000000
00000000
,
00001000
00010000
00000010
00010000
,
00001000
00010000
00000010
00010000
,
00001000
00100000
00001000
00010000
,
00001000
00100000
00001000
00010000
,
00000100
00010000
00001000
01000000
,
00000100
00010000
00001000
01000000
,
00010000
01000000
00001000
00010000
,
00000010
00001000
00000001
00000010
,
00000100
00000000
00000000
00000000
,
00000000
00000000
00000000
00000000
,
00001100
00000000
00000000
00000000
,
00000000
00000000
00000000
00000000
,
00011000
00010000
00100000
10000000
,
01000000
10000000
00100000
00010000
,
00011000
00001000
00000010
00000001
,
00000100
00000001
00000010
00000100
,
00001100
00001000
00000001
00000010
,
00001000
00010000
01000000
10000000
,
10100000
00100000
00010000
00001000
,
00000100
00000001
00001000
00000010
,
00001010
00010000
00000000
00001000
,
00100000
01000000
10000000
00010000
,
00110000
00001000
00000000
00010000
,
00000100
00001000
00000010
00010000
,
00011000
00000000
00000000
00100000
00000000
00000000
00001000
00000000
,
00011000
00000000
00000000
00000010
00000000
00000000
00010000
00000000
,
00001000
01000000
00000000
01000000
,
00010000
01000000
00001000
00010000
,
00011000
00000000
00000000
00000100
00000000
00000000
00010000
00000000
,
00010100
00000000
00000000
00000100
00000000
00000000
00001000
00000000
,
00001100
00000000
00000000
00000100
00000000
00000000
00000010
00000000
,
00000110
00000000
00000000
00000010
00000000
00000000
00000001
00000000
,
00001001
00001000
00000010
00000100
,
00000001
00000010
00000100
00001000
,
00000010
00010000
00000100
00010000
,
00001000
01000000
00010000
01000000
,
00100000
00000000
00000000
00000000
;

//---------------dance-double - Telperion----------------
#NOTES:
     dance-double:
     Telperion:
     Easy:
     2:
     0.113259,0.139183,0.026427,0.000000,0.000000,87.000000,3.000000,0.000000,0.000000,0.000000,0.000000,0.113259,0.139183,0.026427,0.000000,0.000000,87.000000,3.000000,0.000000,0.000000,0.000000,0.000000:
// measure 0
00000000
00000000
00000000
00000000
,  // measure 1
00011000
00000000
00000000
00000000
,  // measure 2
00000000
00000000
00000000
00000000
,  // measure 3
00000000
00000000
00000000
00000000
,  // measure 4
00000000
00000000
00000000
00000000
,  // measure 5
00000000
00000000
00000000
00000000
,  // measure 6
00000000
00000000
00000000
00000000
,  // measure 7
00000000
00000000
00000000
00000000
,  // measure 8
00000000
00000000
00000000
00000000
,  // measure 9
00001000
00000000
00001000
00000000
,  // measure 10
00010000
00000000
00010000
00000000
,  // measure 11
00001000
00000000
00001000
00000000
,  // measure 12
00010000
00000000
00010000
00000000
,  // measure 13
00001000
00000000
00001000
00000000
,  // measure 14
00010000
00000000
00010000
00000000
,  // measure 15
00001000
00000000
00001000
00000000
,  // measure 16
00010000
00000000
00010000
00000000
,  // measure 17
00000100
00000000
00000000
00000000
,  // measure 18
00000000
00000000
00000000
00000000
,  // measure 19
00001000
00000000
00000001
00000000
,  // measure 20
00001000
00000000
00000000
00000000
,  // measure 21
00000010
00000000
00001000
00000000
,  // measure 22
00000010
00000000
00000000
00000000
,  // measure 23
00010000
00000000
00001000
00000000
,  // measure 24
00010000
00000000
00000000
00000000
,  // measure 25
00001000
00000000
00100000
00000000
,  // measure 26
00001000
00000000
00100000
00000000
,  // measure 27
00010000
00000000
00000000
00000000
,  // measure 28
10000000
00000000
00000000
00000000
,  // measure 29
01000000
00000000
00000000
00000000
,  // measure 30
00010000
00000000
00000000
00000000
,  // measure 31
00001000
00000000
00000000
00000000
,  // measure 32
00000100
00000000
00000000
00000000
,  // measure 33
00000001
00000000
00000000
00000000
,  // measure 34
00000000
00000000
00000000
00000000
,  // measure 35
00001001
00000000
00000000
00000000
,  // measure 36
00000000
00000000
00000000
00000000
,  // measure 37
00000000
00000000
00000000
00000000
,  // measure 38
00000000
00000000
00000000
00000000
,  // measure 39
00000000
00000000
00000000
00000000
,  // measure 40
00000000
00000000
00000000
00000000
,  // measure 41
00000000
00000000
00000000
00000000
,  // measure 42
00000000
00000000
00000000
00000000
,  // measure 43
00010000
00000000
00010000
00000000
,  // measure 44
00001000
00000000
00001000
00000000
,  // measure 45
00010000
00000000
00010000
00000000
,  // measure 46
00001000
00000000
00001000
00000000
,  // measure 47
00010000
00000000
00010000
00000000
,  // measure 48
00001000
00000000
00001000
00000000
,  // measure 49
00010000
00000000
00010000
00000000
,  // measure 50
00001000
00000000
00001000
00000000
,  // measure 51
01000000
00000000
00000000
00000000
,  // measure 52
00000000
00000000
00000000
00000000
,  // measure 53
00000000
00000000
00000000
00000000
,  // measure 54
00000000
00000000
00000000
00000000
,  // measure 55
00010000
00000000
10000000
00000000
,  // measure 56
00010000
00000000
00000000
00000000
,  // measure 57
00100000
00000000
00010000
00000000
,  // measure 58
01000000
00000000
00000000
00000000
,  // measure 59
00001000
00000000
00010000
00000000
,  // measure 60
00001000
00000000
00000000
00000000
,  // measure 61
00010000
00000000
00000100
00000000
,  // measure 62
00010000
00000000
00000000
00000000
,  // measure 63
00000010
00000000
00001000
00000000
,  // measure 64
00000100
00000000
00000000
00000000
,  // measure 65
00000010
00000000
00000001
00000000
,  // measure 66
00000100
00000000
00000000
00000000
,  // measure 67
00000010
00000000
00000000
00000000
,  // measure 68
00001000
00000000
00000000
00000000
,  // measure 69
00000100
00000000
00000000
00000000
,  // measure 70
00010000
00000000
00000010
00000000
,  // measure 71
00001000
00000000
00000000
00000000
,  // measure 72
00000001
00000000
00000000
00000000
,  // measure 73
00000100
00000000
00000000
00000000
,  // measure 74
00001000
00000000
00000000
00000000
,  // measure 75
00010000
00000000
00000000
00000000
,  // measure 76
01000000
00000000
00000000
00000000
,  // measure 77
10000000
00000000
00000000
00000000
,  // measure 78
00000000
00000000
00000000
00000000
,  // measure 79
10010000
00000000
00000000
00000000
;
