#TITLE:Old Town/Sunshine;
#SUBTITLE:;
#ARTIST:nakinyko;
#TITLETRANSLIT:;
#SUBTITLETRANSLIT:;
#ARTISTTRANSLIT:;
#GENRE:;
#CREDIT:;
#BANNER:[16ths Week] - Old Town_Sunshine-bn.png;
#BACKGROUND:[16ths Week] - Old Town_Sunshine-bg.png;
#LYRICSPATH:;
#CDTITLE:cdtitle.png;
#MUSIC:[16ths Week] - Old Town_Sunshine.ogg;
#OFFSET:-0.072;
#SAMPLESTART:45.332;
#SAMPLELENGTH:14.000;
#SELECTABLE:YES;
#DISPLAYBPM:61.000:122.000;
#BPMS:0.000=122.000
,80.000=121.900
,92.000=122.000
,156.000=61.150
,160.000=122.100
,184.000=122.300
,216.000=122.000
,244.000=122.500
,248.000=122.000
,280.000=61.100
;
#STOPS:
;
#BGCHANGES:;
#KEYSOUNDS:;
#ATTACKS:;

//---------------dance-single - ----------------
#NOTES:
     dance-single:
     :
     Hard:
     8:
     0.486,0.549,0.141,0.121,0.272,467.000,21.000,18.000,0.000,0.000,0.000,0.486,0.549,0.141,0.121,0.272,467.000,21.000,18.000,0.000,0.000,0.000: // measure 0
0000
0000
0000
0000
,  // measure 1
0000
0000
0000
0000
,  // measure 2
0000
0000
0000
0000
,  // measure 3
0000
0000
0000
0000
,  // measure 4
0001
0000
1000
1010
0000
0010
0100
0001
,  // measure 5
1000
0000
0000
1000
0100
0000
0000
0100
0010
0000
0001
0000
1000
0000
0001
0000
,  // measure 6
0200
0000
0000
0000
0000
0000
0310
1000
0002
0000
0000
0000
0023
0000
0000
0000
,  // measure 7
0130
0000
1000
1001
0000
0001
1000
0010
,  // measure 8
0100
0000
0000
0100
0001
0000
0000
0001
1000
0000
0000
0000
0001
0000
0010
0000
,  // measure 9
0100
0000
0000
0100
1000
0000
0000
1000
0001
0000
0100
0000
1000
0000
0100
0000
,  // measure 10
0002
0000
0003
0010
0100
0000
1000
0000
0010
0000
0001
0000
0010
0000
1000
0000
,  // measure 11
0001
0000
0000
0000
0010
0000
0100
0000
1000
0000
0001
0000
1000
0010
1000
0010
,  // measure 12
0100
0000
0000
0100
0001
0000
0000
0001
1000
0000
0000
0000
0001
0010
0001
0010
,  // measure 13
0100
0000
0000
0100
1000
0000
0000
1000
0001
0000
0100
0000
0010
0000
0100
0000
,  // measure 14
0002
0000
0000
0000
0013
0000
0100
1000
0001
0000
1000
0000
0010
0000
0100
0000
,  // measure 15
0010
0000
0000
0000
1000
0000
1100
0000
0000
0000
1000
0000
0001
0100
0001
0100
,  // measure 16
0010
0000
0000
0010
1000
0000
0000
1000
0100
0000
0000
0000
0010
0001
0010
0001
,  // measure 17
1000
0000
0000
1000
0001
0000
0000
0001
0100
0000
0010
0000
1000
0000
0001
0000
,  // measure 18
2000
0000
3000
0100
0010
0000
0001
0000
0100
0000
1000
0000
0100
0000
0001
0000
,  // measure 19
0010
0000
0000
0000
0001
0000
1000
0010
1000
0000
0001
0000
0100
0000
0010
0000
,  // measure 20
0100
0100
0100
0100
,  // measure 21
0010
0010
0010
0010
,  // measure 22
1000
1000
0001
0001
,  // measure 23
1000
0100
1000
0100
0010
0000
0011
0000
,  // measure 24
1001
0000
0000
1000
0010
0000
0000
0010
0100
0000
0001
0000
1000
0000
0001
0000
,  // measure 25
0010
0100
1000
0000
0101
0000
1100
0000
,  // measure 26
1000
0000
0010
0100
0010
0000
1000
0100
,  // measure 27
0010
0000
0000
0010
0001
0000
0000
0001
0100
0000
0000
0000
0010
0000
0100
0000
,  // measure 28
0001
0000
0000
0001
0010
0000
0000
0010
0100
0000
1000
0000
0001
0000
1000
0000
,  // measure 29
0010
0100
0001
0000
1000
0100
0010
0000
,  // measure 30
0001
0100
0010
1000
0100
0010
0100
0010
,  // measure 31
0001
0000
0000
0001
0100
0000
0000
0100
0010
0000
0000
0000
1000
0001
1000
0001
,  // measure 32
0010
0000
0000
0010
0100
0000
0000
0100
1000
0000
0010
0000
0001
0000
0010
0000
,  // measure 33
1000
0100
0010
0000
0011
0000
1010
0000
,  // measure 34
0010
0000
0100
0001
1001
0000
0110
0000
,  // measure 35
0010
0000
0000
0010
1000
0000
0000
1000
0001
0000
0000
0000
0010
0001
0010
0001
,  // measure 36
0100
0000
0000
0100
0010
0000
0000
0010
1000
0000
0100
0000
0010
0000
0001
0000
,  // measure 37
0100
0010
1000
0000
0001
0010
0100
0000
,  // measure 38
0010
0001
0100
0010
1000
0100
1000
0100
,  // measure 39
0010
0000
0000
0010
0001
0000
0000
0001
1000
0000
0000
0000
0010
0000
0100
0000
0001
0000
0000
0001
0010
0000
0000
0010
0100
0000
1000
0000
0001
0000
0100
0000
,  // measure 40
0010
0000
1000
0100
1100
0000
0011
0000
,  // measure 41
0101
0000
0010
1000
1100
0000
0011
0000
,  // measure 42
0001
0000
0000
0001
0100
0000
0000
0100
0001
0000
0000
0000
0010
0000
0100
0000
,  // measure 43
1000
0000
0000
1000
0010
0000
0000
0010
0100
0000
0001
0000
0010
0000
1000
0000
,  // measure 44
0010
0001
0100
0000
0010
1000
0100
0000
,  // measure 45
0010
0100
1000
0010
0100
0001
1000
0001
,  // measure 46
2000
3200
0320
0032
,  // measure 47
2003
0000
0000
3010
0200
0000
0310
1000
,  // measure 48
0001
0001
0001
0001
,  // measure 49
0010
0010
0010
0010
,  // measure 50
0200
2300
3020
0230
,  // measure 51
0302
0000
0000
0000
0000
0000
1003
0100
2000
0000
0000
0000
3010
0000
0100
0000
,  // measure 52
0001
0001
0001
0001
,  // measure 53
1000
1000
1000
1000
,  // measure 54
0001
0100
0010
0100
0001
0000
1001
0000
,  // measure 55
1100
0000
0000
0100
1000
0000
0000
1000
0010
0000
0100
0000
0001
0000
1000
0000
,  // measure 56
0001
0000
1000
0100
0010
0001
0100
0010
,  // measure 57
0100
0000
0010
0000
1000
0000
0001
0010
,  // measure 58
0001
0100
0001
0100
0010
0000
1010
0000
,  // measure 59
1100
0000
0000
0000
1000
0000
0010
0100
0010
0000
0000
0000
0100
0000
0001
0000
,  // measure 60
0010
0100
1000
0000
0010
0100
0001
0000
,  // measure 61
1000
0100
0010
0001
0100
0010
0100
0010
,  // measure 62
1000
0000
0000
1000
0100
0000
0000
0100
0010
0000
0000
0000
0001
0100
0001
0100
,  // measure 63
0010
0000
0000
0010
1000
0000
0000
1000
0001
0000
0010
0000
1000
0000
0010
0000
,  // measure 64
0001
0000
1000
0010
0100
0001
1000
0100
,  // measure 65
1000
0000
0000
0000
0001
0000
0000
0000
1001
0000
0000
0000
1000
0010
1000
0010
,  // measure 66
0100
0000
0000
0100
0001
0000
0000
0001
1000
0000
0000
0000
0001
0010
0001
0010
,  // measure 67
0100
0000
0000
0100
1000
0000
0000
1000
0001
0000
0100
0000
0001
0000
0010
0000
,  // measure 68
0100
1000
0010
0000
0100
0001
0010
0000
,  // measure 69
0001
0100
0010
1000
0001
0010
0100
0010
,  // measure 70
0001
0000
0000
0001
0100
0000
0000
0100
0010
0000
0000
0000
1000
0000
0001
0000
1000
0000
0000
1000
0100
0000
0000
0100
0010
0000
0001
0000
0100
0000
0010
0000
,  // measure 71
1000
0000
0000
0000
;

//---------------dance-single - ----------------
#NOTES:
     dance-single:
     :
     Medium:
     6:
     0.376,0.382,0.087,0.229,0.017,344.000,13.000,34.000,0.000,0.000,0.000,0.376,0.382,0.087,0.229,0.017,344.000,13.000,34.000,0.000,0.000,0.000:
0000
0000
0000
0000
,
0000
0000
0000
0000
,
0000
0000
0000
0000
,
0000
0000
0000
0000
,
0001
0000
0100
0000
0001
0000
1000
0001
,
1000
0000
0100
0000
1000
0000
0010
0100
,
0002
0000
0003
0010
0200
0000
2300
0000
,
3002
0000
0000
0000
0003
0000
1000
0010
,
1000
0000
0100
0000
1000
0000
0001
1000
,
0001
0000
0100
0000
0001
0100
0001
1000
,
0002
0000
0013
0100
2000
0000
3020
0000
,
0230
0000
0300
0010
,
1000
0000
0001
0000
1000
0000
0001
0100
,
0001
0000
1000
0000
0001
1000
0100
1000
,
0200
0000
0300
0010
0002
0000
0203
0000
,
0310
0000
1000
0001
1000
0000
0100
0000
,
0010
0000
0001
0000
0010
0000
0001
0100
,
0001
0000
1000
0000
0001
0010
0100
1000
,
0002
0000
0103
0010
2000
0000
3002
0000
,
0013
0000
0100
0000
1000
0001
1000
0000
,
0010
0010
0010
0010
,
0100
0100
0100
0100
,
0001
0001
0001
0001
,
1000
0100
1000
0000
0001
0000
0010
0000
,
0220
0000
0330
0100
0010
0000
0100
0000
,
1000
0010
0100
0001
,
1000
0000
0001
0010
0001
0000
0100
0000
,
0010
1000
0010
0000
0100
0000
0001
0000
,
2002
0000
3003
1000
0001
0000
1000
0010
,
1000
0100
1000
0000
0100
0010
0100
0000
,
0010
0001
0010
0001
0100
0000
0100
0000
,
0001
1000
0001
0000
1000
0000
0100
0000
,
0220
0000
0330
0010
0100
0000
0010
0001
,
0010
0001
0100
0010
,
1000
0001
1001
1001
,
1000
0100
1000
0000
0010
0000
0100
0000
,
0202
0000
0303
0001
0100
0000
0001
0010
,
0001
0100
0001
0000
0100
0010
0100
0000
,
0010
1000
0010
1000
0001
0000
1000
0000
,
0001
0000
0010
0000
0100
0000
0010
0001
1000
0000
0010
0000
0100
0000
0001
1000
,
0001
0000
1000
0100
0010
0000
0011
0000
,
1001
0000
1000
0100
0010
0000
0011
0000
,
0001
0000
0100
0010
1000
0000
0001
0000
,
1000
0000
0100
0010
0001
0000
0100
0000
,
0010
1000
0001
0000
0010
0001
1000
0000
,
0010
0000
0100
0000
0001
0010
0100
1000
,
0002
0203
0320
2030
,
3002
0000
2003
3001
,
0010
0010
0010
0010
,
0100
0100
0100
0100
,
2000
3020
0230
0302
,
2003
0000
0000
3001
0020
0000
0130
1000
,
0001
0001
0001
0001
,
0100
0100
0100
0100
,
0010
1000
0010
0100
0001
0000
1000
0000
,
1100
0000
0100
1000
0001
0000
1000
0001
,
0100
0000
0010
0000
1000
0001
1000
0000
,
0001
0010
0100
0010
,
0001
0100
0001
0010
0100
0000
1000
0000
,
1001
0000
0001
0100
0010
0000
1000
0100
,
0010
0001
0010
0000
0001
0100
0001
0000
,
1000
0010
1000
0010
0100
0000
0100
0000
,
0010
1000
0001
0000
1000
0000
0100
0000
,
0110
0000
0010
0001
1000
0000
0001
0100
,
0010
0100
0001
1000
,
0001
0000
0010
0100
1000
0000
0001
0000
,
1000
0010
0100
0000
0001
0000
1000
0000
,
1100
0000
0100
0010
0001
0000
1000
0010
,
0100
0001
0100
0000
0001
0010
0001
0000
,
1000
0100
1000
0100
0010
0001
1000
0010
,
0100
0000
0001
0000
1000
0000
0001
0010
0100
0000
1000
0000
0010
0100
0001
1000
,
0100
0000
0000
0000
;

//---------------dance-single - ----------------
#NOTES:
     dance-single:
     :
     Easy:
     3:
     0.271,0.286,0.081,0.229,0.000,236.000,12.000,34.000,0.000,0.000,0.000,0.271,0.286,0.081,0.229,0.000,236.000,12.000,34.000,0.000,0.000,0.000:
0000
0000
0000
0000
,
0000
0000
0000
0000
,
0000
0000
0000
0000
,
0000
0000
0000
0000
,
0001
0100
0001
0000
,
1000
0100
1000
0100
,
0020
0000
0032
0203
,
0320
0000
0030
1000
,
0001
0100
0001
0000
,
1000
0010
1000
0010
,
0200
0302
2003
3002
,
0023
0000
0030
0100
,
1000
0010
1000
0000
,
0001
0100
0001
0100
,
0020
0000
2030
3002
,
0023
0000
0030
0001
,
1000
0100
1000
0000
,
0001
0010
0001
0010
,
0200
2300
3020
0230
,
0302
0000
1003
0100
,
1000
1000
1000
1000
,
0010
0010
0010
0010
,
0100
0100
0100
0100
,
0001
0010
0001
0010
,
0100
0000
1100
1000
,
0001
0100
0001
0100
,
0010
0000
1010
0000
,
1000
0100
1000
0100
,
0010
0000
0011
0001
,
1000
0010
1000
0001
,
1000
0100
1000
0100
,
0010
0001
0010
0001
,
0100
0000
0101
0001
,
0100
0010
0100
0010
,
1000
0001
1001
0000
,
1000
0001
1000
0001
,
0100
0000
1010
0010
,
1000
0100
1000
0001
,
1000
0010
1000
0010
,
0200
0302
2003
3200
,
1300
0010
0100
0110
,
0010
0100
0001
0101
,
0001
0010
0001
0000
,
1000
0100
1000
0100
,
0010
0001
1000
0001
,
0100
0010
1000
0001
,
2000
0000
3200
0000
,
0320
0000
0032
1003
,
0001
0001
0001
0001
,
0100
0100
0100
0100
,
0002
0000
0023
0000
,
0230
0000
2300
3001
,
1000
1000
1000
1000
,
0010
0010
0010
0010
,
1000
0100
0010
0001
,
1000
0000
1001
0001
,
1000
0010
1000
0010
,
0100
0000
0100
0010
,
1000
0010
0100
0001
,
1000
0000
1001
0001
,
1000
0100
0010
0100
,
1000
0010
0100
0001
,
1000
0100
0010
0100
,
1000
0000
1001
0001
,
0100
0010
1000
0001
,
1000
0000
0010
1000
,
0001
0010
0100
0010
,
0001
0000
1001
1000
,
0001
0100
0010
0100
,
0001
0010
0100
1000
,
0002
0203
0320
2030
,
3001
0000
0000
0000
;
