#TITLE:Mad Lovers;
#SUBTITLE:;
#ARTIST:8#Prince feat. 柿チョコ;
#TITLETRANSLIT:;
#SUBTITLETRANSLIT:;
#ARTISTTRANSLIT:8#Prince feat. Kakichoko;
#GENRE:ElectroPlanet;
#CREDIT:Frozen_Heat/Azn_Punk_07/GuardianFrozen;
#MENUCOLOR:#fd5753;
#METERTYPE:DDR;
#BANNER:[16ths Week] - Mad Lovers.png;
#BACKGROUND:[16ths Week] - Mad Lovers-bg.png;
#LYRICSPATH:;
#CDTITLE:!cdtitle.png;
#MUSIC:[16ths Week] - Mad Lovers.mp3;
#OFFSET:-0.047;
#SAMPLESTART:15.000;
#SAMPLELENGTH:15.000;
#SELECTABLE:YES;
#LISTSORT:;
#BPMS:0.000=128.000;
#STOPS:;
#BGCHANGES:;
#ATTACKS:;

//---------------dance-single - ----------------
#NOTES:
     dance-single:
     :
     Hard:
     8:
     0.536,0.580,0.195,0.073,0.374:
0000
0000
0000
0000
,
0000
0000
0000
0000
,
0000
0000
0000
0000
,
0000
0000
0000
0000
,
0002
0000
0013
0000
0001
0010
0100
0000
,
1000
0010
1000
0000
0100
0010
0001
0000
,
2000
0000
3010
0000
0010
0100
0001
0000
,
2002
0000
0000
0000
3003
0000
0100
0100
,
0000
0010
1000
0010
0000
0100
0001
0100
,
0000
0001
0010
0001
0000
1000
0100
1000
,
0000
0001
0100
0010
0000
1000
0010
1000
,
0000
0001
0010
0100
0000
1000
0001
1000
,
0000
0001
0010
0001
0000
0100
0001
0100
,
0000
0010
1000
0010
0000
1000
0100
1000
,
0000
0010
0100
0001
0000
0010
0001
1000
,
1001
0000
0000
0110
0000
0000
1001
0000
0000
0110
0000
0000
0001
1000
0001
0000
,
1000
0000
0000
0010
0000
0000
1000
0000
0000
0100
1000
0000
0100
0000
0010
0001
,
0010
0000
0000
0001
0000
0000
0100
0000
0000
0010
1000
0000
0010
0000
0100
0001
,
0100
0000
0000
0010
0000
0000
1000
0000
0000
0001
0010
0000
0001
0000
1000
0010
,
1000
0000
0000
0100
0000
0000
0010
0000
0000
0000
1001
0000
0110
0000
0000
0000
,
0001
0000
0000
0100
0000
0000
0001
0000
0000
0010
0001
0000
0010
0000
0100
1000
,
0100
0000
0000
1000
0000
0000
0010
0000
0000
0100
0001
0000
0100
0000
0010
1000
,
0010
0000
0000
0010
0100
0000
0000
0100
0001
0000
0010
0000
0100
0000
1000
0000
,
0020
0000
0000
0200
0000
0330
0110
0001
,
1000
0000
0000
0010
0000
0000
1000
0010
0000
0000
0000
0000
0000
0000
0000
0000
,
0100
0000
0000
0001
0000
0000
0100
0001
0000
0000
0000
0000
0000
0000
0000
0000
,
0010
0000
0000
0100
0000
0000
1000
0100
0000
0000
0000
0000
0000
0000
0000
0000
,
1000
0000
0000
0010
0000
0000
0100
0010
0000
0000
0000
0000
0000
0000
0000
0000
,
0010
0000
0000
1000
0000
0000
0001
0010
0000
0000
0000
0000
0000
0000
0000
0000
,
0100
0000
0000
1000
0000
0000
0001
0100
0000
0000
0000
0000
0000
0000
0000
0000
,
0010
0000
0000
1000
0000
0000
0001
0010
0000
0000
0000
0000
0000
0000
0000
0000
,
0100
0000
0000
1000
0000
0000
0010
0100
0000
0000
0000
0000
0000
0000
0000
0000
,
1000
0010
0001
0000
0010
0100
0010
0000
,
0100
0001
0010
0100
1000
0001
1000
0000
,
0001
0010
0001
0000
0010
0100
1000
0000
,
0001
0100
1000
0100
0010
0100
0001
0000
,
1000
0010
1000
0010
0100
0010
0100
0010
,
0100
0001
0100
0001
1000
0001
1000
0001
,
0010
0100
0010
0000
0100
1000
0100
0000
1000
0001
1000
0000
0001
0100
0001
0000
,
0020
0000
0000
0000
0130
0000
1001
0110
,
0001
0000
0100
0000
0001
1000
0000
1000
0010
0000
0100
0000
0001
0000
1000
0100
,
1000
0000
0001
0000
1000
0010
0000
0010
1000
0000
0001
1000
0001
0000
0100
0000
,
0010
0000
1000
0000
0100
0010
0000
0010
0100
0000
0010
0000
0001
0000
0100
0000
,
0010
0000
1000
0000
0010
0100
0000
0100
0001
0000
1000
0000
1010
0000
1001
0000
,
0100
0000
0001
0000
1000
0100
0000
0100
1000
0000
0010
0000
0100
0000
0001
1000
,
0001
0000
0010
0000
0100
0010
0000
0010
0001
0000
1000
0001
1000
0000
0010
0000
,
0100
0000
0001
0000
0010
0100
0000
0100
0010
0000
0001
0000
1000
0000
0010
1000
,
0010
0010
0100
0100
0001
1001
0110
1000
,
0001
0000
0100
0000
0001
1000
0000
0001
0000
0100
0010
0000
1000
0000
0100
0010
,
0001
0000
1000
0000
0010
1000
0000
0100
0000
0010
0100
1000
0100
0000
0010
0001
,
0100
0000
0010
0000
1000
0001
0000
0100
0000
0010
1000
0000
0100
0000
0010
0001
,
1000
0000
0010
0000
0100
0000
0010
1000
0001
0000
1000
0000
1001
0000
0101
0000
,
0010
0000
0001
0000
1000
0010
0000
0100
0000
0010
1000
0000
0001
0000
1000
0100
,
0010
0000
0001
0000
1000
0010
0000
0100
0000
0001
0100
0010
1000
0000
0100
0010
,
0001
0000
0010
0000
0100
1000
0000
0001
0000
0100
0010
0000
1000
0000
0001
0100
,
0010
0010
0100
0100
0001
0010
0110
1000
,
1002
0000
0103
0000
0100
0010
1000
0000
,
1001
0010
0100
0000
0100
0010
0001
0000
,
1010
0000
0101
0000
1000
0100
0010
0000
,
1001
0010
0100
0000
1000
0010
0100
0001
,
1000
0100
0010
0100
1000
0001
0100
0001
,
0010
0100
1000
0100
0010
0001
1000
0001
,
0100
0000
0010
0000
0100
0000
0001
0000
0010
0000
0100
0000
1000
0000
0001
1000
,
0001
0000
0000
1001
0000
0000
0100
0000
0000
0110
0000
0000
1000
0001
1000
0001
,
0200
0000
0000
0000
0000
0000
0000
0000
0000
0000
0000
0000
0010
0000
0010
0300
;

//---------------dance-single - ----------------
#NOTES:
     dance-single:
     :
     Medium:
     7:
     0.384,0.448,0.033,0.146,0.016:
0000
0000
0000
0000
,
0000
0000
0000
0000
,
0000
0000
0000
0000
,
0000
0000
0000
0000
,
0001
0000
0001
0000
0100
0010
1000
0000
,
0000
0100
0010
0000
0001
1000
0010
0000
,
1000
0000
1000
0000
1000
0001
0010
0001
,
2000
0000
3002
0003
,
1000
0000
0001
0100
0000
0100
0001
0000
,
1000
0000
0001
0010
0000
0010
0100
0010
,
0001
0000
1000
0100
0000
0100
1000
0000
,
0001
0000
1000
0010
0000
0010
0100
0001
,
1000
0000
0001
0010
0000
0010
0100
0000
,
1000
0000
0010
0100
0000
0100
0001
0000
,
0010
0000
0001
1000
0000
1000
0001
1000
,
0100
0000
0000
0100
0000
0000
0100
0000
0000
0100
0000
0000
0100
0000
0100
0000
,
1000
0000
0010
1000
0000
0010
0100
0001
,
1000
0000
0100
0010
0000
0001
0010
0100
,
1000
0000
0001
0100
0000
0010
0100
0001
,
1000
0000
0001
1000
0000
0010
0100
0000
,
0010
0000
0100
0010
0000
1000
0100
0010
,
0001
0000
1000
0010
0000
0100
0001
0010
,
0100
0000
1000
0000
0001
0010
0100
1000
,
0001
0000
0000
0000
1000
0000
0001
1000
,
0002
0000
0000
0000
0000
0000
0000
0003
0000
0000
0000
0000
0000
0000
0000
0000
,
2000
0000
0000
0000
0000
0000
0000
3000
0000
0000
0000
0000
0000
0000
0000
0000
,
0020
0000
0000
0000
0000
0000
0000
0030
0000
0000
0000
0000
0000
0000
0000
0000
,
0200
0000
0000
0000
0000
0000
0000
0300
0000
0000
0000
0000
0000
0000
0000
0000
,
0002
0000
0000
0000
0000
0000
0000
0003
0000
0000
0000
0000
0000
0000
0000
0000
,
2000
0000
0000
0000
0000
0000
0000
3000
0000
0000
0000
0000
0000
0000
0000
0000
,
0200
0000
0000
0000
0000
0000
0000
0300
0000
0000
0000
0000
0000
0000
0000
0000
,
0020
0000
0000
0000
0000
0000
0000
0030
0000
0000
0000
0000
0000
0000
0000
0000
,
0001
0000
0001
0000
0100
0010
0100
0000
,
0001
1000
0001
0000
0010
0100
0010
0000
,
0001
0000
0001
0000
0100
0010
0100
0000
,
0000
0001
1000
0000
0001
1000
0001
0000
,
1000
0000
1000
0000
0100
0010
0100
0000
,
1000
0001
1000
0000
0010
0100
0010
0000
,
1000
0000
1000
0000
0001
1000
0001
0000
,
0020
0000
0230
0310
,
0001
0010
0100
0000
0010
0001
1000
0000
,
0010
1000
0001
0000
0100
0010
1000
0000
,
0001
0010
0100
0000
1000
0100
0010
0000
,
0001
1000
0010
0100
0001
1000
0100
0000
,
0010
0100
1000
0000
0001
0100
0010
0000
,
1000
0001
0010
0000
0100
1000
0001
0000
,
0100
0001
0010
0000
0001
0100
0010
0000
,
1000
0000
0001
0000
0100
0010
1000
0000
,
0001
0010
0001
0010
0100
1000
0001
1000
,
0010
0100
0010
0100
0001
0010
0001
1000
,
0100
0010
0100
0010
0001
1000
0010
0100
,
0001
1000
0001
1000
0010
0100
0001
0000
,
1000
0100
1000
0100
0010
0001
1000
0001
,
0100
0010
0100
0010
1000
0001
0010
0100
,
1000
0010
1000
0010
0100
0001
1000
0100
,
0020
0230
2300
3002
,
1003
0000
1010
0000
1000
0010
0100
0000
,
0001
1000
0001
0000
0010
0001
0010
0000
,
0001
0000
0101
0000
0010
1000
0010
0000
,
0100
0001
0100
0000
0010
1000
0010
1000
,
0100
0000
0110
0000
0010
0001
0100
0000
,
0010
1000
0100
0000
0010
0001
0100
0010
,
1000
0000
1001
0000
0001
1000
0001
0000
,
1000
0000
0000
0001
0000
0000
1000
0000
0000
0001
0000
0000
1000
0000
0002
0000
,
2000
0000
0000
0000
0000
0000
3000
0003
;

//---------------dance-single - ----------------
#NOTES:
     dance-single:
     :
     Easy:
     5:
     0.294,0.369,0.089,0.195,0.000:
0000
0000
0000
0000
,
0000
0000
0000
0000
,
0000
0000
0000
0000
,
0000
0000
0000
0000
,
2000
0000
3000
0000
,
0002
0000
0003
0000
,
2000
3000
0002
0003
,
2002
0000
0000
0000
0000
0000
0003
3000
,
0001
0100
0000
0001
,
1000
0100
0000
1000
,
0010
0100
0000
0001
,
1000
0100
0000
0010
,
0001
1000
0000
0010
,
0100
0001
0000
1000
,
0100
0010
0000
0100
,
1000
0001
1000
0001
,
0100
0110
0000
0010
,
1000
1001
0000
0001
,
0010
0110
0000
0100
,
1000
0000
1001
0000
0000
0100
0100
0000
,
0001
0010
0000
0110
,
1000
0010
0000
0110
,
0001
0001
1000
1000
,
1001
0000
0100
0000
,
0001
0020
0030
0000
,
1000
0200
0300
0000
,
0001
2000
3000
0000
,
0010
0200
0300
0000
,
1000
0020
0030
0000
,
0001
0200
0300
0000
,
1000
0002
0003
0000
,
0100
0020
0030
0000
,
0001
0000
0001
0000
1000
0100
1000
0000
,
0000
0001
0100
0000
1000
0100
1000
0000
,
0001
0000
0001
0000
1000
0100
1000
0000
,
0000
0001
0100
0000
1000
0100
1000
0000
,
0001
0000
0001
0000
1000
0010
1000
0000
,
0000
0001
0010
0000
1000
0010
1000
0000
,
0001
0000
0001
0000
1000
0010
1000
0000
,
0001
0000
1001
1001
,
1000
0100
0010
0001
,
0100
1000
0100
0001
,
1000
0100
0010
0001
,
1000
0010
0001
0010
,
1000
0010
0100
0001
,
1000
0100
0001
0100
,
1000
0010
0100
0001
,
1000
0000
1000
0000
0001
1000
0001
0000
,
0001
0100
0010
0000
0010
0100
0001
0000
,
0001
1000
0100
0000
0100
1000
0010
0000
,
0010
0100
0001
0000
0001
1000
0100
0000
,
0100
0010
0001
0010
0100
1000
0001
0000
,
1000
0010
0100
0000
0100
0001
0010
0000
,
0010
0100
1000
0000
1000
0001
0100
0000
,
0100
0001
1000
0000
1000
0001
0010
0000
,
0100
0100
0010
0010
,
0002
0100
1003
0000
,
2000
0010
3001
0000
,
0020
0001
1030
0000
,
0200
1000
0301
0000
,
0002
0100
0010
0100
,
2003
0010
0100
0001
,
3020
0001
0100
1000
,
0230
0001
1000
0310
,
2002
0000
0000
0000
0000
0000
3000
0003
;

//---------------dance-single - ----------------
#NOTES:
     dance-single:
     :
     Beginner:
     2:
     0.145,0.262,0.089,0.089,0.000:
0000
0000
0000
0000
,
0000
0000
0000
0000
,
0000
0000
0000
0000
,
0000
0000
0000
0000
,
0000
0000
0000
0000
,
0000
0000
0000
0000
,
0000
0000
0000
0000
,
0000
0000
0000
0000
,
1000
0000
0000
0000
,
0001
0000
0000
0000
,
0100
0000
0000
0000
,
0010
0000
0100
0000
,
0001
0000
0000
0000
,
1000
0000
0000
0000
,
0100
0000
0000
0000
,
0010
0000
0100
0000
,
1000
0000
0000
0000
,
0001
0000
0000
0000
,
0100
0000
0000
0000
,
0010
0000
1000
0000
,
0001
0000
0000
0000
,
0010
0000
0000
0000
,
0100
0000
1000
0000
,
0010
0000
0000
0000
,
0200
0300
0000
0000
,
0020
0030
0000
0000
,
2000
3000
0000
0000
,
0002
0003
0000
0000
,
0200
0300
0000
0000
,
0020
0030
0000
0000
,
2000
3000
0000
0000
,
0002
0003
0000
0000
,
1000
1000
0000
0000
,
0001
0001
0000
0000
,
0010
0010
0000
0000
,
0100
0100
0000
0000
,
1000
1000
1000
0000
,
0001
0001
0001
0000
,
0100
0100
0100
0100
,
0200
0300
0000
0000
,
0010
0010
0000
0000
,
1000
1000
0000
0000
,
0001
0001
0000
0000
,
0010
0000
0100
0000
,
1000
1000
0000
0000
,
0001
0001
0000
0000
,
0100
0100
0000
0000
,
0001
0000
1000
0000
,
0100
0010
0001
0000
,
0100
0010
1000
0000
,
0001
0010
0100
0000
,
1000
0010
0100
0001
,
1000
0100
0010
0000
,
0001
0100
0010
0000
,
1000
0010
0100
0001
,
0010
0010
0100
0100
,
0110
0000
0000
0000
,
1001
0000
0100
0000
,
1001
0000
0000
0000
,
0110
0000
0110
0000
,
0110
0000
0000
0000
,
1001
0000
0010
0000
,
1001
0000
0000
0000
,
0110
0000
0110
0000
,
2002
0000
3003
0000
;

//---------------dance-double - ----------------
#NOTES:
     dance-double:
     :
     Challenge:
     9:
     0.532,0.633,0.195,0.179,0.280: // measure 1
00000000
00000000
00000000
00000000
,  // measure 2
00000000
00000000
00000000
00000000
,  // measure 3
00000000
00000000
00000000
00000000
,  // measure 4
00000000
00000000
00000000
00000000
,  // measure 5
00200000
00000000
01000000
00000000
10300000
01000000
00010000
00000000
,  // measure 6
00001000
00010000
01000000
00000000
00010000
00001000
00000100
00000000
,  // measure 7
00000020
00000000
00000130
00000000
00000001
00000100
00001000
00000000
,  // measure 8
00000220
00000000
00000000
00000000
00000330
00000000
00001001
00001001
,  // measure 9
00000010
00000000
00000100
00000100
00000000
00001000
00000010
00000100
,  // measure 10
00000001
00000000
00001000
00001000
00000000
00000100
00010000
00001000
,  // measure 11
01000000
00000000
00100000
00100000
00000000
10000000
00010000
00100000
,  // measure 12
01000000
00000000
10000000
10000000
00000000
00010000
01100000
00000000
,  // measure 13
00011000
00000000
00000100
00000100
00000000
00001000
00000001
00000100
,  // measure 14
00000010
00000000
00010000
00010000
00000000
00000100
00000010
00000001
,  // measure 15
00001000
00000000
00000100
00000100
00000000
01000000
00001000
01000000
,  // measure 16
00100000
00000000
00000000
01100000
00000000
00000000
10000000
00000000
00000000
10010000
00000000
00000000
00001000
00000000
00011000
00000000
,  // measure 17
00010000
00000000
00000000
00000000
00000100
00000000
00000010
00000000
00000000
00000001
00000010
00000000
00000100
00000000
00010000
00000010
,  // measure 18
00010000
00000000
00000000
00000000
00001000
00000000
01000000
00000000
00000000
00100000
01000000
00000000
00010000
00000000
10000000
01000000
,  // measure 19
00100000
00000000
00000000
00000000
00010000
00000000
01000000
00000000
00000000
00001000
00100000
00000000
00010000
00000000
00100000
00000100
,  // measure 20
00001000
00000000
00000000
00000000
00000001
00000000
00001001
00000000
00000000
00000100
00001000
00000000
00011000
00000000
00000000
00000000
,  // measure 21
01100000
00000000
00000000
00000000
00010000
00000000
10000000
00000000
00000000
00100000
10000000
00000000
01000000
00000000
00100000
00001000
,  // measure 22
00100000
00000000
00000000
00001000
00010000
00000000
00000100
00000000
00000000
00000010
00000100
00000000
00001000
00000000
00000001
00000100
,  // measure 23
00000010
00000000
00000101
00000000
00000001
00000010
00000100
00001000
,  // measure 24
00020000
00000000
00000000
10000000
00000000
00000000
01030000
01000000
,  // measure 25
00200000
00000000
00000000
10000000
00000000
00000000
01300000
00000000
00000000
00000000
00000000
00000000
00000000
00000000
00000000
00000000
,  // measure 26
00020000
00000000
00000000
00000100
00000000
00000000
00031000
00000000
00000000
00000000
00000000
00000000
00000000
00000000
00000000
00000000
,  // measure 27
00000002
00000000
00000000
00001000
00000000
00000000
00000103
00000000
00000000
00000000
00000000
00000000
00000000
00000000
00000000
00000000
,  // measure 28
00000020
00000000
00000000
00010000
00000000
00000000
00001030
00000000
00000000
00000000
00000000
00000000
00000000
00000000
00000000
00000000
,  // measure 29
02000000
00000000
00000000
00010000
03000000
00000000
00200000
00001000
00000000
00000000
00000000
00000000
00300000
00000000
00000000
00000000
,  // measure 30
00000200
00000000
00000000
00000010
00000300
00000000
00002000
00000001
00000000
00000000
00000000
00000000
00003000
00000000
00000000
00000000
,  // measure 31
00000020
00000000
00000000
00000100
00000030
00000000
00020000
00001000
00000000
00000000
00000000
00000000
00030000
00000000
00000000
00000000
,  // measure 32
02000000
00000000
00000000
00100000
03000000
00000000
20000000
00010000
00000000
00000000
00000000
00000000
30000000
00000000
00000000
00000000
,  // measure 33
00010000
00000000
00010000
00000000
00001000
00000100
00001000
00000000
,  // measure 34
00010000
01000000
00010000
00000000
00001000
00000100
00001000
00000000
,  // measure 35
00010000
00000000
00010000
00000000
00001000
00000010
00001000
00000000
,  // measure 36
00010000
00100000
00010000
00001000
00000010
00001000
00010000
00000000
,  // measure 37
00001000
00000100
00000001
00000100
00010000
00100000
10000000
00100000
,  // measure 38
00001000
00000010
00000001
00000010
00010000
01000000
10000000
01000000
,  // measure 39
00001000
00001000
00010000
00010000
00001000
00010000
00001000
00010000
,  // measure 40
00022000
00000000
00000000
00000000
00033000
00000000
00011000
00011000
,  // measure 41
00000010
00000000
00000100
00000000
00000001
00000010
00000000
00000010
00000100
00000000
00010000
00000000
00000010
00000000
00000100
00000001
,  // measure 42
00000100
00000000
00000010
00000000
00010000
00001000
00000000
00001000
01000000
00000000
00100000
10000000
01000000
00000000
00100000
00000000
,  // measure 43
00001000
00000000
01000000
00000000
00100000
01000000
00000000
01000000
00100000
00000000
10000000
00000000
00010000
00000000
00100000
00000000
,  // measure 44
00001000
00000000
00010000
00000000
00000010
00001000
00000000
00001000
00000001
00000000
00000011
00000000
00001001
00000000
00001000
00000000
,  // measure 45
00000010
00000000
00000100
00000000
00000001
00001000
00000000
00001000
00000100
00000000
00010000
00000000
00001000
00000000
01000000
00001000
,  // measure 46
00010000
00000000
01000000
00000000
10000000
00100000
00000000
00100000
01000000
00000000
00001000
00010000
00000100
00000000
00000010
00000000
,  // measure 47
00000001
00000000
00001000
00000000
00000001
00000100
00000000
00000100
00000010
00000000
00001000
00000000
00000001
00000000
00000010
00000100
,  // measure 48
00000010
00000010
00000001
00000001
00001000
00001010
00001100
00010100
,  // measure 49
00011000
00000000
00001000
00000000
01000000
00100000
00000000
00100000
10000000
00000000
00010000
00000000
00100000
00000000
00001000
01000000
,  // measure 50
00010000
00000000
00100000
00000000
01000000
10000000
00000000
10000000
00010000
00000000
01000000
00001000
00010000
00000000
00000100
00000000
,  // measure 51
00000010
00000000
00000001
00000000
00001000
00000010
00000000
00000010
00000100
00000000
00010000
00000000
00000100
00000000
00000010
00001000
,  // measure 52
00000001
00000000
00000010
00000000
00000100
00000010
00000000
00000010
00000001
00000000
00001001
00000000
00000101
00000000
00000010
00000000
,  // measure 53
00001010
00000000
00000100
00000000
00010000
00000100
00000000
00001000
00000100
00000000
00000010
00000001
00000100
00000000
00000010
00010000
,  // measure 54
00000100
00000000
00001000
00000000
00000100
00010000
00000000
00010000
00100000
00000000
01000000
00010000
10000000
00000000
01000000
00100000
,  // measure 55
00001000
00000000
01000000
00000000
00001000
00010000
00000000
00010000
00000100
00000000
00000010
00000100
00001000
00000000
00000100
00000000
,  // measure 56
00000010
00000010
00000001
00000100
00001000
00010000
00100000
10000000
,  // measure 57
00010000
00000000
00010000
00000000
00001000
00000100
00001000
00000000
,  // measure 58
00010000
00100000
00010000
00000000
00001000
00000100
00001000
00010000
,  // measure 59
00001000
00000000
00001000
00000000
00010000
01000000
00010000
00000000
,  // measure 60
00001000
00000010
00001000
00010000
01000000
00010000
00001000
00000000
,  // measure 61
00000001
00000010
00000100
00000010
00000001
00000100
00001000
00000100
,  // measure 62
00000010
00010000
00001000
00010000
00100000
10000000
00010000
00100000
,  // measure 63
10000000
00100000
00010000
01000000
00001000
00010000
00100000
00010000
,  // measure 64
00002000
00000000
00000000
00000100
00000000
00000000
00000010
00000000
00000000
00000001
00000000
00000000
00013000
00000000
00010000
00000000
,  // measure 65
00000200
00000000
00000000
00000000
00000000
00000000
00000000
00000000
00000000
00000000
00000000
00000000
00000020
00000000
00000300
00000030
;
