#VERSION:0.81;
#TITLE:Let's Sing;
#SUBTITLE:(DJ Shimamura Remix);
#ARTIST:P*Light feat. *airi;
#TITLETRANSLIT:;
#SUBTITLETRANSLIT:;
#ARTISTTRANSLIT:;
#GENRE:;
#ORIGIN:;
#CREDIT:;
#BANNER:Let's Sing Banner.png;
#BACKGROUND:Let's Sing BG.png;
#PREVIEWVID:;
#JACKET:Let's Sing.png;
#CDIMAGE:;
#DISCIMAGE:;
#LYRICSPATH:;
#CDTITLE:;
#MUSIC:Lets Sing (DJ Shimamura Remix).mp3;
#OFFSET:-0.100;
#SAMPLESTART:34.740;
#SAMPLELENGTH:12.000;
#SELECTABLE:YES;
#BPMS:0.000=170.000,
95.500=85.000,
97.000=170.000;
#STOPS:126.000=0.088,
126.250=0.088,
126.500=0.088,
126.750=0.088,
127.000=0.088,
127.250=0.088,
127.500=0.088,
127.750=0.088,
156.000=0.166,
156.500=0.166,
157.000=0.166,
157.500=0.166;
#DELAYS:;
#WARPS:;
#TIMESIGNATURES:0.000=4=4;
#TICKCOUNTS:0.000=4;
#COMBOS:0.000=1;
#SPEEDS:0.000=1.000=0.000=0;
#SCROLLS:0.000=1.000;
#FAKES:;
#LABELS:0.000=Song Start;
#BGCHANGES:;
#KEYSOUNDS:;
#ATTACKS:
;

//---------------dance-single - ----------------
#NOTEDATA:;
#CHARTNAME:;
#STEPSTYPE:dance-single;
#DESCRIPTION:;
#CHARTSTYLE:;
#DIFFICULTY:Hard;
#METER:9;
#RADARVALUES:0.762,0.725,0.069,0.157,0.724,522.000,7.000,16.000,0.000,0.000,0.000,0.000,0.000,0.762,0.725,0.069,0.157,0.724,522.000,7.000,16.000,0.000,0.000,0.000,0.000,0.000;
#CREDIT:;
#OFFSET:-0.060;
#BPMS:0.000=170.000
,95.500=85.000
,97.000=170.000
;
#STOPS:126.000=0.088
,126.250=0.088
,126.500=0.088
,126.750=0.088
,127.000=0.088
,127.250=0.088
,127.500=0.088
,127.750=0.088
,156.000=0.172
,156.500=0.172
,157.000=0.172
,157.500=0.172
;
#DELAYS:;
#WARPS:;
#TIMESIGNATURES:0.000=4=4
;
#TICKCOUNTS:0.000=4
;
#COMBOS:0.000=1
;
#SPEEDS:0.000=1.000=0.000=0
;
#SCROLLS:0.000=1.000
;
#FAKES:;
#LABELS:0.000=Song Start
;
#NOTES:
0000
0000
0000
0000
,
0000
0000
0000
0000
,
0000
0000
0000
0000
,
0001
0000
0100
0000
0000
0000
0001
0000
0000
0010
0000
0000
1000
0000
0010
0000
,
0001
0000
0000
0100
0000
0000
0010
0000
0000
1000
0000
0000
1001
0000
0000
0000
,
1000
0000
0100
0000
0000
0000
1000
0000
0000
0010
0000
0000
0001
0000
0010
0000
,
1000
0000
0000
0100
0000
0000
0010
0000
0000
0001
0000
0000
1001
0000
0000
0000
,
0001
0000
0010
0000
0000
0000
0001
0000
0000
0100
0000
0000
1000
0000
0100
0000
,
0001
0000
0000
0010
0000
0000
0100
0000
0000
1000
0000
0000
1001
0000
0000
0000
,
1000
0000
0010
0000
0000
0010
1000
0000
0000
1000
0000
0000
1000
0000
0100
0000
,
0010
0000
0001
0100
0000
0001
0100
0000
0001
0100
0000
0001
0100
0000
0000
0000
,
0001
0000
0010
0000
0000
0010
0001
0000
0000
0001
0000
0000
0001
0000
0100
0000
,
0010
0000
1000
0100
0000
1000
0100
0000
1000
0100
0000
1000
0100
0000
0000
0000
,
1000
0000
0010
0000
0000
0010
1000
0000
0000
1000
0000
0000
1000
0000
0100
0000
,
0010
0000
0001
1000
0000
0001
1000
0000
0001
1000
0000
0001
1000
0000
0000
0000
,
0001
0000
0010
0000
0000
0010
0001
0000
0000
0001
0000
0000
0001
0000
0100
0000
,
0010
0000
1000
0001
0000
1000
0001
0000
1000
0001
0000
1000
0001
0000
0001
0000
,
0100
0000
0000
0010
0000
0000
1000
0000
0000
0001
0000
0000
0010
0000
0100
0000
,
1000
0000
0000
0010
0000
0000
0001
0000
0000
0010
0000
0000
1000
0000
1000
0000
,
0100
0000
0000
0010
0000
0000
0001
0000
0000
1000
0000
0000
0010
0000
0100
0000
,
0001
0000
0000
0010
0000
0000
1000
0000
0000
0010
0000
0000
0001
0000
0100
0000
,
0000
0100
0010
0000
1000
0000
0001
0000
0000
0001
0010
0000
0100
0000
1000
0000
,
0000
1000
0001
0000
0100
0000
0010
0000
0000
0010
1000
0000
0010
0000
0100
0000
,
0001
0010
0100
1000
0001
0100
0010
1000
,
0000
0001
1000
0001
1000
0000
0000
0000
0001
0000
0100
0000
1000
0000
0000
0100
,
0000
0000
0100
0000
0010
0000
1000
0000
0100
0000
0010
0000
0001
0000
0000
1000
,
0000
1000
0010
0000
0100
0000
0001
0000
0010
0000
0100
0000
1000
0000
0001
1000
,
0000
0001
1000
0000
0001
0000
0100
0000
1000
0000
0100
0000
0001
0000
0010
0001
,
0000
0010
0001
0100
0010
0000
0010
0000
1000
0000
0100
0000
0001
0000
0000
0100
,
0000
0000
0100
0000
0010
0000
0001
0000
0100
0000
0010
0000
1000
0000
0000
0001
,
0000
0001
0010
0000
0100
0000
1000
0000
0010
0000
0100
0000
0001
0000
1000
0001
,
0000
1000
0001
0000
0010
0000
0100
0000
1000
0010
0100
0001
1000
0100
0010
0001
,
1000
0000
0100
0000
0001
0000
0100
1000
0000
1000
0010
0000
0100
0000
0001
0000
,
0010
0000
0100
0000
1000
0000
0001
1000
0000
0001
1000
0000
0001
0000
0010
0000
,
0100
0000
1000
0000
0010
0000
0100
0001
0000
0100
0001
0000
1000
0000
0100
0000
,
0001
0000
0100
0000
1000
0000
0010
1000
0000
0010
1000
0100
0010
0000
0010
0000
,
0001
0000
0100
0000
1000
0000
0100
0001
0000
0001
0010
0000
0100
0000
1000
0000
,
0010
0000
0100
0000
0001
0000
1000
0001
0000
1000
0001
0000
1000
0000
0010
0000
,
0100
0000
0001
0000
0010
0000
0100
1000
0000
0100
1000
0000
0010
0000
0100
0000
,
0001
0000
0010
0000
0100
1000
0001
0000
1000
0000
0100
0000
0001
0000
0100
0000
,
0010
1000
0010
0001
0000
0001
0100
0010
,
1000
0100
0010
0001
2000
0010
3010
0200
,
0001
0301
0020
0100
0130
2000
0001
3001
,
0100
0010
1000
0000
0001
0100
1000
0001
,
0010
1000
0100
0001
0000
0001
0100
1000
,
0010
0100
0001
1000
1002
0000
0203
0000
,
0320
0000
1030
0100
0000
0100
2000
0000
,
3001
0000
1001
0000
0001
0100
1000
0100
,
0010
0001
0010
1000
0000
1000
0100
0010
,
0001
0100
0010
1000
0002
0010
0013
0200
,
1000
1300
0020
0100
0130
0002
1000
1003
,
0100
0010
0001
0000
1000
0100
0001
1000
,
0010
0001
0100
1000
0000
1000
0100
0001
,
0010
0100
1000
0001
2001
0000
3020
0000
,
0230
0000
0301
0010
0000
0010
0002
0000
,
1003
0000
0000
1001
0000
0000
1000
0000
1000
0010
0000
0010
,
0100
0000
0100
0001
0000
0001
0010
0000
0010
1000
0000
1000
,
0010
0000
0010
0001
0000
0001
0100
0000
0100
0010
0000
0010
,
1000
0000
1000
0001
0000
0001
0010
0001
0010
0001
0000
1000
,
0100
1000
0100
1000
0000
1000
0001
0000
0001
0010
0000
0010
,
0100
0000
0100
1000
0000
1000
0010
0000
0010
0001
0000
0001
,
0010
0000
0010
1000
0000
1000
0100
0000
0100
0010
0000
0010
,
0001
0000
0001
1000
0000
1000
0010
0100
0001
0010
0100
1000
,
0010
0100
0001
0010
0100
1000
0001
0000
0001
0100
0000
0100
,
0010
0000
0010
1000
0000
1000
0001
0000
0001
0100
0000
0100
,
1000
0000
1000
0100
0000
0100
0001
0000
0001
0010
0000
0010
,
0100
0000
0100
1000
0000
1000
0100
1000
0100
1000
0000
0001
,
0010
0001
0010
0001
0000
0001
1000
0000
1000
0010
0000
0010
,
0100
0000
0100
0001
0000
0001
1000
0000
1000
0100
0000
0100
,
0001
0000
0001
0100
0000
0100
1000
0000
1000
0010
0000
0010
,
0100
0000
0100
0001
0000
0001
1000
0000
0000
0000
0000
0000
;

//---------------dance-single - ----------------
#NOTEDATA:;
#CHARTNAME:;
#STEPSTYPE:dance-single;
#DESCRIPTION:;
#CHARTSTYLE:;
#DIFFICULTY:Medium;
#METER:8;
#RADARVALUES:0.712,0.621,0.206,0.157,0.568,472.000,21.000,16.000,0.000,0.000,0.000,0.000,0.000,0.712,0.621,0.206,0.157,0.568,472.000,21.000,16.000,0.000,0.000,0.000,0.000,0.000;
#CREDIT:;
#OFFSET:-0.040;
#BPMS:0.000=170.000
,95.500=85.000
,97.000=170.000
;
#STOPS:126.000=0.088
,126.250=0.088
,126.500=0.088
,126.750=0.088
,127.000=0.088
,127.250=0.088
,127.500=0.088
,127.750=0.088
,156.000=0.166
,156.500=0.166
,157.000=0.166
,157.500=0.166
;
#DELAYS:;
#WARPS:;
#TIMESIGNATURES:0.000=4=4
;
#TICKCOUNTS:0.000=4
;
#COMBOS:0.000=1
;
#SPEEDS:0.000=1.000=0.000=0
;
#SCROLLS:0.000=1.000
;
#FAKES:;
#LABELS:0.000=Song Start
;
#NOTES:
0000
0000
0000
0000
,
0000
0000
0000
0000
,
0000
0000
0000
0000
,
1000
0000
0100
0000
0000
0000
1000
0000
0000
0010
0000
0000
0001
0000
0010
0000
,
1000
0000
0000
0100
0000
0000
0010
0000
0000
0001
0000
0000
1001
0000
0000
0000
,
0001
0000
0100
0000
0000
0000
0001
0000
0000
0010
0000
0000
1000
0000
0010
0000
,
0001
0000
0000
0100
0000
0000
0010
0000
0000
1000
0000
0000
1001
0000
0000
0000
,
1000
0000
0010
0000
0000
0000
1000
0000
0000
0100
0000
0000
0001
0000
0100
0000
,
1000
0000
0000
0010
0000
0000
0100
0000
0000
0001
0000
0000
1001
0000
0000
0000
,
1000
0000
0100
0000
0000
0000
1000
0000
0000
1000
0000
0000
1000
0000
0010
0000
,
1010
0000
0000
0010
0000
0000
0110
0000
0000
0100
0000
0000
0101
0000
0000
0000
,
0001
0000
0010
0000
0000
0000
0001
0000
0000
0001
0000
0000
0001
0000
0100
0000
,
0101
0000
0000
0100
0000
0000
0110
0000
0000
0010
0000
0000
1010
0000
0000
0000
,
1000
0000
0010
0000
0000
0000
1000
0000
0000
1000
0000
0000
1000
0000
0100
0000
,
1100
0000
0000
0100
0000
0000
0110
0000
0000
0010
0000
0000
0011
0000
0000
0000
,
0001
0000
0100
0000
0000
0000
0001
0000
0000
0001
0000
0000
0001
0000
0010
0000
,
0011
0000
0000
0010
0000
0000
0110
0000
0000
0100
0000
0000
1100
0000
1000
0000
,
0010
0000
0000
0100
0000
0000
0001
0000
0000
0010
0000
0000
0100
0000
1000
0000
,
0001
0000
0000
0100
0000
0000
1000
0000
0000
0100
0000
0000
0101
0000
0001
0000
,
0010
0000
0000
0100
0000
0000
1000
0000
0000
0010
0000
0000
0100
0000
0001
0000
,
1000
0000
0000
0100
0000
0000
0001
0000
0000
0100
0000
0000
1100
0000
1000
0000
,
0000
1000
0001
0000
0010
0000
0100
0000
0000
0100
0010
0000
0001
0000
1000
0000
,
0000
1000
0010
0000
0100
0000
0001
0000
0000
0001
0010
0000
0100
0000
1000
0000
,
0001
0100
0010
1000
0001
0010
0100
1000
,
0000
0001
1000
0001
1000
0000
0000
0000
1000
0000
0010
0000
0100
0000
0000
0010
,
0000
0000
1000
0000
0100
0000
0010
0000
0001
0000
0100
0000
1000
0000
0000
0100
,
0000
0000
0010
0000
1000
0000
0100
0000
0010
0000
0001
0000
0100
0000
0000
0001
,
0000
0000
0010
0000
0100
0000
1000
0000
0001
0000
0100
0000
0010
0000
0000
1000
,
0000
1000
0001
0000
0010
0000
0100
0000
1000
0000
0010
0000
0001
0000
0000
0010
,
0000
0000
0100
0000
0001
0000
0010
0000
0100
0000
1000
0000
0010
0000
0000
0100
,
0000
0000
0010
0000
1000
0000
0100
0000
0010
0000
0001
0000
0100
0000
0000
0010
,
0000
0000
1000
0000
0100
0000
0010
0000
0001
0100
0010
1000
0001
0010
0100
1000
,
0001
0000
0010
0000
0100
0000
0000
0010
0000
0000
0001
0000
0100
0000
0010
0000
,
1000
0000
0100
0000
0001
0000
0000
0100
0000
0000
0010
0000
0001
0000
0100
0000
,
0010
0000
1000
0000
0100
0000
0000
0010
0000
0000
0100
0000
1000
0000
0010
0000
,
0100
0000
0001
0000
0010
0000
0000
0010
0000
0010
0001
0000
0100
0000
0010
0000
,
1000
0000
0100
0000
0001
0000
0000
0100
0000
0000
0010
0000
0001
0000
0100
0000
,
0010
0000
1000
0000
0100
0000
0000
0010
0000
0000
0001
0000
0100
0000
0010
0000
,
1000
0000
0100
0000
0010
0000
0000
0100
0000
0000
1000
0000
0010
0000
0100
0000
,
0001
0000
0010
0000
0100
1000
0001
0000
1000
0000
0010
0000
0100
0000
0001
0000
,
1000
0100
0010
0001
0000
0001
0100
0010
,
1000
0001
0010
0100
2000
0010
3010
0200
,
0001
0301
0020
0100
0130
2000
0001
3001
,
0010
0100
1000
0000
0001
0100
1000
0100
,
0010
1000
0100
1000
0000
1000
0010
0100
,
0001
0010
0100
1000
1002
0000
0203
0000
,
0320
0000
1030
0100
0000
0100
2000
0000
,
3001
0000
1001
0000
0001
0010
0100
1000
,
0001
0100
0010
1000
0000
1000
0010
0100
,
0001
1000
0100
0010
0002
0100
0103
0020
,
1000
1030
0200
0010
0310
0002
1000
1003
,
0010
0100
0001
0000
1000
0100
0001
0100
,
0010
0001
0100
0001
0000
0001
0010
0100
,
1000
0001
0100
0010
2001
0000
3200
0000
,
0320
0000
0031
0100
0000
0100
0002
0000
,
1003
0000
0000
1001
0000
0000
0001
0000
0001
0100
0000
0100
,
0010
0000
0010
1000
0000
1000
0100
0000
0100
0010
0000
0010
,
0001
0000
0001
0100
0000
0100
1000
0000
1000
0100
0000
0100
,
0001
0000
0001
0010
0000
0010
0001
0000
0010
0001
0000
0001
,
1000
0000
0001
1000
0000
1000
0010
0000
0010
0100
0000
0100
,
0001
0000
0001
0010
0000
0010
0100
0000
0100
1000
0000
1000
,
0010
0000
0010
0001
0000
0001
0010
0000
0010
1000
0000
1000
,
0100
0000
0100
0010
0000
0010
0001
0000
0001
0100
0000
0010
,
1000
0000
0100
0010
0000
0001
1000
0000
1000
0010
0000
0010
,
0100
0000
0100
0001
0000
0001
0010
0000
0010
0100
0000
0100
,
1000
0000
1000
0001
0000
0001
0100
0000
0100
1000
0000
1000
,
0100
0000
0100
0001
0000
0001
0010
0000
0001
0010
0000
0010
,
0001
0000
0010
0001
0000
0001
0010
0000
0010
0100
0000
0100
,
1000
0000
1000
0010
0000
0010
0100
0000
0100
0001
0000
0001
,
0010
0000
0010
1000
0000
1000
0010
0000
0010
0001
0000
0001
,
0100
0000
0100
0010
0000
0010
1000
0000
0000
0000
0000
0000
;

//---------------dance-single - ----------------
#NOTEDATA:;
#CHARTNAME:;
#STEPSTYPE:dance-single;
#DESCRIPTION:;
#CHARTSTYLE:;
#DIFFICULTY:Easy;
#METER:5;
#RADARVALUES:0.418,0.414,0.078,0.157,0.010,275.000,8.000,16.000,0.000,0.000,0.000,0.000,0.000,0.418,0.414,0.078,0.157,0.010,275.000,8.000,16.000,0.000,0.000,0.000,0.000,0.000;
#CREDIT:;
#NOTES:
// measure 0
0000
0000
0000
0000
,  // measure 1
0000
0000
0000
0000
,  // measure 2
0000
0000
0000
0000
,  // measure 3
0001
0010
0000
0100
0000
1000
0000
0000
,  // measure 4
1000
0010
0000
0100
0000
0001
0000
0000
,  // measure 5
0001
0010
0000
0100
0000
0010
0000
0000
,  // measure 6
0001
0100
0000
1000
0000
0100
0000
0000
,  // measure 7
1000
0010
0000
0001
0000
0010
0000
0000
,  // measure 8
1000
0100
0000
0001
0000
0100
0000
0000
,  // measure 9
1000
0010
0000
0100
0000
0001
0000
0000
,  // measure 10
0001
0010
0000
0100
0000
1000
0000
0000
,  // measure 11
0001
0100
0000
0001
0000
0010
0000
0000
,  // measure 12
0001
0010
0000
0001
0000
0100
0000
0000
,  // measure 13
0001
0010
0000
0100
0000
1000
0000
0000
,  // measure 14
1000
0100
0000
1000
0000
0010
0000
0000
,  // measure 15
1000
0010
0000
1000
0000
0100
0000
0000
,  // measure 16
1000
0010
0000
0100
0000
0001
0000
0001
,  // measure 17
0000
0000
0000
0010
0000
0000
0000
0100
,  // measure 18
0000
0000
0000
1000
0000
0000
0000
0001
,  // measure 19
0000
0000
0000
0010
0000
0000
0000
0100
,  // measure 20
0000
0000
0000
1000
0000
0000
0000
0001
,  // measure 21
0000
0010
0000
0100
0000
1000
0000
0001
,  // measure 22
0000
0100
0000
0010
0000
1000
0000
0001
,  // measure 23
0010
0100
1000
0001
0010
0100
1000
0001
,  // measure 24
0000
0001
1000
0001
1000
0000
0000
0000
0010
0000
0000
0000
0000
0000
0000
0000
,  // measure 25
0010
0000
0100
0000
,  // measure 26
0100
0000
0001
0000
,  // measure 27
0001
0000
0000
0000
0010
0001
0010
0000
,  // measure 28
0100
1000
0100
0000
1000
0000
0000
0000
,  // measure 29
1000
0000
0010
0000
,  // measure 30
0010
0000
0100
0000
,  // measure 31
0100
0000
0000
0000
0001
0010
0100
1000
,  // measure 32
0100
1000
0010
0100
,  // measure 33
0001
1000
0100
0010
,  // measure 34
0001
0100
0010
1000
,  // measure 35
0100
1000
0100
0000
0010
0001
0010
0000
,  // measure 36
0001
0100
0010
1000
,  // measure 37
0001
0010
0100
1000
,  // measure 38
0001
0100
0010
1000
,  // measure 39
0001
0010
0100
1000
0001
0000
0100
0000
,  // measure 40
1000
0000
0100
0001
0000
0001
0010
0000
,  // measure 41
0100
0000
1100
0000
2000
0000
0000
3020
,  // measure 42
0000
0000
0230
0000
0000
0302
0000
0000
,  // measure 43
1003
1001
1000
0100
,  // measure 44
0010
0000
0001
0100
0000
0100
0001
0000
,  // measure 45
0010
0100
2001
3020
,  // measure 46
0230
0000
0301
0010
0000
0010
0002
0000
,  // measure 47
1003
1001
0001
0010
,  // measure 48
0100
0000
1000
0001
0000
0001
1000
0000
,  // measure 49
0010
0000
0100
0000
0002
0000
0000
0023
,  // measure 50
0000
0000
0230
0000
0000
2300
0000
0000
,  // measure 51
3001
1001
0001
0100
,  // measure 52
0010
0000
1000
0001
0000
0001
1000
0000
,  // measure 53
0010
0100
1002
0023
,  // measure 54
0230
0000
1300
0010
0000
0010
2000
0000
,  // measure 55
3001
1001
0001
0010
,  // measure 56
0100
1000
0001
0100
,  // measure 57
0010
1000
0001
0010
,  // measure 58
0100
0000
1000
0000
0001
0010
0001
0000
,  // measure 59
0100
1000
0100
0000
0001
0000
0100
0000
,  // measure 60
0010
1000
0001
0010
,  // measure 61
0100
1000
0001
0100
,  // measure 62
0010
0000
1000
0000
0001
0010
0001
0010
,  // measure 63
0100
0010
0100
0000
1000
0000
0010
0000
,  // measure 64
0100
0001
1000
0100
,  // measure 65
0010
0001
1000
0010
,  // measure 66
0100
0000
0001
0000
1000
0010
1000
0000
,  // measure 67
0100
0010
0100
0000
0010
0000
0001
0000
,  // measure 68
0100
0010
1000
0100
,  // measure 69
0010
0001
1000
0010
,  // measure 70
0100
0001
1001
0000
;
