#TITLE:In Front of Me;
#SUBTITLE:;
#ARTIST:Infected Mushroom;
#TITLETRANSLIT:;
#SUBTITLETRANSLIT:;
#ARTISTTRANSLIT:;
#GENRE:;
#CREDIT:;
#BANNER:In Front of Me - Infected Mushroombn.png;
#BACKGROUND:In Front of Me - Infected Mushroombg.png;
#LYRICSPATH:In Front of Me - Infected Mushroom.lrc;
#CDTITLE:encorerebirth.png;
#MUSIC:In Front of Me - Infected Mushroom.ogg;
#OFFSET:-0.050;
#SAMPLESTART:91.831;
#SAMPLELENGTH:19.933;
#SELECTABLE:YES;
#BPMS:0.000=72.500
;
#STOPS:
;
#BGCHANGES:;
#KEYSOUNDS:;
#ATTACKS:;

//---------------dance-single - Spork!----------------
#NOTES:
     dance-single:
     :
     Beginner:
     1:
     0.066,0.072,0.039,0.054,0.000,48.000,5.000,7.000,0.000,0.000,0.000,0.066,0.072,0.039,0.054,0.000,48.000,5.000,7.000,0.000,0.000,0.000:
0000
0000
0000
0000
,
0000
0000
0000
0000
,
0100
0000
0000
0000
,
0010
0000
0000
0000
,
0100
0000
0000
0000
,
0002
0000
0000
0000
,
1003
0000
0000
0000
,
0100
0000
0000
0000
,
0010
0000
0000
0000
,
0001
0000
0000
0000
,
1000
0000
1000
0000
,
0001
0000
0001
0000
,
0100
0000
0001
0000
,
1000
0000
0100
0000
,
2002
0000
0000
0000
,
3003
0000
0000
0000
,
2002
0000
0000
0000
,
3003
0000
0000
0000
,
0001
0000
0000
0000
,
0010
0000
0000
0000
,
0220
0000
0000
0000
,
0330
0000
0000
0000
,
0000
0000
0000
0000
,
0000
0000
0000
1000
,
1000
0000
0100
0000
,
1000
0000
1000
0000
,
0001
0000
0010
0000
,
0001
0000
0001
0000
,
0100
0000
0010
0000
,
1000
0000
0100
0000
,
0100
0000
0010
0000
,
0001
0000
0100
0000
,
1001
0000
0010
0000
,
0100
0000
0100
0000
,
1001
0000
0100
0000
,
0010
0000
0010
0000
,
1000
0000
0000
0000
,
0001
0000
0000
0000
;

//---------------dance-single - Spork!----------------
#NOTES:
     dance-single:
     :
     Easy:
     3:
     0.129,0.162,0.054,0.077,0.000,100.000,7.000,10.000,0.000,0.000,0.000,0.129,0.162,0.054,0.077,0.000,100.000,7.000,10.000,0.000,0.000,0.000:
0000
0000
0000
0000
,
0000
0000
0000
0000
,
0001
0000
0000
0001
,
0100
0000
0000
0010
,
1000
0000
0001
0000
,
1000
0000
0100
0000
,
0010
0001
0100
0000
,
0010
1000
0100
0000
,
0100
1000
0010
0000
,
0100
0001
0010
0000
,
0001
0010
0001
0100
,
0010
1000
0001
0000
,
1000
0010
1000
0100
,
0010
0001
1000
1000
,
0020
0000
0100
0000
,
0001
0000
0030
1000
,
0200
0000
0010
0000
,
0001
0000
0300
0000
,
1001
0000
0100
0010
,
1000
0000
1000
0100
,
0022
0000
0000
0000
,
0000
0030
0000
0000
,
0000
0000
0003
0000
,
1000
0000
0000
0001
,
1001
0000
0100
0000
0010
0000
1000
1000
,
1000
0000
0100
0000
0010
0000
0001
0001
,
0001
0000
1000
0000
0010
0000
0100
0100
,
0100
0000
0001
0000
0010
0000
0100
0100
,
0200
0010
0310
0001
,
0200
0010
0310
1000
,
0002
1000
1003
0001
,
2000
0001
3001
0010
,
0110
0000
1100
0000
,
0010
0001
1000
0010
,
0110
0000
0101
0000
,
0010
0000
0010
0010
,
2000
0000
0000
0000
,
0002
0000
0000
0000
,
3003
0000
0000
0000
;

//---------------dance-single - Spork!----------------
#NOTES:
     dance-single:
     :
     Medium:
     5:
     0.185,0.176,0.108,0.139,0.008,135.000,14.000,18.000,0.000,0.000,0.000,0.185,0.176,0.108,0.139,0.008,135.000,14.000,18.000,0.000,0.000,0.000:
0000
0000
0000
0000
,
0000
0000
0000
0000
,
0020
0000
0001
0000
0130
0000
0100
1000
,
0020
1000
0130
0001
,
2000
0000
0010
0000
3100
0000
0100
0010
,
0002
0100
1003
0000
,
0011
0000
0000
0110
0000
0000
1000
0000
,
1010
0000
0000
0000
0000
0000
0000
1001
0000
0000
0000
0000
0010
0000
0000
0000
,
1100
0000
0000
0110
0000
0000
0001
0000
,
0101
0000
0000
0100
0220
0000
0330
0000
,
0001
0000
0010
0100
1000
0000
0001
0000
,
1000
0000
0010
0100
0220
0000
0330
0000
,
1000
0000
0100
0000
0010
0000
0001
1000
,
0001
0100
0010
1000
,
0200
0000
0010
0000
,
0001
0000
0300
1000
,
0020
0000
0100
0000
,
0001
0000
0030
0000
,
1000
0000
0000
1000
0000
0000
1000
0000
0000
0000
0000
0000
0010
0000
0000
0000
,
1000
0000
0100
0000
0010
0100
0010
0000
,
2002
0000
0000
0000
,
0000
0003
0000
0000
,
0000
0000
3000
0000
,
0001
0000
0001
0100
0001
0100
0001
1000
,
0100
0000
0010
0000
1100
0000
1000
0001
,
0100
0000
0010
0000
0101
0000
0001
0010
,
0100
0000
1000
0000
0110
0000
1000
0010
,
0100
0001
0110
0002
,
1003
0000
0100
1000
0010
0000
2000
0000
,
3001
0000
0010
0001
0100
0000
0020
0000
,
0130
0000
0001
1000
0010
0000
0200
0000
,
0310
0000
1000
0001
0100
0000
0001
0001
,
1000
0000
0001
1000
0100
0000
1000
0100
,
0010
0000
0001
0000
1000
0100
1000
1000
,
0001
0000
1000
0001
0100
0000
0001
0100
,
0010
1000
0001
0010
,
0200
0000
0000
0000
,
0020
0000
0000
0000
,
0330
0000
0000
0000
;

//---------------dance-double - Spork!----------------
#NOTES:
     dance-double:
     :
     Easy:
     4:
     0.177,0.191,0.147,0.209,0.000,114.000,19.000,27.000,0.000,0.000,0.000,0.177,0.191,0.147,0.209,0.000,114.000,19.000,27.000,0.000,0.000,0.000:
00000000
00000000
00000000
00000000
,
00000000
00000000
00000000
00000000
,
00100000
00000000
10000000
01000000
,
00010000
00000000
00012000
00003000
,
00000100
00000000
00000001
00000010
,
00001000
00000000
00022000
00033000
,
00010000
00000000
00000100
00000000
00000010
00000000
00000001
00000001
,
00001000
00000010
00000220
00000330
,
00000100
00000000
00000001
00000000
00001000
00000000
00000100
00000100
,
00010000
00001000
00022000
00033000
,
00001000
00000000
01000000
00000000
00100000
00000000
10000000
10000000
,
00010000
00100000
02200000
03300000
,
01000000
00000000
10000000
00000000
00010000
00000000
00100000
00100000
,
00001000
00010000
00011000
00011000
,
02001000
00000000
00010000
00000000
,
10000000
00000000
03000000
00010000
,
00200000
00000000
10000000
00000000
,
00001000
00000000
00000000
00300000
,
00001000
00010000
00000100
00000100
,
00000010
00000001
00001000
00001001
,
00000220
00000000
00000000
00000000
,
00000000
00000300
00000000
00000000
,
00000000
00000000
00000030
00000000
,
00000001
00000000
00000001
00000000
00000001
00000000
00000001
00000010
,
00000001
00000100
00000120
00000130
,
00001000
00010000
00021000
00031000
,
00010000
01000000
01200000
00310000
,
10000000
00000000
00100000
00000000
01200000
00000000
10300000
01000000
,
10000000
00010000
12000000
03100000
,
00001000
00010000
00021000
00031000
,
00010000
00000010
00000201
00000310
,
00010000
00001000
00012000
00013000
,
00020000
00000010
00032000
00100000
,
00013000
00000010
00000100
00001000
,
00002000
01000000
00023000
00000100
,
00031000
01000000
00100000
00010000
,
00022000
00000000
00000000
00000000
,
00000000
00000000
00000000
00000000
,
00033000
00000000
00000000
00000000
;

//---------------dance-double - Spork!----------------
#NOTES:
     dance-double:
     :
     Medium:
     5:
     0.197,0.221,0.178,0.139,0.027,137.000,23.000,18.000,0.000,0.000,0.000,0.197,0.221,0.178,0.139,0.027,137.000,23.000,18.000,0.000,0.000,0.000:
00000000
00000000
00000000
00000000
,
00000000
00000000
00000000
00000000
,
00000020
00000000
00001000
00000000
00000130
00000000
00000001
00000010
,
00000200
00000000
00001000
00000000
00010300
00000000
00010000
00001000
,
00200000
00000000
01000000
00000000
00310000
00000000
10000000
00100000
,
02000000
00010000
03010000
00000000
,
10000000
00000000
01000000
00000000
10010000
00000000
01000000
01000000
,
00100000
00001000
00020100
00030000
,
00000001
00000000
00000100
00000000
00001001
00000000
00000100
00000100
,
00000010
00010000
01002000
00003000
,
10000000
00000000
00100000
00000000
00010000
00000000
00000010
00000010
,
00001000
00000000
00000100
00000010
00000220
00000000
00000330
00000000
,
00000001
00000000
00000010
00000100
00001000
00000000
00000100
00000000
,
01000000
00000000
00010000
00100000
01000000
00000000
00100000
00000000
,
10020000
00000000
00000100
00000000
,
00000010
00000000
00030000
00000010
,
00002001
00000000
01000000
00000000
,
00100000
00000000
00003000
00000000
,
00010000
00000000
00000000
00010000
00000000
00000000
00010000
00000000
00000000
00000000
00000000
00000000
01000000
00000000
00000000
00000000
,
00100000
10000000
01000000
10010000
,
02200000
00000000
00000000
00000000
,
00000000
00300000
00000000
00000000
,
00000000
00000000
03000000
00000000
,
10000000
00000000
10000000
00000000
10000000
00010000
10000000
10000000
,
11000000
00000000
01000000
00000000
00100000
00000000
00001000
00001000
,
01001000
00000000
01000000
00000000
00001000
00000000
00010000
00010000
,
00010100
00000000
00000100
00000000
00000010
00000000
00000001
00000001
,
00001001
00001000
00000010
00001001
,
00000110
00000000
00000100
00000001
00000010
00000000
00010100
00000000
,
00011000
00000000
00001000
01000000
00010000
00000000
10010000
00000000
,
01100000
00000000
01000000
10000000
00100000
00000000
01001000
00000000
,
00011000
00000000
00010000
00000100
00000010
00000000
00000100
00000000
,
00001002
00000000
00000013
00000001
00002000
00000000
00003010
00001000
,
00000100
00000000
00000000
00000100
00000000
00000000
00000000
00010000
00000000
00001000
00000000
01000000
00000000
00010000
00000000
00000000
,
20000000
00000000
30100000
10000000
00020000
00000000
00130000
00010000
,
01000000
00000000
00000000
01000000
00000000
00000000
00000000
00000000
00010000
00000000
00000000
00000000
00010000
00000000
00000000
00000000
,
20020000
00000000
00000000
00000000
,
00000000
00000000
00000000
00000000
,
30030000
00000000
00000000
00000000
;

//---------------dance-double - Spork!----------------
#NOTES:
     dance-double:
     :
     Hard:
     9:
     0.336,0.382,0.186,0.263,0.414,246.000,24.000,34.000,0.000,0.000,0.000,0.336,0.382,0.186,0.263,0.414,246.000,24.000,34.000,0.000,0.000,0.000:
00000000
00000000
00000000
00000000
,
00000000
00000000
00000000
00000000
,
00010000
00000000
00011000
00000000
00010100
00000000
00000000
00000000
00000100
00000010
00000000
00000011
00000000
00000010
00000100
00000000
,
00010000
00000000
00011000
00000000
00010010
00000000
00000000
00000000
00001000
00000001
00000000
00000001
00000100
00000010
00010000
00000000
,
00001000
00000000
00011000
00000000
01001000
00000000
00000000
00000000
01000000
00100000
00000000
10100000
00000000
00100000
01000000
00000000
,
00001000
00011000
00101000
00100000
02200000
00000000
03300000
00000000
,
00010000
10000000
00000000
00000000
00000000
00000000
00010000
00001000
00000000
00000000
00000000
00000000
00010000
00000000
00000000
00000000
,
00001000
00000001
00000000
00000000
00000000
00000000
00002000
00020000
00000000
00000000
00000000
00000000
00033000
00000000
00000000
00000000
,
00001000
00000100
00000000
00000000
00000000
00000000
00010000
01000000
00000000
00000000
00000000
00000000
00001000
00000000
00000000
00000000
,
00010000
00100000
00000000
00000000
00000000
00000000
00002000
00000000
00000020
00000000
00000000
00000000
00003030
00000000
00000000
00000000
,
00001000
00000100
00000000
00000000
00000000
00000000
00000100
00010000
00001000
01000000
00000000
00000000
02000000
00000000
00000000
00000000
,
03010000
00100000
00000000
00000000
01000000
00000000
01100000
00000000
20020000
00000000
00000000
00000000
30030000
00000000
00000000
00000000
,
10000000
01000000
00100000
00010000
01000000
00001000
00010000
00000100
00000010
00000001
00001000
00000100
00000000
00001000
00000010
00000100
,
00000001
00000010
00000100
00001000
00000010
00010000
00001000
00100000
00010000
00000000
00000000
00000000
01000000
00000000
00000000
00000000
,
00012000
00000000
00000100
00000000
,
00100000
00000000
00003000
00000100
,
00021000
00000000
01000000
00000000
,
00000010
00000000
00030000
00000000
,
00011000
00000000
00000000
01001000
00000000
00000000
01010000
00000000
00010000
00100000
00000000
01000000
00000000
01000000
10000000
00010000
,
00000000
00000000
00010000
10000000
00000000
00001000
00000000
00000000
00010000
00000001
00000000
00000001
00001000
00000000
00000010
00000000
,
00000120
00000000
00000000
00020000
,
00000000
00000000
00000000
00030000
00000000
00000000
00200000
00000000
,
00000000
00000000
00300030
00000000
,
00010000
00000000
00010000
00000000
00010000
00001000
01000000
01000000
,
00010000
00100000
01000000
00000000
01000000
10000000
00000000
00010000
00000000
00010000
01000000
00000000
01000000
00001000
00010000
00000010
,
00001000
00000100
00000010
00000000
00000010
00000001
00000000
00001000
00000000
00001000
00000010
00000000
00000100
00000010
00010000
00000010
,
00001000
00000100
00010000
00000000
00010000
00001000
00000000
01000000
00000000
01000000
00100000
00000000
10000000
00100000
01000000
00001000
,
00010000
00000100
00000010
00000000
00000010
00000001
00000000
00001000
00000000
00001000
00000010
00000000
00000100
00000001
00000001
00000001
,
00001000
00000000
00000100
00010000
00000000
00000010
00000000
00000100
00000000
00000100
00001000
00000000
00010000
00001000
00100000
00010000
,
01000000
00000000
00001000
00010000
00000000
01000000
00000000
10000000
00000000
10000000
00100000
00000000
00100000
10000000
01000000
00100000
,
00010000
01000000
00001000
00000000
00010000
00001000
00000000
00101000
00000000
00010000
00001000
00000000
00010000
00001000
00000100
00000010
,
00001000
00000001
00000010
00000000
00000010
00000001
00000000
00000101
00000000
00001000
00000001
00000000
00000100
00000010
00000010
00000010
,
00002000
00000000
00000000
00000200
00003000
00000000
00000020
00000300
00002000
00000000
00000030
00020000
00003000
00000000
00200000
00030000
,
02000000
00000000
00300000
00002000
03000000
00000000
00003000
11000000
00000000
00001000
00000000
00010000
00000000
00000101
00000000
00000000
,
00020000
00000000
00000000
00000020
00030000
00000000
00000200
00000030
00002000
00000000
00000300
02000000
00003000
00000000
00020000
03000000
,
00200000
00000000
00030000
02000000
00300000
00000000
03000000
10010000
00000000
00100000
00000000
00001000
00010000
00000000
00000000
00010000
,
00002000
00000000
00000000
01000000
00000000
00000000
00010000
00000000
00203000
00000000
00000000
00001000
00000000
00000000
01000000
00000000
,
00320000
00000000
00000000
01000000
00000000
00000000
00000000
20000000
00000000
00000000
00000000
00000000
00000000
00000000
00000000
00000000
,
30030000
00000000
00000000
00000000
;

//---------------dance-single - Spork!----------------
#NOTES:
     dance-single:
     :
     Hard:
     8:
     0.264,0.309,0.062,0.163,0.286,210.000,8.000,21.000,0.000,0.000,0.000,0.264,0.309,0.062,0.163,0.286,210.000,8.000,21.000,0.000,0.000,0.000: // measure 0
0000
0000
0000
0000
,  // measure 1
0000
0000
0000
0000
,  // measure 2
0000
0000
1000
0000
0100
0000
0000
0000
0010
0100
0000
1000
0000
1000
0001
0000
,  // measure 3
0000
0000
1000
0000
0010
0000
0000
0000
0010
0100
0000
0010
0100
0001
0010
0000
,  // measure 4
0000
0000
0001
0000
0100
0000
0000
0000
0010
0100
0000
0001
0000
0001
1000
0000
,  // measure 5
0000
0001
0010
0110
2002
0000
3003
0000
,  // measure 6
0001
0100
0000
0000
0001
0000
0010
0100
0000
1000
0000
0000
1001
0000
0000
0000
,  // measure 7
0001
0100
0000
0001
0000
0001
1000
0020
0000
0000
0000
0000
0130
0000
0000
0000
,  // measure 8
1000
0010
0000
0000
1000
0000
0100
0010
0000
0001
0000
0000
1001
0000
0000
0000
,  // measure 9
1000
0010
0000
0000
1000
0000
0020
0000
0002
0000
0000
0000
0033
0000
0000
0000
,  // measure 10
0010
0000
0010
0000
0010
0000
1000
0100
1000
0100
0010
0001
0010
0001
0000
0001
,  // measure 11
0100
0100
0100
0110
2002
0000
3003
0000
,  // measure 12
1000
0000
0100
0000
0001
0000
0100
0000
1000
0000
0010
0000
0100
0010
0000
0100
,  // measure 13
0001
0000
0010
0000
1000
0000
0010
0000
0011
0000
0000
0000
0001
1000
0000
0000
,  // measure 14
0020
0000
0100
0000
,  // measure 15
0001
0000
0000
0000
0000
0000
0000
0000
0030
0000
0000
0000
1000
0001
0000
0000
,  // measure 16
0020
0000
0100
0000
,  // measure 17
1000
0000
0030
0000
,  // measure 18
0001
0000
0000
0001
0000
0000
0001
0000
0100
0010
0000
0010
0000
0010
1000
0100
,  // measure 19
0000
0000
0100
0010
0000
0000
0000
0000
0001
0000
0000
0000
1000
0000
0000
0000
,  // measure 20
2002
0000
0000
0000
,  // measure 21
0000
3000
0000
0000
,  // measure 22
0000
0000
0003
0000
,  // measure 23
0010
0000
0010
0000
0010
0010
0010
0001
,  // measure 24
1000
0010
0100
1000
0100
0001
0100
0100
,  // measure 25
0001
0010
0100
1000
0001
0000
0010
0010
,  // measure 26
0001
0100
0010
0001
0010
1000
0010
0010
,  // measure 27
1000
0000
0100
0000
0010
0000
0001
0000
1000
0000
0000
0000
0100
1000
0010
0100
,  // measure 28
0001
0000
1000
0001
0000
1000
0000
0100
0000
0010
0000
0000
0001
0010
0001
0010
,  // measure 29
0001
0000
1000
0010
0000
0100
0000
0001
0000
0000
0000
0000
1000
0010
1000
0010
,  // measure 30
1000
0100
0000
0010
0000
0001
0000
0100
0000
0000
0010
0000
1000
0100
1000
0100
,  // measure 31
1000
0001
0000
0010
0000
0001
0000
1000
0000
0000
0000
0000
0001
0010
0100
1000
,  // measure 32
0020
0000
0000
0100
0000
0000
0230
0000
0001
0000
0000
0002
0300
0000
1000
0000
,  // measure 33
2000
0003
0000
0100
0000
0000
3000
1000
0000
0100
0000
0010
0000
0001
0000
0000
,  // measure 34
0200
0000
0000
0010
0000
0000
0320
0000
1000
0000
0000
2000
0030
0000
0001
0000
,  // measure 35
0002
3000
0000
1000
0000
0000
0003
0001
0000
0010
0000
0100
1000
0000
0000
1000
,  // measure 36
0002
0000
0000
0000
,  // measure 37
2000
0000
0000
0000
,  // measure 38
3003
0000
0000
0000
;
