#TITLE:怒れる大きな白い馬;
#SUBTITLE:~S.S.D.の役~;
#ARTIST:M.B.D Rmx by S.S.D.;
#TITLETRANSLIT:Ikareru Ooki na Shiroi Uma;
#SUBTITLETRANSLIT:~S.S.D no Yaku~;
#ARTISTTRANSLIT:;
#CREDIT:;
#BANNER:[16ths Week] - Ikareru Ooki na Shiroi Uma ~S.S.D no Yaku~.png;
#BACKGROUND:[16ths Week] - Ikareru Ooki na Shiroi Uma ~S.S.D no Yaku~-background.png;
#LYRICSPATH:;
#CDTITLE:;
#MUSIC:Ikareru Ooki na Shiroi Uma ~S.S.D no Yaku~.mp3;
#OFFSET:-0.563;
#SAMPLESTART:73.700;
#SAMPLELENGTH:12.000;
#SELECTABLE:YES;
#BPMS:0.000=148.000,125.000=110.000,133.000=116.000,141.000=118.000,143.000=119.000,148.000=120.000,150.000=129.000,151.000=131.000,152.000=133.000,153.000=140.020,156.000=141.000,157.000=142.000,160.000=145.000,165.000=152.000,168.000=150.000,168.500=145.000,169.000=148.000;
#STOPS:52.000=1.216
,146.000=0.030
;
#BGCHANGES:;

//---------------dance-single - ----------------
#NOTES:
     dance-single:
     :
     Hard:
     8:
     0.470,0.524,0.128,0.128,0.489: // measure 1
0000
0000
0000
0000
,  // measure 2
0000
0000
0000
0000
,  // measure 3
0000
0000
0000
0000
,  // measure 4
0000
0000
0000
0000
,  // measure 5
0001
0000
0000
0100
0000
0000
1000
0000
0000
0100
0000
0000
0010
0000
0000
0000
,  // measure 6
0100
0000
0000
0010
0000
0000
0001
0000
0000
0010
0000
0000
1000
0000
0000
0000
,  // measure 7
0100
0000
0000
0010
0000
0000
0001
0000
0000
0010
0000
0000
0100
0000
0000
0000
,  // measure 8
0110
0011
0101
1010
,  // measure 9
1001
0000
0000
0000
0001
0000
0000
0010
0100
0000
0000
0000
0000
0000
0000
0100
,  // measure 10
0010
0000
0000
0010
0001
0000
0000
0000
0000
0000
0000
0000
0000
0000
0001
0000
,  // measure 11
0100
0000
0000
0000
0000
0000
0010
0000
0100
0000
0000
0000
0001
0000
0000
1000
,  // measure 12
0200
0000
0000
0000
,  // measure 13
0020
0000
0000
0000
,  // measure 14
0330
0000
0000
0000
0100
0000
0010
0000
0001
0000
1000
0000
0010
1000
0000
1000
,  // measure 15
0010
0000
0100
0000
0001
0000
1000
0000
0100
0000
0010
0000
0100
0000
1000
0001
,  // measure 16
0000
0000
0000
0000
0100
0000
0010
0000
1000
0000
0001
0000
0100
0001
0000
1000
,  // measure 17
0010
0000
0100
0000
0001
0000
1000
0000
0100
0000
0010
0000
0100
0000
0010
0001
,  // measure 18
0000
0000
0000
0000
1001
0000
0001
0100
0001
0000
0100
0000
0010
1000
0000
0010
,  // measure 19
1000
0000
0010
0000
0100
0000
0001
0100
0001
0000
0100
0000
0001
0000
1000
0100
,  // measure 20
0000
0000
0000
0000
0010
0000
0001
0010
0001
0000
0010
0000
0100
0000
0010
0000
,  // measure 21
0001
0000
1000
0000
0010
0000
0100
0001
0100
0000
0010
0000
1000
0000
0001
0010
,  // measure 22
0000
0100
0010
0001
,  // measure 23
0010
0000
0001
0000
1000
0000
0010
0100
,  // measure 24
1001
0000
0000
0000
0001
0000
0000
0001
0100
0000
0000
0100
0010
0000
0000
0010
,  // measure 25
1000
0000
0000
0000
1010
0000
0000
1000
0010
0000
0000
0010
0100
0000
0001
0000
,  // measure 26
1000
0000
0000
0000
0100
0000
0000
0010
0001
0000
0000
0001
1000
0000
0000
1000
,  // measure 27
0100
0000
0000
0000
0110
0000
0000
0010
0001
0000
0000
0001
1000
0000
0010
0000
,  // measure 28
0100
0000
0000
0000
0001
0000
0000
0100
0001
0000
0000
0001
1000
0000
0000
1000
,  // measure 29
0001
0000
0000
0000
1000
0000
0000
0010
0100
0000
0000
0100
0010
0000
1000
0000
,  // measure 30
0001
0000
0000
0000
1000
0000
0000
1000
0100
0000
0000
0100
0010
0000
0000
0010
,  // measure 31
0001
0000
0000
0000
0001
0100
0000
0100
0000
0100
0000
0100
0000
0100
0000
0100
,  // measure 32
0000
0100
0010
0000
1001
0000
0000
0000
0000
0000
0000
0000
0000
0000
0000
0000
,  // measure 33
0000
0000
0000
0000
,  // measure 34
0000
0000
0000
0000
0010
0100
0001
0000
,  // measure 35
0000
1000
0100
0001
0100
0000
0000
0000
,  // measure 36
0000
0010
0100
0000
0000
0100
1000
0000
,  // measure 37
0001
2000
0000
0000
,  // measure 38
0000
3000
0000
0000
,  // measure 39
0000
1000
1000
0001
0010
0200
0000
0000
,  // measure 40
0300
1000
1000
0100
0010
0200
0000
0000
,  // measure 41
0310
0001
2000
0000
0000
0000
3002
0000
,  // measure 42
0000
0000
0000
0000
1003
0000
1000
0000
0001
0000
0001
0000
0010
0100
0000
0100
,  // measure 43
1000
0001
1000
0000
0000
0010
0200
0000
,  // measure 44
0301
0010
0200
0000
0310
0100
0001
0100
,  // measure 45
1000
0000
0001
0000
0100
0000
0000
0001
0100
0000
0010
0000
1000
0000
0000
1000
,  // measure 46
0100
0010
0001
1000
0010
1000
0100
1000
,  // measure 47
0100
0010
0200
0000
0300
1000
0020
0000
,  // measure 48
0130
0001
2000
0000
3001
0010
1000
0010
,  // measure 49
0100
0000
0010
0000
0001
0000
0000
1000
0100
0000
0000
0100
0010
0000
0000
0010
,  // measure 50
0001
0000
0000
0001
0100
0000
0000
0100
0010
0000
0000
0010
1000
0000
0001
0000
,  // measure 51
0100
0000
0010
0000
1000
0100
0000
0100
0000
0100
0000
0100
0000
0100
0000
0100
,  // measure 52
0010
0000
0000
0000
0010
0001
0000
0001
0000
0001
0000
0001
0000
0001
0000
0001
,  // measure 53
1000
0000
0000
0000
0001
0100
0000
0100
0000
0100
0000
0100
0000
0100
0000
0100
,  // measure 54
0010
0000
0000
0000
1000
0100
0000
0100
0000
0100
0000
0100
0000
0100
0000
0100
,  // measure 55
0010
0000
0000
0000
0001
0010
0000
0100
0000
0010
0000
0001
0000
0100
0000
0010
,  // measure 56
1000
0000
0000
0000
1000
0001
0000
0100
0000
0001
0000
0010
0000
0001
0000
1000
,  // measure 57
0010
0000
0000
0000
0100
0001
0000
0010
0000
1000
0000
0010
0000
0100
0000
1000
,  // measure 58
0010
0000
0000
0000
0010
0100
0000
0001
0000
0010
0000
1000
0000
0010
0000
0100
,  // measure 59
1000
0000
1001
0000
0110
0000
0001
1000
,  // measure 60
0110
2002
0000
0000
,  // measure 61
0000
3003
0000
0000
;

//---------------dance-single - ----------------
#NOTES:
     dance-single:
     :
     Challenge:
     9:
     0.681,0.772,0.174,0.293,0.668: // measure 1
0000
0000
0000
0000
,  // measure 2
0000
0000
0000
0000
,  // measure 3
0000
0000
0000
0000
,  // measure 4
0000
0000
0000
0000
,  // measure 5
0001
0100
0000
0100
0001
0000
0001
0010
0000
0010
0100
0000
1000
0000
0000
0000
,  // measure 6
1000
0100
0000
0100
1000
0000
1000
0001
0000
0001
0100
0000
0010
0000
0000
0000
,  // measure 7
0100
0001
0000
0001
0010
0000
0010
0100
0000
0100
1000
0000
0001
0000
0000
0000
,  // measure 8
1100
0011
0101
1010
,  // measure 9
1001
0000
0000
0000
0001
0000
1000
0001
0100
0000
0000
0000
0000
0000
0010
0100
,  // measure 10
0001
0000
0010
0100
2000
0000
0000
0000
0000
0000
0000
0000
3000
0000
1000
0100
,  // measure 11
0020
0000
0000
0000
0030
0000
0001
0000
0010
0000
0000
0000
0100
0000
1000
0001
,  // measure 12
0100
0100
0100
0100
,  // measure 13
0010
1000
0010
1000
0010
1000
0010
1000
0010
1000
0010
1000
0010
1000
0010
1000
,  // measure 14
0020
0030
0000
0000
0100
0000
0001
1000
0001
0000
0100
0000
0010
1000
0100
0010
,  // measure 15
0001
0000
1000
0000
0001
0000
0100
0010
0100
0000
0010
0000
1000
0100
1000
0002
,  // measure 16
0000
0000
0003
0000
1000
0000
0001
0010
0100
0000
0010
0000
0001
1000
0100
0010
,  // measure 17
0001
0000
1000
0000
0010
0000
0100
0001
0010
0000
0100
0000
0100
1000
0001
2000
,  // measure 18
0000
0000
3000
0000
0001
0000
0010
0100
1000
0000
0100
0000
1000
0010
0100
0001
,  // measure 19
1000
0000
0100
0000
1000
0000
0010
0100
0010
0000
0100
0000
0001
0010
0100
0020
,  // measure 20
0000
0000
0000
0000
0130
0000
0100
1000
0010
0000
0100
0000
0010
1000
0001
0010
,  // measure 21
0100
0000
0010
0000
0001
0000
0100
0010
1000
0000
0001
0000
1000
0100
1000
0002
,  // measure 22
0000
1003
0011
0100
,  // measure 23
1010
0000
0100
0000
0011
0000
0100
1010
,  // measure 24
0101
0000
0000
0000
0001
0100
0001
0000
0001
1000
0001
0000
0001
0010
0001
0000
,  // measure 25
0020
0000
0000
0000
0031
0100
0001
0000
0100
0010
0100
0000
0010
0000
1000
0000
,  // measure 26
0020
0000
0000
0000
1030
0010
1000
0000
1000
0001
1000
0000
1000
0100
1000
0000
,  // measure 27
0200
0000
0000
0000
1300
0010
1000
0000
0010
0100
0010
0000
0100
0000
0001
0000
,  // measure 28
0200
0000
0000
0000
0301
0010
0100
0000
0010
0100
1000
0000
1000
0100
0010
0000
,  // measure 29
0002
0000
0000
0000
1003
0001
1000
0000
0100
0010
0100
0000
0010
0000
0100
0000
,  // measure 30
0002
0000
0000
0000
1003
0001
0100
0000
0010
0100
0001
0000
0001
0010
0100
0000
,  // measure 31
1000
0000
0000
0000
1000
0001
0000
0001
0000
0001
0000
0001
0000
0001
0000
0001
,  // measure 32
0000
0001
0001
0000
0202
0000
0000
0000
0000
0000
0000
0000
0000
0000
0000
0000
,  // measure 33
0000
0000
0000
0000
,  // measure 34
0000
0000
0303
0000
0001
0100
1000
0000
,  // measure 35
0000
0000
1000
0100
0010
0000
0100
0001
2000
0000
0000
0000
0000
0000
3000
0000
,  // measure 36
0000
0000
0100
0010
0002
0000
0000
0000
0003
0000
1000
0000
0002
0000
0000
0000
,  // measure 37
0203
0320
0000
0000
,  // measure 38
0030
0000
0000
0000
0010
0100
0001
1000
0010
1000
0001
1000
0001
0010
0100
0010
,  // measure 39
0001
1000
0010
1000
0001
0000
0010
0100
1000
0000
0002
0000
0000
0000
0000
0000
,  // measure 40
0003
0000
1000
0100
0010
0000
0100
0010
0001
0000
2000
0000
0000
0000
0000
0000
,  // measure 41
3010
0100
0102
0000
0013
0000
2100
0000
,  // measure 42
3010
0000
0000
0000
0100
0000
0100
0000
0001
0000
0001
0000
1000
0001
0000
0001
,  // measure 43
0010
0000
0100
0000
2000
0000
0000
0000
0000
0000
3100
0010
0002
0000
0000
0000
,  // measure 44
1003
0001
0010
0100
2000
0000
0000
0000
3001
1000
0010
1000
0010
0000
0100
0000
,  // measure 45
0001
0000
0001
0000
0100
0000
0010
0100
0001
0000
1000
0100
0010
0000
0100
1000
,  // measure 46
0001
0000
1000
0000
0010
0000
0100
0001
0010
0000
0010
1000
0100
0000
0100
0010
,  // measure 47
0001
0000
1000
0001
0200
0000
0000
0000
0000
0000
0310
1000
0020
0000
0000
0000
,  // measure 48
0130
0010
1000
0100
0020
0000
0000
0000
0130
0010
0001
1000
0010
0000
1000
0000
,  // measure 49
0100
0000
0010
0000
0100
0000
1000
0001
0100
0000
0100
0010
1000
0000
0001
1000
,  // measure 50
0100
0000
0010
0000
0001
0010
0001
0010
0001
1000
0001
1000
0010
0100
0010
1000
,  // measure 51
0001
1000
0010
1000
0001
0000
1000
0001
1000
0000
0001
1000
0001
0000
1000
0001
,  // measure 52
1000
0000
0010
0000
0100
0000
0001
0100
0001
0000
0100
0001
0100
0000
0001
0100
,  // measure 53
0001
0000
0100
0000
0010
0000
1000
0010
1000
0000
0010
1000
0010
0000
1000
0010
,  // measure 54
1000
0000
0010
0000
0100
0000
0001
1000
0001
0000
1000
0001
1000
0000
0001
1000
,  // measure 55
0001
0000
1000
0000
0100
0010
0000
0010
0001
0000
0001
0100
0000
0100
0010
0000
,  // measure 56
1000
0000
0010
0000
0100
0001
0000
0001
0010
0000
0010
0100
0000
0100
1000
0000
,  // measure 57
0001
0000
1000
0000
0010
0100
0000
0100
0001
0000
0001
1000
0000
1000
0010
0000
,  // measure 58
0010
0000
0100
0000
0001
0100
0000
0010
1000
0000
1000
0100
0000
0010
0001
0000
,  // measure 59
1000
0010
0110
0000
0101
0000
1010
0101
,  // measure 60
0011
2002
0000
0000
,  // measure 61
0000
3003
0000
0000
;

//---------------dance-single - ----------------
#NOTES:
     dance-single:
     :
     Medium:
     6:
     0.380,0.496,0.503,0.119,0.032: // measure 1
0000
0000
0000
0000
,  // measure 2
0000
0000
0000
0000
,  // measure 3
0000
0000
0000
0000
,  // measure 4
0000
0000
0000
0000
,  // measure 5
1001
0001
0100
0010
,  // measure 6
1010
0010
0100
0001
,  // measure 7
0011
0100
1000
0010
,  // measure 8
0110
1001
0110
1001
,  // measure 9
0110
0100
0001
0000
,  // measure 10
1000
0000
0100
0000
0000
0000
0000
0010
,  // measure 11
0001
0000
0000
0010
0100
0000
1000
0000
,  // measure 12
0020
0000
0000
0000
,  // measure 13
0200
0000
0000
0000
,  // measure 14
0330
0100
0101
0001
,  // measure 15
0101
0000
0100
0000
0101
0000
0001
1000
,  // measure 16
0010
0100
0110
0010
,  // measure 17
0110
0000
0100
0000
0110
0000
0010
0100
,  // measure 18
0001
1000
1100
0100
,  // measure 19
0110
0000
0010
0000
0011
0000
0001
0100
,  // measure 20
0010
0100
0101
0001
,  // measure 21
0011
0010
0110
0100
,  // measure 22
1100
0100
1000
0000
,  // measure 23
0001
0000
0000
0000
0100
0000
0000
0010
,  // measure 24
0100
1010
1000
0010
,  // measure 25
0100
0000
1001
0000
1000
0000
0100
0010
,  // measure 26
0100
1100
0100
0010
,  // measure 27
0001
0000
1001
0000
0001
0000
0100
0100
,  // measure 28
0001
0101
0001
0100
,  // measure 29
0010
0000
1010
0000
0010
0000
0100
0100
,  // measure 30
0001
1001
1000
0100
,  // measure 31
0010
0000
0000
0000
0001
0100
0000
0010
0000
1000
0000
0010
0000
0100
0000
0001
,  // measure 32
0000
1000
0100
0000
0010
0000
0000
0000
0000
0000
0000
0000
0000
0000
0000
0000
,  // measure 33
0000
0000
0000
0000
,  // measure 34
0000
0000
0000
0000
1000
0001
0100
0000
,  // measure 35
0000
0000
0001
0100
0010
0000
0000
0000
,  // measure 36
0000
0100
0001
0000
0000
1000
0100
0000
,  // measure 37
0010
0200
0000
0000
,  // measure 38
0000
0000
0000
0300
0000
0000
0000
0000
,  // measure 39
0000
0010
0001
1000
0010
2000
0000
0000
,  // measure 40
3000
0010
0100
0001
1000
0002
0000
0000
,  // measure 41
1003
0100
0020
0000
0000
0000
0230
0000
,  // measure 42
0000
0000
1300
0100
0010
0001
1000
0100
,  // measure 43
0010
0001
1000
0000
0000
0001
0100
0000
,  // measure 44
0010
0100
0001
0000
0100
0010
1000
0001
,  // measure 45
1000
0001
1000
0000
0100
0000
0001
0000
,  // measure 46
0100
0010
0100
1000
,  // measure 47
0010
0000
0100
0000
0000
0001
0100
0000
,  // measure 48
0010
0100
0010
0000
0100
0001
1000
0100
,  // measure 49
0001
0100
1000
0000
0010
0000
0100
0000
,  // measure 50
0001
1001
0101
1001
,  // measure 51
1100
1200
1000
1000
,  // measure 52
1300
0210
0010
0010
,  // measure 53
0310
0012
0010
0010
,  // measure 54
0013
0201
0001
0001
,  // measure 55
0301
0000
0001
0101
0000
1010
0000
0101
,  // measure 56
0000
1010
0000
1100
0000
0011
0000
0110
,  // measure 57
1001
0000
0000
0101
0000
1010
0000
1001
,  // measure 58
0000
1100
0000
0011
0000
1100
0000
0011
,  // measure 59
1100
0000
0101
0000
1010
0000
0001
0100
,  // measure 60
1000
0220
0000
0000
,  // measure 61
0000
0330
0000
0000
;

//---------------dance-single - ----------------
#NOTES:
     dance-single:
     :
     Easy:
     3:
     0.247,0.331,0.201,0.137,0.000:
0000
0000
0000
0000
,
0000
0000
0000
0000
,
0000
0000
0000
0000
,
0000
0000
0000
0000
,
1001
0000
0000
0000
,
0110
0000
0000
0000
,
1001
0000
0000
0000
,
0110
0110
1001
1001
,
0110
0100
0010
0000
,
0100
1000
0000
0000
,
0001
0000
0100
0010
,
0010
0000
0000
0000
,
0200
0000
0000
0000
,
0300
0001
1000
0100
,
1000
0001
0100
0001
,
0001
1000
0010
1000
,
0001
0010
0001
1000
,
1000
0100
0010
0001
,
0010
0100
0010
0001
,
1000
0010
0100
0010
,
1000
0010
0100
0010
,
0100
0000
0001
0000
,
1000
0000
0001
0000
,
1000
0010
0010
0010
,
0010
0000
0100
0000
0100
0000
0100
0010
,
0100
0001
0001
0001
,
0001
0000
1000
0000
1000
0000
1000
0001
,
1000
0100
0010
0001
,
1000
0000
0001
0000
0010
0000
0100
1000
,
0100
1000
0010
0100
,
0001
1000
0100
0010
,
0001
1001
0000
0000
,
0000
0000
0000
0000
,
0000
0000
0001
0100
,
0000
0001
1000
0000
,
0000
0100
0000
0010
,
0001
0100
0000
0000
,
0000
0010
0000
0000
,
0000
0100
0010
0000
,
0000
0010
1000
0000
,
0001
1000
0000
0100
,
0000
1100
0011
0101
,
1010
1001
0000
0001
,
0100
0001
0100
0010
,
0100
0001
1000
0100
,
1000
0010
0100
0001
,
1000
1100
0000
0011
,
0001
0011
0000
0001
,
0100
0001
0001
1000
,
1000
0100
0010
0100
,
1000
0020
0000
0000
,
0030
0200
0000
0000
,
0300
0002
0000
0000
,
0003
2000
0000
0000
,
3000
2020
0000
0000
,
3030
0202
0000
0000
,
0303
0022
0000
0000
,
0033
2200
0000
0000
,
3300
0000
0001
0000
1000
0000
0001
1000
,
0001
0220
0000
0000
,
0000
0330
0000
0000
;

//---------------dance-single - ----------------
#NOTES:
     dance-single:
     :
     Beginner:
     1:
     0.132,0.271,0.101,0.000,0.000:
0000
0000
0000
0000
,
0000
0000
0000
0000
,
0000
0000
0000
0000
,
0000
0000
0000
0000
,
0001
0000
0000
0000
,
1000
0000
0000
0000
,
0001
0000
0000
0000
,
0100
0100
0100
0100
,
0100
0000
0000
0000
,
0001
0000
0000
0000
,
0010
0000
0100
0100
,
1000
0000
0000
0000
,
0001
0000
0000
0000
,
0000
0001
0000
0000
,
0000
0100
0000
0001
,
0000
1000
0000
0000
,
0000
1000
0000
0100
,
0000
1001
0000
0000
,
0000
0001
0000
0100
,
0000
0010
0000
0000
,
0000
0100
0000
0001
,
0000
1000
0000
0000
,
0000
0000
0000
0000
,
0000
0001
0000
0001
,
0000
0001
0000
0001
,
0001
1000
0000
1000
,
0000
1000
0000
1000
,
1000
0010
0000
0010
,
0000
0010
0000
0010
,
0010
0100
0000
0100
,
0000
0100
0000
0010
,
0000
1001
0000
0000
,
0000
0000
0000
0000
,
0000
0000
0001
0000
,
0000
1000
0000
0000
,
0000
0100
0000
1000
,
1000
1000
0000
0000
,
0000
0001
0000
0000
,
0000
1001
0000
0000
,
0000
1001
0000
0000
,
0000
1001
0000
1001
,
0000
1001
0110
1001
,
0000
0001
0000
0001
,
0000
0100
0000
0001
,
0001
1000
0000
0100
,
0000
1000
0000
0010
,
0000
0100
0000
0000
,
0000
0010
0000
0000
,
0100
0100
0000
0001
,
0000
1000
1000
1000
,
1000
1001
0000
0000
,
0000
0001
0000
0000
,
0000
0100
0000
0000
,
0000
0001
0000
0000
,
0000
1000
0000
0000
,
0000
0100
0000
0000
,
0000
1000
0000
0000
,
0000
0010
0000
0000
,
0000
0100
0000
0010
,
0000
1001
0000
0000
;
