#TITLE:I'M A SLAVE 4 U;
#SUBTITLE:;
#ARTIST:BRITNEY SPEARS;
#TITLETRANSLIT:;
#SUBTITLETRANSLIT:;
#ARTISTTRANSLIT:;
#GENRE:;
#CREDIT:;
#BANNER:I'M A SLAVE 4 U - BN.png;
#BACKGROUND:I'M A SLAVE 4 U - BG.jpg;
#LYRICSPATH:;
#CDTITLE:;
#MUSIC:I'M A SLAVE 4 U.ogg;
#OFFSET:-1.697000;
#SAMPLESTART:44.675999;
#SAMPLELENGTH:12.000000;
#SELECTABLE:YES;
#BPMS:0.000000=110.000000
;
#STOPS:
;
#BGCHANGES:;
#KEYSOUNDS:;
#ATTACKS:;

//---------------dance-single - Blank----------------
#NOTES:
     dance-single:
     :
     Hard:
     7:
     0.409460,0.357528,0.049934,0.129829,0.179763,269.000000,5.000000,13.000000,0.000000,0.000000,0.000000,0.409460,0.357528,0.049934,0.129829,0.179763,269.000000,5.000000,13.000000,0.000000,0.000000,0.000000:
// measure 0
0000
0000
0000
0000
,  // measure 1
0000
0000
0000
0000
,  // measure 2
0001
0010
0100
0000
0010
0100
1000
0000
,  // measure 3
0010
0000
0000
0100
0000
0001
0000
0010
0000
0000
0100
0000
1000
0000
0000
0000
,  // measure 4
0010
0000
0000
0100
0000
0001
0000
1000
0000
0010
0000
0100
0000
0000
0001
0000
,  // measure 5
0010
0000
0000
0100
0000
1000
0000
0010
0000
0000
0100
0000
0001
0000
0000
0000
,  // measure 6
0010
0100
1000
0000
0100
1000
0010
0000
,  // measure 7
0100
0001
0010
0100
1000
0000
1010
0000
,  // measure 8
0000
0001
0001
0000
0100
0100
0000
1001
,  // measure 9
0000
1000
1000
0000
0100
0100
0000
1001
,  // measure 10
1000
0100
0100
0000
0010
0010
0000
1001
,  // measure 11
0001
0001
0100
0100
0010
0010
1000
1000
,  // measure 12
0001
0000
0000
1000
0000
0010
0000
0100
0000
0000
0001
0000
1000
0000
0000
0000
,  // measure 13
0010
0000
0000
0100
0000
0001
0000
0010
0000
0000
0100
0000
1000
0000
0000
0000
,  // measure 14
0001
0010
0100
0000
1000
0010
0100
0001
,  // measure 15
0010
0100
1000
0010
0100
0000
1001
0001
,  // measure 16
0100
0010
0100
0001
0010
0100
0010
0000
,  // measure 17
0001
0000
0001
1000
0000
0010
0000
0100
0000
0000
0001
0000
0100
0000
0000
0000
,  // measure 18
0010
1000
0001
0010
0100
1000
0010
0100
,  // measure 19
0001
1000
0010
1000
0001
0000
0010
0001
,  // measure 20
1000
1000
2000
0000
,  // measure 21
0001
0000
0000
3000
0001
0000
0100
0000
0010
0000
0000
0000
0010
0000
0000
0000
,  // measure 22
0100
0001
0010
0100
1000
0010
0100
0000
,  // measure 23
0010
1000
0100
0010
0001
0100
0010
0100
,  // measure 24
0001
0001
0002
0000
,  // measure 25
1000
0000
1003
0010
0100
0000
0100
0000
,  // measure 26
0010
1000
0001
0010
0100
1000
0001
0000
,  // measure 27
0100
0010
1000
0001
0010
0100
1000
0000
,  // measure 28
0001
0000
0000
1000
0000
0000
0001
0000
0010
0000
0100
0000
2000
0000
0000
0000
,  // measure 29
3010
0000
0000
0100
0000
0000
0010
0000
1000
0000
0002
0000
0020
0000
0033
0000
,  // measure 30
0100
0000
0000
1000
0000
0000
0100
0000
0010
0000
0001
0000
0200
0000
0000
0000
,  // measure 31
0301
0010
0100
0010
0001
0200
0020
0330
,  // measure 32
0100
0000
0000
0001
0000
0000
0100
0000
0010
0000
1000
0000
0002
0000
0000
0000
,  // measure 33
0013
0000
0000
0100
0000
0000
0010
0000
0001
0000
2000
0000
0020
0000
3030
0000
,  // measure 34
0100
0000
0000
0001
0000
0000
1000
0000
0001
0000
0010
0000
0100
1000
0010
1000
,  // measure 35
0010
0000
0100
0001
0000
1000
0000
0001
0000
0000
0000
0000
0100
0000
0010
0000
,  // measure 36
1000
1000
2000
0000
,  // measure 37
0001
0000
3001
0010
0100
0000
0100
0000
,  // measure 38
1000
0100
0010
0001
0100
0010
1000
0000
,  // measure 39
0001
0000
0010
0000
0100
0000
1000
0001
0000
1000
0100
0000
0010
0000
0001
0000
,  // measure 40
0100
0100
0200
0000
,  // measure 41
0010
0000
0310
1000
0001
0000
0001
0000
,  // measure 42
0010
0100
1000
0001
0100
0010
1000
0000
,  // measure 43
0100
0000
1000
0000
0001
0000
0010
0001
0000
1000
0001
0000
0100
0000
0010
0000
,  // measure 44
1000
0000
0000
0000
0001
0000
1000
0000
0010
0100
0001
0000
1000
0000
0000
0000
;

//---------------dance-single - Blank----------------
#NOTES:
     dance-single:
     :
     Easy:
     2:
     0.152656,0.178764,0.029960,0.039947,0.000000,100.000000,3.000000,4.000000,0.000000,0.000000,0.000000,0.152656,0.178764,0.029960,0.039947,0.000000,100.000000,3.000000,4.000000,0.000000,0.000000,0.000000:
0000
0000
0000
0000
,
0000
0000
0000
0000
,
1000
0000
1000
0000
,
0010
0000
0010
0000
,
0001
0000
0001
0000
,
0100
0000
0100
0000
,
0010
0000
0010
0000
,
1000
0000
1000
0000
,
0100
0100
0010
0000
,
0001
0001
1000
0000
,
0010
0010
0100
0000
,
1000
1000
0001
0001
,
0100
0000
0100
0000
,
0001
0000
0001
0000
,
0010
0000
0010
0000
,
1000
0000
1000
0000
,
0100
0000
0100
0000
,
1001
1001
0110
0000
,
0001
0000
0001
0000
,
1000
0000
1000
0000
,
0001
0001
0002
0000
,
1000
0000
1003
0000
,
1000
0000
1000
0000
,
0010
0010
0010
0000
,
1000
1000
2000
0000
,
0000
0000
3001
0000
,
0001
0001
0001
0000
,
1000
1000
1000
0000
,
0010
0000
0010
0000
,
0001
0000
0001
0000
,
0100
0000
0100
0000
,
1000
1000
1000
0000
,
0010
0000
0010
0000
,
1000
0000
1000
0000
,
0100
0000
0100
0000
,
0001
0001
0001
0000
,
0100
0100
0200
0000
,
0000
0000
0310
0000
,
0001
0000
0001
0000
,
1000
0000
1000
0000
,
0010
0010
0020
0000
,
0000
0000
0130
0000
,
0001
0000
1000
0000
,
0010
0000
0100
0000
,
0001
0001
1000
0010
;

//---------------dance-single - ----------------
#NOTES:
     dance-single:
     :
     Medium:
     5:
     0.298178,0.290492,0.019974,0.229697,0.000000,184.000000,2.000000,23.000000,0.000000,0.000000,0.000000,0.298178,0.290492,0.019974,0.229697,0.000000,184.000000,2.000000,23.000000,0.000000,0.000000,0.000000:
0010
0000
0001
0000
1000
0010
1000
0100
,
1000
0001
0200
0300
,
0010
0000
1000
0000
0001
0010
0001
0100
,
0001
1000
0200
0300
,
0010
0000
0100
0000
0001
1000
0001
0010
,
0001
1000
0020
0030
,
0100
0000
0010
0000
1000
0001
1000
0010
,
1000
0100
0010
0001
,
0000
1000
1000
0000
0001
0001
0000
1001
,
0000
1000
1000
0000
0001
0001
0000
1001
,
0000
1000
1000
0000
0001
0001
0000
0001
,
2000
3002
2003
3002
,
1003
0000
0100
0000
0010
0001
0100
0000
,
0010
0000
0100
0001
0020
0000
0030
0000
,
0100
1000
0100
0000
1000
0010
1000
0000
,
0100
0000
0010
0001
0200
0000
0300
0000
,
0010
0001
1000
0000
0010
1000
0001
0000
,
1000
0100
1000
0010
0100
0000
0000
0000
,
0001
0000
0100
0000
0010
1000
0100
0000
,
0010
0000
0001
0000
1000
0000
0001
1000
,
0000
0000
2000
0000
,
0000
0000
3000
0001
0020
0000
0030
0000
,
0001
1000
0010
0000
,
0100
0000
0001
0000
1000
0000
0010
0100
,
0000
0000
0200
0000
,
0000
0000
0300
0001
2000
0000
3000
0000
,
0100
0010
0001
0000
,
0001
0100
0010
0000
1000
0100
0010
0000
,
0001
0000
0002
0000
0003
0000
0010
0100
,
1000
0000
2000
0000
3000
0000
0001
0100
,
0010
0020
0030
0000
,
0100
0000
0001
1000
0001
0000
0000
0000
,
0010
0000
0020
0000
0030
0000
1000
0001
,
0100
0000
0200
0000
0300
0000
0010
1000
,
0001
0002
0003
0000
,
1000
0001
0100
0010
1000
0000
0100
0010
,
0000
0000
0020
0000
,
0000
0000
0030
0001
0200
0000
0300
0000
,
0000
0000
1000
0100
1000
0010
0100
0000
,
1000
0001
1000
0000
0010
0100
0001
1000
,
0000
0000
2000
0000
,
0000
0000
3000
0100
0020
0000
0030
0000
,
0001
0000
0100
0010
1000
0001
0000
0000
,
1000
0010
0100
0001
1000
0100
0000
0000
,
0010
0000
0001
0000
1000
0010
0100
0000
;

//---------------dance-single - ----------------
#NOTES:
     dance-single:
     :
     Beginner:
     1:
     0.108428,0.111103,0.009987,0.039947,0.000000,71.000000,1.000000,4.000000,0.000000,0.000000,0.000000,0.108428,0.111103,0.009987,0.039947,0.000000,71.000000,1.000000,4.000000,0.000000,0.000000,0.000000:
0010
0000
0000
0000
,
0010
0000
0000
0000
,
0100
0000
0000
0000
,
0100
0000
0000
0000
,
0001
0000
0000
0000
,
0001
0000
0000
0000
,
1000
0000
0000
0000
,
1000
0000
0000
0000
,
0010
0010
0000
0000
,
0010
0010
0000
0000
,
0100
0100
0000
0000
,
0100
0100
0100
0000
,
0001
0000
0000
0000
,
0001
0000
0000
0000
,
1000
0000
0000
0000
,
1000
0000
0000
0000
,
0010
0000
0010
0000
,
0010
0010
0010
0000
,
0100
0000
0000
0000
,
0100
0000
0000
0000
,
0000
0000
0002
0000
,
0003
0000
0001
0000
,
1000
0000
1000
0000
,
0010
0000
0010
0000
,
0000
0000
2000
0000
,
3000
0000
1000
0000
,
0001
0000
0001
0000
,
1000
0000
1000
0000
,
0010
0010
0000
0000
,
0100
0100
0000
0000
,
0010
0010
0000
0000
,
0100
0000
0100
0000
,
0001
0001
0000
0000
,
1000
1000
0000
0000
,
0001
0001
0000
0000
,
1001
0000
0000
0000
,
0000
0000
0020
0000
,
0030
0000
0010
0000
,
1000
0000
1000
0000
,
0001
0000
0001
0000
,
0000
0000
0200
0000
,
0300
0000
0100
0000
,
0010
0000
0010
0000
,
0100
0100
0100
0000
,
0010
0010
0010
0000
;
