#TITLE:Fascination (obsession Mix);
#SUBTITLE:;
#ARTIST:\;
#TITLETRANSLIT:;
#SUBTITLETRANSLIT:;
#ARTISTTRANSLIT:;
#CREDIT:;
#BANNER:[16ths Week] - Fascination (obsession Mix).png;
#BACKGROUND:[16ths Week] - Fascination (obsession Mix)-bg.png;
#LYRICSPATH:;
#CDTITLE:;
#MUSIC:[16ths Week] - Fascination (obsession Mix).mp3;
#OFFSET:0.000;
#SAMPLESTART:105.570;
#SAMPLELENGTH:17.000;
#SELECTABLE:YES;
#DISPLAYBPM:*;
#BPMS:0.000=100.000,48.000=50.000,56.000=400.000,248.000=200.000,352.000=25.000,353.000=200.000,361.000=50.000,362.000=100.000,363.000=200.000,364.000=400.000,462.000=200.000,472.500=1600.000,473.500=800.000,474.500=400.000,475.500=200.000,476.500=100.000,477.500=50.000;
#STOPS:463.000=0.150
,467.000=0.150
,469.500=0.150
;
#BGCHANGES:;

//---------------dance-single - ----------------
#NOTES:
     dance-single:
     :
     Hard:
     10:
     0.717,1.000,0.149,0.662,0.394: // measure 1
0000
0000
0000
0000
,  // measure 2
0000
0000
0000
0000
,  // measure 3
0000
0000
0000
0000
,  // measure 4
1000
0000
0100
0010
0100
0010
0100
0000
0001
0010
0001
0010
0001
0100
0001
0100
,  // measure 5
0001
1000
0100
0010
0000
0000
0000
1000
0100
0010
0100
0010
0100
0001
0100
0000
,  // measure 6
0000
0000
0000
0000
1000
0100
1000
0010
1000
0001
0010
0100
1000
0001
0010
0100
,  // measure 7
1000
0010
1000
0010
0100
0001
0010
0000
0000
0000
0000
0000
0010
0100
0001
0010
,  // measure 8
0100
0001
1000
0010
0100
0010
0100
0001
0010
1000
0100
0001
0010
0001
0100
0010
,  // measure 9
0110
0000
1010
0000
0011
0000
0000
0000
0001
0100
0010
1000
0001
0010
0100
1000
,  // measure 10
0002
0000
0000
2003
0000
0000
3020
0000
,  // measure 11
0000
0031
0100
1000
0002
0000
0000
0000
,  // measure 12
0103
0010
2000
0000
0000
3200
0000
0000
,  // measure 13
0002
0000
0000
0000
,  // measure 14
0000
0000
0000
0000
0000
0000
0000
0000
0000
0000
0000
0300
0100
0000
0000
0000
,  // measure 15
0013
0100
0001
0010
,  // measure 16
0100
0001
1000
0010
,  // measure 17
0100
0010
0001
0010
,  // measure 18
0001
0100
0010
0100
,  // measure 19
0001
1000
0010
0100
,  // measure 20
1000
0001
0100
0010
,  // measure 21
0100
0001
0010
0001
,  // measure 22
1000
0100
1000
0010
,  // measure 23
0100
1000
0001
0010
,  // measure 24
0001
0100
0010
0100
,  // measure 25
0001
0010
0100
1000
,  // measure 26
0001
0100
0010
0100
,  // measure 27
0001
0010
1000
0010
,  // measure 28
0100
0001
0010
0001
,  // measure 29
0100
0010
0100
0001
,  // measure 30
1000
0010
0100
0001
,  // measure 31
0020
0000
0000
0100
0000
0000
1030
0000
,  // measure 32
0002
0000
0000
0010
0000
0000
0013
0000
,  // measure 33
2000
0000
0000
0001
0000
0000
3001
0000
,  // measure 34
0200
1300
0002
0103
,  // measure 35
2000
0000
0000
0100
0000
0000
3010
0000
,  // measure 36
0200
0000
0000
1000
0000
0000
0310
0000
,  // measure 37
0002
0000
0000
1000
0000
0000
0103
0000
,  // measure 38
0020
0031
0020
0130
,  // measure 39
2000
0000
0000
3001
0000
0000
0010
0000
,  // measure 40
2000
0000
0000
3010
0000
0000
0001
0000
,  // measure 41
0200
0000
0000
1300
0000
0000
0002
0000
,  // measure 42
0013
0200
1300
0002
,  // measure 43
0203
0000
0000
0301
0000
0000
0001
0000
,  // measure 44
2000
0000
0000
3010
0000
0000
0100
0000
,  // measure 45
0002
0000
0000
0103
0000
0000
0020
0000
,  // measure 46
0031
0200
1300
0020
,  // measure 47
2030
0000
0000
3001
0000
0000
1000
0000
,  // measure 48
0020
0000
0000
0031
0000
0000
1000
0000
,  // measure 49
0002
0000
0000
1003
0000
0000
0020
0000
,  // measure 50
0130
0020
0031
0020
,  // measure 51
2030
0000
0000
3010
0000
0000
0100
0000
,  // measure 52
2000
0000
0000
3010
0000
0000
1000
0000
,  // measure 53
0002
0000
0000
0103
0000
0000
0200
0000
,  // measure 54
0310
0200
1300
2000
,  // measure 55
3002
0000
0000
0013
0000
0000
1000
0000
,  // measure 56
0200
0000
0000
1300
0000
0000
0001
0000
,  // measure 57
0020
0000
0000
0130
0000
0000
2000
0000
,  // measure 58
3100
0020
0031
0200
,  // measure 59
0320
0000
0000
1030
0000
0000
0100
0000
,  // measure 60
0200
0000
0000
0310
0000
0000
0001
0000
,  // measure 61
0200
0000
0000
0301
0000
0000
0002
0000
,  // measure 62
0013
2000
3100
0020
,  // measure 63
1030
0000
0000
0100
0010
0000
0000
0010
0001
0000
0000
0001
0100
0000
0000
0100
,  // measure 64
1000
0000
0000
1000
0010
0000
0000
0010
0001
0000
0000
0001
0100
0000
0000
0100
,  // measure 65
0010
1100
0101
0110
,  // measure 66
1010
0000
0000
1000
0001
0000
0000
0010
0100
0000
0000
0000
1000
0000
0010
0000
,  // measure 67
0001
0000
0000
0100
1000
0000
0000
0001
0100
0000
0000
0010
1000
0000
0000
0100
,  // measure 68
0001
0000
0000
0010
2000
0000
0000
0010
3200
0000
0000
0001
0320
0000
0000
0000
,  // measure 69
0130
0000
0000
0010
1000
0000
0000
1000
0100
0000
0000
0000
0010
0000
1000
0000
,  // measure 70
0010
0000
0000
0100
0001
0000
0000
0001
0010
0000
0000
0010
0100
0000
0000
0100
,  // measure 71
1000
0000
0000
0100
0020
0000
0000
0100
0032
0000
0000
0010
0203
0000
0000
0000
,  // measure 72
1300
0000
0000
0100
0010
0000
0000
0001
0010
0000
0000
0000
0010
0000
0100
0000
,  // measure 73
0010
0000
0001
0000
0010
0000
0000
0001
0010
0000
0000
0010
0100
0000
0000
0100
,  // measure 74
1000
0000
0000
1000
0010
0000
0000
0010
0001
0000
0000
0010
0100
0000
0000
0100
,  // measure 75
1000
1100
0100
0110
,  // measure 76
0010
0011
0001
0101
,  // measure 77
0100
0110
0010
1010
,  // measure 78
1000
1100
0100
0110
,  // measure 79
0011
0101
1001
0101
,  // measure 80
0100
0010
0100
0000
0001
0100
0001
0000
,  // measure 81
2000
0100
0010
3200
,  // measure 82
0001
0010
0302
1000
,  // measure 83
0100
0023
0230
2300
,  // measure 84
3002
0100
0010
1000
,  // measure 85
0203
0310
2000
3001
,  // measure 86
0020
1000
0001
0100
,  // measure 87
0130
0010
0100
1000
0100
0001
0010
0100
1000
0001
0010
0100
,  // measure 88
1000
0100
1000
0100
0010
0100
0010
0001
0010
0001
0010
0100
,  // measure 89
2000
0000
0000
3100
0010
0100
0001
0010
1000
0010
0100
0001
,  // measure 90
0010
0100
0001
0010
1000
0010
0100
0001
0010
0100
0001
0010
,  // measure 91
1000
0010
0001
0200
0000
0000
0000
0000
0000
0000
0000
0000
,  // measure 92
0000
0000
0301
0010
,  // measure 93
0001
0100
0001
0010
,  // measure 94
1000
0010
0100
0001
,  // measure 95
0010
1000
0100
0001
,  // measure 96
0010
1000
0010
0100
,  // measure 97
0001
0010
0001
0100
,  // measure 98
0010
0100
0001
0010
,  // measure 99
0100
1000
0001
0100
,  // measure 100
0010
0100
0001
0010
,  // measure 101
1000
0010
0100
1000
,  // measure 102
0100
1000
0010
0100
,  // measure 103
0001
0010
0100
1000
,  // measure 104
0001
0100
0010
0100
,  // measure 105
0010
1000
0001
0010
,  // measure 106
0100
1000
0001
0100
,  // measure 107
0010
0100
0001
0010
,  // measure 108
0001
0100
0020
0130
,  // measure 109
0020
0031
0200
0310
,  // measure 110
0002
0103
0020
0031
,  // measure 111
0200
1300
0020
0031
,  // measure 112
2000
3100
0002
0013
,  // measure 113
0200
0301
0020
0130
,  // measure 114
0002
1003
0200
0301
,  // measure 115
0020
1030
0002
0103
,  // measure 116
2000
0000
3010
0000
0100
0010
0001
1000
,  // measure 117
0100
0000
0001
0000
0100
0000
0010
0000
1000
0010
0001
0000
0010
0000
0100
0000
,  // measure 118
0001
0000
0010
0100
0010
0000
0001
0000
0100
0000
0001
0010
0001
0000
0001
0100
,  // measure 119
0001
0202
0000
0000
0000
0000
0000
0000
,  // measure 120
0000
0000
0000
0303
0000
0000
0000
0000
;

//---------------dance-single - ----------------
#NOTES:
     dance-single:
     :
     Medium:
     8:
     0.506,0.888,0.193,0.134,0.112:
0000
0000
0000
0000
,
0000
0000
0000
0000
,
0000
0000
0000
0000
,
1000
0000
0001
0100
0001
0000
0010
0000
0001
0100
0001
0000
0100
0000
1000
0010
,
1000
0000
0010
0100
0000
0000
0000
0000
0010
0100
0010
0100
0001
0000
0010
0000
,
0000
0000
0000
0000
0010
0100
0010
0000
1000
0010
1000
0000
0001
0100
0001
0000
,
0010
1000
0010
0000
0100
0010
0100
0000
0000
0000
0000
0000
0010
1000
0010
0000
,
0100
0000
0010
1000
0010
0000
0001
0000
0100
0010
0100
0000
0010
0000
0001
0000
,
1000
0100
0010
0000
0000
0000
0000
0000
,
1001
0000
0000
0110
0000
0000
0101
0000
,
0000
1000
0100
0010
0011
0000
0000
0000
,
0010
0001
0101
0000
0000
1010
0000
0000
,
0202
0000
0000
0000
,
0000
0000
0000
0000
0000
0000
0000
0000
0000
0000
0000
0300
0100
0000
0000
0000
,
0013
0001
0010
0000
,
0010
1000
0010
0000
,
0100
0010
0001
0000
,
0010
0100
0010
0000
,
1000
0100
0010
0000
,
0001
0010
0100
0000
,
0001
0010
1000
0000
,
0010
0001
0010
0000
,
0100
1000
0100
0000
,
0010
0001
0010
0000
,
0100
1000
0100
0000
,
0010
0001
0010
0000
,
0100
1000
0100
0000
,
0001
0010
0100
0000
,
0001
0010
0001
0000
,
1000
0010
1000
0000
,
0100
0000
0000
0001
0000
0000
0100
0000
,
0010
0000
0000
1000
0000
0000
0001
0000
,
0010
0000
0000
0100
0000
0000
0010
0000
,
1000
0010
0001
0010
,
0100
0000
0000
1000
0000
0000
0001
0000
,
0100
0000
0000
0010
0000
0000
1000
0000
,
0010
0000
0000
0010
0000
0000
1000
0000
,
0010
0001
0010
0001
,
0010
0000
0000
0100
0000
0000
0010
0000
,
0001
0000
0000
1000
0000
0000
0100
0000
,
1000
0000
0000
0010
0000
0000
1000
0000
,
0100
1000
0010
1000
,
0100
0000
0000
0010
0000
0000
0010
0000
,
0001
0000
0000
1000
0000
0000
0001
0000
,
0010
0000
0000
0100
0000
0000
0010
0000
,
1000
0010
1000
0010
,
1000
0000
0000
1000
0000
0000
0001
0000
,
0100
0000
0000
0010
0000
0000
0100
0000
,
0001
0000
0000
0100
0000
0000
1000
0000
,
0010
0001
0010
1000
,
0100
0000
0000
0010
0000
0000
0001
0000
,
0010
0000
0000
0100
0000
0000
0010
0000
,
0001
0000
0000
1000
0000
0000
0001
0000
,
0100
0010
0100
0010
,
1000
0000
0000
0100
0000
0000
0001
0000
,
0010
0000
0000
0010
0000
0000
0001
0000
,
0100
0000
0000
1000
0000
0000
0100
0000
,
0001
1000
0100
0010
,
0001
0000
0000
1000
0000
0000
0010
0000
,
0100
0000
0000
0001
0000
0000
1000
0000
,
0001
0000
0000
0010
0000
0000
0100
0000
,
1000
0001
0010
0100
,
1000
0100
0010
1000
,
0001
0010
0100
0001
,
0010
0011
0110
1100
,
1001
0000
0001
0000
0010
0000
1000
0100
,
0010
0100
1000
0001
,
0100
0000
0020
0030
0200
0300
0002
0003
,
0020
0030
1000
0000
0010
0000
0100
0010
,
0001
0010
0001
0100
,
0010
0200
1300
0020
,
0130
0000
1000
0000
0001
0000
0100
0001
,
0100
0001
0100
0000
0001
0000
0010
0000
,
1000
0010
0100
0001
,
0010
0110
0100
0101
,
0001
0011
0010
0110
,
0100
1100
1000
1010
,
0010
0011
0001
0101
,
0110
1100
0011
1001
,
1000
1100
0100
0110
,
0020
0000
0000
2030
,
0000
0000
3200
0000
,
0000
0301
0010
0100
,
2000
0000
0000
3001
,
0100
0001
0200
0000
,
0000
0302
0000
0000
,
1003
0000
0010
0000
0001
0000
0010
0000
0100
0000
0001
0000
,
0010
0000
1000
0000
0010
0000
0001
0000
0100
0000
0010
0000
,
0200
0000
0000
0301
0000
0010
0000
0001
0000
0010
0000
0100
,
0000
1000
0000
0100
0000
1000
0000
0010
0000
1000
0000
0010
,
0000
1000
0000
2001
0000
0000
0000
0000
0000
0000
0000
0000
,
0000
0000
3001
0010
,
0001
0000
0001
1000
,
0001
0000
0001
0010
,
0001
0000
0100
1000
,
0001
0000
0010
0100
,
0001
0000
0100
1000
,
0001
0000
0010
0100
,
0001
0000
1000
0010
,
0100
0000
0010
0100
,
1000
0000
0100
0010
,
0100
0000
0010
1000
,
0010
0000
0100
0010
,
0100
0000
1000
0001
,
1000
0000
0010
0100
,
0010
0000
0100
0001
,
0100
0000
0001
0010
,
0100
0000
0100
1000
,
0010
0100
1000
0010
,
0100
1000
0100
0010
,
0001
0100
0010
0001
,
0100
0010
0001
0100
,
0010
0001
0100
0010
,
0001
0100
0010
0001
,
0100
0010
0001
0100
,
0010
0000
0001
0000
1000
0100
1000
0100
,
0010
0100
0001
0010
0100
1000
0001
0100
,
0010
1000
0001
0010
0100
1000
0001
0010
,
0200
2000
0000
0000
0000
0000
0000
0000
,
0000
0000
0000
3300
0000
0000
0000
0000
;

//---------------dance-single - ----------------
#NOTES:
     dance-single:
     :
     Easy:
     7:
     0.346,0.666,0.149,0.052,0.000:
0000
0000
0000
0000
,
0000
0000
0000
0000
,
0000
0000
0000
0000
,
1000
0100
1000
0010
1000
0001
0010
0100
,
1000
0000
0200
0300
0000
0000
0000
0000
0001
0000
0010
0000
0100
0000
1000
0000
,
0000
0000
0100
1000
0001
1000
0100
1000
,
0001
0010
0100
0010
0000
0000
0001
0100
,
1000
0100
0001
0010
0100
1000
0001
0100
,
0001
0100
1000
0000
0000
0000
0000
0000
,
1000
0000
0000
0100
0000
0000
0010
0000
,
0000
1000
0100
1000
0100
0000
0000
0000
,
0001
0010
0100
0000
0000
0001
0000
0000
,
2000
0000
0000
0000
,
0000
0000
0000
0010
,
3100
0000
0010
0000
,
1000
0000
0001
0000
,
0010
0000
0100
0000
,
0001
0000
0010
1000
,
0001
0000
0100
0000
,
0010
0000
1000
0000
,
0001
0000
0010
0000
,
0100
0000
1000
0100
,
0001
0000
0100
0000
,
1000
0000
0001
0000
,
0100
0000
0010
0000
,
1000
0000
0001
0100
,
0010
0000
0001
0000
,
0100
0000
0010
0000
,
0100
0000
0001
0000
,
0100
0000
1000
0010
,
0100
0000
0000
0100
,
0001
0000
0000
0100
,
0001
0000
0000
1000
,
0100
0000
0010
0000
,
1000
0000
0000
0010
,
0001
0000
0000
0100
,
1000
0000
0000
0001
,
0100
0000
0000
0100
,
0001
0000
0000
0010
,
0001
0000
0000
0100
,
0010
0000
0000
0010
,
1000
0000
0010
0000
,
0100
0000
0000
0010
,
0001
0000
0000
0100
,
0010
0000
0000
0010
,
0001
0000
0100
0000
,
0010
0000
0000
1000
,
0001
0000
0000
0001
,
0100
0000
0000
0100
,
0010
0000
0001
0000
,
1000
0000
0000
0100
,
0001
0000
0000
0001
,
0010
0000
0000
0010
,
0100
0000
0001
0000
,
1000
0000
0000
0100
,
0001
0000
0000
0010
,
0100
0000
0000
0100
,
1000
0000
0010
0000
,
0001
0000
0000
1000
,
0010
0000
0000
0001
,
0100
0000
0000
0001
,
1000
0000
0100
0000
,
0010
0000
1010
0000
,
0101
0000
0110
0000
,
0101
1000
0010
1000
,
1010
0000
0011
0000
,
0011
0000
0110
0000
,
0110
1000
0010
1000
,
0010
0000
1100
0000
,
1100
0000
0101
0000
,
0101
0020
0000
0030
,
0011
0000
0101
0000
,
0101
0000
1010
0000
,
1010
0000
1100
0000
,
0100
0010
0100
0010
,
0100
1000
0100
1000
,
0100
0001
0100
0001
,
0010
0001
0010
0001
,
0010
0100
1000
0001
,
0100
1000
0001
0100
,
0010
0000
0000
1000
,
0000
0000
0010
0000
,
0000
1000
0010
0001
,
0100
0000
0000
0000
,
1000
0010
0001
0000
,
0000
1000
0000
0000
,
1000
0100
0010
0001
,
1000
0010
0100
0001
,
2000
3010
0001
0010
,
0001
0100
0010
1000
,
0100
0002
0000
0000
,
0000
0000
1003
0000
,
0100
0000
0010
0000
,
0001
0000
0010
0000
,
0100
0000
0001
0000
,
0010
0000
1000
0000
,
0010
0000
0001
0000
,
0100
0000
0010
0000
,
1000
0000
0001
0000
,
0010
0000
0100
0000
,
0001
0000
0010
0000
,
1000
0000
0100
0000
,
1000
0000
0010
0000
,
0100
0000
0001
0000
,
0010
0000
0001
0000
,
0100
0000
0010
0000
,
0100
0000
0001
0000
,
0010
0000
0100
0010
,
0100
0000
0001
0010
,
0001
0000
0100
1000
,
0100
0000
1000
0010
,
1000
0000
0010
0001
,
0010
0000
0001
0100
,
0001
0000
0010
1000
,
0010
0000
1000
0010
,
1000
0000
1000
0100
,
1000
0001
0010
0100
,
0100
1000
0010
0001
,
0010
0022
0000
0000
0000
0000
0000
0000
,
0000
0000
0000
0033
0000
0000
0000
0000
;

//---------------dance-single - ----------------
#NOTES:
     dance-single:
     :
     Beginner:
     4:
     0.180,0.444,0.178,0.067,0.000:
0000
0000
0000
0000
,
0000
0000
0000
0000
,
0000
0000
0000
0000
,
1000
0000
0010
0000
,
0000
0000
1000
0000
,
0000
0001
0000
0000
,
1000
0000
0000
0010
,
0000
0000
0001
0000
,
1000
0001
0000
0000
,
1000
0000
0000
0001
,
0000
1000
0000
0000
0001
0000
0000
0000
,
1000
0000
0001
0000
0000
1000
0000
0000
,
0020
0000
0000
0000
,
0000
0000
0000
0000
,
1030
0000
0000
0000
,
0100
0000
0000
0000
,
0001
0000
0000
0000
,
0010
0000
0000
0000
,
0100
0000
0000
0000
,
0001
0000
0000
0000
,
0010
0000
0000
0000
,
1000
0000
0000
0000
,
0010
0000
0000
0000
,
0001
0000
0000
0000
,
0100
0000
0000
0000
,
0010
0000
0000
0000
,
0100
0000
0000
0000
,
0001
0000
0000
0000
,
0010
0000
0000
0000
,
0100
0000
0000
0000
,
1000
0000
0000
0000
,
0001
0000
0000
0000
,
0100
0000
0000
0000
,
0010
0000
0000
0000
,
0100
0000
0000
0000
,
0001
0000
0000
0000
,
0010
0000
0000
0000
,
1000
0000
0000
0000
,
0010
0000
0000
0000
,
0100
0000
0000
0000
,
0001
0000
0000
0000
,
0010
0000
0000
0000
,
0001
0000
0000
0000
,
0100
0000
0000
0000
,
0010
0000
0000
0000
,
0100
0000
0000
0000
,
0001
0000
0000
0000
,
0010
0000
0000
0000
,
0001
0000
0000
0000
,
1000
0000
0000
0000
,
0010
0000
0000
0000
,
0001
0000
0000
0000
,
0010
0000
0000
0000
,
0100
0000
0000
0000
,
0001
0000
0000
0000
,
0010
0000
0000
0000
,
1000
0000
0000
0000
,
0010
0000
0000
0000
,
0100
0000
0000
0000
,
0001
0000
0000
0000
,
0010
0000
0000
0000
,
0001
0000
0000
0000
,
0101
0000
0000
0000
,
1001
0000
0000
0000
,
1010
0020
0000
0030
,
0110
0000
0000
0000
,
0011
0000
0000
0000
,
0101
0000
0000
0000
,
1010
0000
0000
0000
,
0101
0000
0000
0000
,
0101
0000
0000
0000
,
1010
0000
0000
0000
,
0101
0000
0000
0000
,
1010
0000
0000
0000
,
0101
0000
1100
0000
,
0110
0000
0011
0000
,
0101
0000
0110
0000
,
1010
0000
1100
0000
,
0110
0000
0011
0000
,
0101
0000
0110
0000
,
1000
0000
0000
0000
,
0000
0000
0001
0000
,
0000
1000
0000
0001
,
0000
0000
0000
0000
,
0010
0000
0100
0000
,
0000
0010
0000
0000
,
2000
0000
0000
0000
,
3020
0000
0000
0000
,
0230
0302
0000
0000
,
0000
2003
0000
0000
,
0000
3200
0000
0000
,
0000
0000
0301
0000
,
0000
0000
0100
0000
,
0000
0000
0010
0000
,
0000
0000
1000
0000
,
0010
0000
0001
0000
,
0000
0000
0010
0000
,
0000
0000
0100
0000
,
0000
0000
0001
0000
,
1000
0000
0010
0000
,
0000
0000
0100
0000
,
0000
0000
1000
0000
,
0000
0000
0001
0000
,
0001
0000
0100
0000
,
0000
0000
0010
0000
,
0000
0000
1000
0000
,
0000
0000
0001
0000
,
1000
0000
0100
0000
,
0000
0000
0010
0000
,
0000
0000
1000
0000
,
0000
0000
0001
0000
,
0000
0000
0100
0000
,
0000
0000
0010
0000
,
0000
0000
1000
0000
,
0000
0000
0001
0000
,
0000
0000
0000
0000
0100
0000
0000
1000
,
0000
0000
0000
0000
0000
0000
0000
0010
,
0000
0000
1000
0000
,
0000
2000
0000
0000
0000
0000
0000
0000
,
0000
0000
0000
3000
0000
0000
0000
0000
;
