#TITLE:Crazy Beautiful Life;
#SUBTITLE:;
#ARTIST:Ke$ha;
#TITLETRANSLIT:;
#SUBTITLETRANSLIT:;
#ARTISTTRANSLIT:;
#GENRE:;
#CREDIT:;
#BANNER:[16ths Week] - Crazy Beautiful Life.png;
#BACKGROUND:[16ths Week] - Crazy Beautiful Life-bg.png;
#LYRICSPATH:;
#CDTITLE:cdtitle.png;
#MUSIC:[16ths Week] - Crazy Beautiful Life.ogg;
#OFFSET:-0.244;
#SAMPLESTART:40.669;
#SAMPLELENGTH:21.286;
#SELECTABLE:YES;
#BPMS:0.000=105.000
;
#STOPS:
;
#BGCHANGES:;
#KEYSOUNDS:;
#ATTACKS:;

//---------------dance-single - ----------------
#NOTES:
     dance-single:
     :
     Hard:
     8:
     0.471,0.433,0.262,0.374,0.112,356.000,35.000,50.000,0.000,0.000,0.000,0.471,0.433,0.262,0.374,0.112,356.000,35.000,50.000,0.000,0.000,0.000: // measure 0
0000
0000
0000
0000
,  // measure 1
0000
0000
0000
0000
,  // measure 2
0000
1000
0010
0100
0010
1000
1000
2000
,  // measure 3
0000
3010
0100
0001
0010
0100
0100
0200
,  // measure 4
0000
1300
0100
2000
0000
3001
0100
0002
,  // measure 5
0000
1003
0100
0010
0001
1000
0001
2000
,  // measure 6
0000
3001
0010
0100
1000
1100
1010
0110
,  // measure 7
0000
0010
0100
0001
0100
0101
0011
0110
,  // measure 8
0000
0100
0010
0110
0000
0100
1000
1010
,  // measure 9
0000
0001
0100
0010
1000
0001
1001
0000
,  // measure 10
1000
0000
0000
0000
1100
0000
0000
0000
0100
0000
0000
1000
0010
0000
0100
0000
,  // measure 11
0001
0000
0000
0000
0000
0000
0101
0000
0000
0100
0000
0000
0001
0000
1000
0001
0000
0000
0010
0000
0000
0100
0000
0000
,  // measure 12
1000
0000
0000
0000
1001
0000
0000
0000
0001
0000
0000
0100
0010
0000
1000
0000
,  // measure 13
0001
0000
0000
0000
1001
0000
1000
0010
1000
0000
0001
0010
0001
0000
1000
0000
,  // measure 14
0001
0000
0000
0000
0011
0000
0000
0000
0010
0000
0000
0100
1000
0000
0010
0000
,  // measure 15
0100
0000
0000
0000
0000
0000
0110
0000
0000
0010
0000
0000
1000
0000
0100
1000
0000
0000
0010
0000
0000
0100
0000
0000
,  // measure 16
0001
0000
0000
0000
1001
0000
0000
0000
1000
0000
0000
0100
0010
0000
0001
0000
,  // measure 17
1001
0000
0110
0000
1001
0000
0001
0100
,  // measure 18
0010
0000
1000
0000
0001
0000
0000
0000
0010
0000
0000
0001
0010
0000
0100
0000
,  // measure 19
1000
0000
0001
0000
0100
0000
0000
0000
0010
0000
0000
0100
0010
0000
1000
0000
,  // measure 20
0001
0010
1000
0000
1000
0010
0001
0000
,  // measure 21
0001
0100
1000
0000
0101
0000
1100
0000
,  // measure 22
0001
0000
0000
0100
0000
0000
0010
0000
0000
0000
0000
0000
1000
0000
0000
0100
0000
0000
1000
0000
0000
0010
0000
0100
,  // measure 23
0001
0000
0000
0100
0000
0000
0010
0000
0000
0000
0000
0000
1000
0000
0000
0100
0000
0000
0010
0000
0000
0001
0000
0010
,  // measure 24
0001
0000
0000
0100
0000
0000
0010
0000
0000
0000
0000
0100
0001
0000
0000
0100
0000
0000
0010
0000
0000
1000
0000
0000
,  // measure 25
0100
0000
0000
0000
0010
0000
0000
0000
0001
0000
0000
1000
0001
0000
1000
0000
,  // measure 26
0000
0001
0100
0010
1000
0100
1000
0010
,  // measure 27
0100
0000
0001
0000
0100
0001
0100
0000
0001
0000
0010
0000
0001
0000
0100
0000
,  // measure 28
0010
0000
1000
0010
1000
0000
0010
0000
1000
0000
0100
1000
0100
0000
1000
0000
,  // measure 29
0100
0000
0010
0000
0001
0000
0100
0000
0010
0000
1000
0000
0001
1000
0001
0000
,  // measure 30
1000
0100
0001
1000
0010
0001
0100
0001
,  // measure 31
1000
0010
0001
1000
0100
0001
0100
0010
,  // measure 32
0100
0000
0001
0100
0001
0000
1000
0000
0001
0000
1000
0100
1000
0000
0001
0000
,  // measure 33
2000
0000
0000
0000
3020
0000
0000
0000
0130
0000
0000
0001
1000
0000
0100
0000
,  // measure 34
2000
0000
0010
0000
0100
0000
0010
0010
,  // measure 35
3020
0000
0100
0000
0001
0000
0100
0100
,  // measure 36
0230
0000
0001
0000
0010
0000
0001
0001
,  // measure 37
0302
0000
0010
0000
0100
0000
1000
1000
,  // measure 38
2003
0000
0100
0000
0010
0000
0001
0001
,  // measure 39
3002
0000
0010
0000
0100
0000
0010
0010
,  // measure 40
0023
0000
0100
0000
0001
0000
0100
0100
,  // measure 41
0230
0000
2300
0000
3020
0000
0230
0001
,  // measure 42
0301
0010
0200
0000
1300
0000
0100
1000
,  // measure 43
0010
0100
0002
0000
0013
0000
0001
0100
,  // measure 44
0001
0010
0100
0000
0100
1000
0010
0000
,  // measure 45
0010
0000
0100
0000
0001
0000
0000
0000
1000
0000
0000
0001
0100
0000
0010
0000
,  // measure 46
1000
0000
0000
0000
0001
0000
0000
0000
0011
0000
0000
0110
0000
0000
1100
0000
,  // measure 47
1010
0000
0000
0000
1000
0000
0000
0000
0110
0000
0000
1010
0000
0000
1001
0000
,  // measure 48
0011
0000
0000
0000
0001
0000
0000
0000
0011
0000
0000
0110
0000
0000
1100
0000
,  // measure 49
1001
0000
0000
0000
0000
0000
0101
0000
0000
0000
0000
0000
1100
0000
0000
0000
0000
1000
0001
0000
0000
0100
0000
0000
,  // measure 50
0020
0000
0230
0000
0320
0000
0130
0010
,  // measure 51
2000
0000
3002
0000
2003
0000
3001
1000
,  // measure 52
0200
0000
0320
0000
0230
0000
0310
0100
,  // measure 53
2000
0000
3002
0000
2003
0000
3001
1000
,  // measure 54
0002
0000
0000
0000
2003
0000
0000
0000
3020
0000
0000
0230
0000
0000
0320
0000
,  // measure 55
2030
0000
0000
0000
3200
0000
0000
0000
0320
0000
0000
0230
0000
0000
0320
0000
,  // measure 56
0032
0000
0000
0000
0203
0000
0000
0000
0320
0000
0000
2030
0000
0000
3200
0000
,  // measure 57
0320
0000
0000
0000
0000
0000
0032
0000
0000
0000
0000
0000
2003
0000
0000
3000
0000
0001
1000
0000
0000
0001
0000
0000
;

//---------------dance-single - ----------------
#NOTES:
     dance-single:
     :
     Medium:
     5:
     0.305,0.303,0.105,0.030,0.000,267.000,14.000,4.000,0.000,0.000,0.000,0.305,0.303,0.105,0.030,0.000,267.000,14.000,4.000,0.000,0.000,0.000:
0000
0000
0000
0000
,
0000
0000
0000
0000
,
0000
1000
0000
0100
0000
0010
0100
0010
,
0000
0001
0000
0100
0000
0001
0100
0001
,
0000
1000
0001
1000
0000
0100
0010
0100
,
0000
0010
0000
0001
0000
1000
0001
1000
,
0000
0010
0000
0100
0000
0010
0100
0001
,
0000
0010
0000
0100
0000
1000
0010
0100
,
0000
0010
1000
0100
0000
0100
0010
0001
,
0000
0001
0100
0010
1000
0001
1000
0000
,
0001
0000
0010
0000
0001
0000
0100
0010
,
1000
0000
0100
0000
1000
0000
0010
0100
,
0001
0000
0010
0000
0001
0000
0100
0010
,
1000
0000
0100
0000
1000
0000
0010
0100
,
0001
0000
1000
0000
0001
0000
1000
0001
,
0100
0000
0010
0000
0100
0000
0010
1000
,
0001
0000
1000
0000
0001
0000
1000
0100
,
0010
0000
0100
0000
0010
0000
0100
0010
,
0001
1000
0010
1000
,
0100
1000
0100
0000
1000
0000
0100
0000
,
0010
0001
0010
0000
0001
0000
0100
0000
,
0010
0100
0010
0000
1000
0000
0001
0000
,
1000
0001
0010
0100
,
0010
0100
0010
0000
0001
0000
0100
0000
,
0010
0100
0010
0000
1000
0010
1000
0000
,
0001
0000
1000
0000
0001
0000
1000
0001
,
1000
0000
1100
0000
0100
0000
0010
0001
,
0010
0000
0011
0000
0001
0000
0100
0001
,
0100
0000
0110
0000
0010
0000
1000
0010
,
1000
0000
1001
0000
0001
0000
1000
0001
,
2000
0100
0010
0001
,
3002
0010
0100
1000
,
2003
0100
0010
0100
,
3020
0100
0001
1000
,
0130
0000
0000
0000
0010
0000
1000
0010
,
1000
0000
0000
0000
0100
0000
0010
0001
,
0010
0000
0000
0000
0001
0000
1000
0001
,
1000
0000
0000
0000
0010
0000
1000
0010
,
1000
0000
0000
0000
0001
0000
0010
0001
,
0010
0000
0000
0000
0100
0000
0010
0100
,
0010
0000
0000
0000
0001
0000
0100
0010
,
0100
0010
1000
0001
,
1000
0010
0110
0100
,
0001
0010
0110
0100
,
1000
1100
0001
0101
,
1000
1010
0001
0011
,
0010
0001
0010
0000
1001
0000
1010
0000
,
0010
1000
0010
0000
1010
0000
1100
0000
,
1000
0100
1000
0000
0010
0100
0010
0000
,
0100
0001
0100
0000
0001
0000
1000
0000
,
0001
0000
0010
0000
0001
0000
0010
0001
,
1000
0000
0001
0000
1000
0000
0001
1000
,
0010
0000
1000
0000
0010
0000
1000
0010
,
1000
0000
0100
0000
1000
0000
0100
1000
,
0001
0000
0100
0000
0001
0000
0100
0001
,
1000
0000
0001
0000
1000
0000
0001
1000
,
0100
0000
0010
0000
0100
0000
0010
0100
,
1000
0000
0001
0000
1000
0000
0010
0100
;

//---------------dance-single - ----------------
#NOTES:
     dance-single:
     :
     Easy:
     3:
     0.233,0.259,0.105,0.015,0.000,202.000,14.000,2.000,0.000,0.000,0.000,0.233,0.259,0.105,0.015,0.000,202.000,14.000,2.000,0.000,0.000,0.000:
0000
0000
0000
0000
,
0000
0000
0000
0000
,
0000
1000
0000
0010
0000
0100
0000
0100
,
0000
0010
0000
1000
0000
0001
0000
0001
,
0000
0010
0000
0010
0000
0001
0000
0001
,
0000
0100
0000
0010
0000
1000
0000
1000
,
0000
0001
0000
1000
0000
1001
0000
1001
,
0000
0100
0000
0010
0000
0110
0000
0110
,
0000
0001
0000
0001
0000
1000
0000
1000
,
0000
0010
0100
0010
0100
0010
0100
0000
,
0010
0000
1000
0100
,
0010
0000
0010
0001
,
0100
0000
0100
0010
,
1000
0000
1000
0001
,
1000
0000
1000
0001
,
0010
0000
0010
0100
,
0001
0000
0001
0100
,
1000
0001
1000
0001
,
0100
0000
0010
0100
,
0010
0000
1000
0001
,
1000
1001
0001
1001
,
1000
0100
0010
0001
,
0100
0010
1000
0001
,
1000
0100
0010
0001
,
0100
0001
1000
0001
,
1000
0010
1000
0001
,
1000
1000
1000
1000
,
0100
0100
0100
0100
,
0010
0010
0010
0010
,
0001
0001
0001
0001
,
0100
0100
0100
0100
,
0010
0010
0010
0010
,
1000
1000
0001
0001
,
2002
0000
0000
3003
,
1000
0001
1000
0001
,
0100
0010
0100
0010
,
1000
0001
1000
0001
,
0010
0100
0010
0100
,
0010
0000
0001
1000
,
0010
0000
0100
1000
,
0100
0000
0001
0010
,
1000
0010
0001
1000
,
1001
0000
0001
0100
,
0101
0000
0010
1000
,
1010
0000
1100
0000
,
0110
0000
0011
0000
,
1001
0000
1000
0001
,
1000
0000
0100
1000
,
0100
0000
1000
0001
,
1000
0001
0100
0001
,
1000
0010
1000
0100
,
1000
0001
1000
0010
,
0100
0001
0100
1000
,
0100
0010
0100
0001
,
0010
1000
0010
0010
,
0010
0001
0010
0010
,
0010
0100
0010
0010
,
0001
0100
0010
1000
;

//---------------dance-single - ----------------
#NOTES:
     dance-single:
     :
     Beginner:
     2:
     0.096,0.128,0.000,0.000,0.000,90.000,0.000,0.000,0.000,0.000,0.000,0.096,0.128,0.000,0.000,0.000,90.000,0.000,0.000,0.000,0.000,0.000:
0000
0000
0000
0000
,
0000
0000
0000
0000
,
0000
0001
0000
0000
0000
0000
0000
0000
,
0000
1000
0000
0000
0000
0000
0000
0000
,
0000
0010
0000
0000
0000
0010
0000
0000
,
0000
0100
0000
0000
0000
0100
0000
0000
,
0000
0100
0000
0000
0000
0000
0000
0000
,
0000
0001
0000
0000
0000
0000
0000
0000
,
0000
0010
0000
0000
0000
0100
0000
0000
,
0000
1000
0000
0000
0000
0000
0000
0000
,
0001
0000
0000
1000
,
1000
0000
0000
0010
,
0010
0000
0000
0100
,
0100
0000
0000
0001
,
0001
0000
0000
1000
,
1000
0000
0000
0100
,
0100
0000
0000
0010
,
0010
0000
0000
0000
,
0001
0000
0000
0000
,
1000
0000
0000
0000
,
0010
0000
0100
0000
,
0010
0000
0100
0000
,
0010
0000
0000
0000
,
0100
0000
0000
0000
,
0001
0000
0010
0000
,
0100
0000
1000
0000
,
0001
0000
0000
0000
,
1000
0000
0000
0000
,
0100
0000
1000
0000
,
0100
0000
0000
0000
,
0010
0000
0000
0000
,
0001
0000
0000
0000
,
1000
0000
0001
0000
,
1000
0000
0000
0000
,
0010
0000
1000
0000
,
0100
0000
1000
0000
,
0001
0000
0010
0000
,
0001
0000
0100
0000
,
0010
0000
1000
0000
,
0001
0000
1000
0000
,
0100
0000
0010
0000
,
0001
0000
1000
0000
,
0010
0000
0000
0000
,
0100
0000
0000
0000
,
0001
0000
0010
0000
,
0100
0000
1000
0000
,
0010
0000
0000
0000
,
0100
0000
0000
0000
,
0010
0000
1000
0000
,
0001
0000
1000
0000
,
0001
0000
0000
0000
,
0010
0000
0000
0000
,
0001
0000
0000
0000
,
0100
0000
0000
0000
,
0010
0000
1000
1000
,
1000
0000
0100
0100
,
0100
0000
0010
0010
,
0010
0000
0000
0000
;
