#TITLE:Classic Green Acres;
#SUBTITLE:;
#ARTIST:Atomic Bomberman;
#TITLETRANSLIT:;
#SUBTITLETRANSLIT:;
#ARTISTTRANSLIT:;
#CREDIT:;
#BANNER:classicgreenacresbn.png;
#BACKGROUND:classicgreenacresbg.png;
#LYRICSPATH:;
#CDTITLE:cd.png;
#MUSIC:classic green acres.mp3;
#OFFSET:1.180;
#SAMPLESTART:16.600;
#SAMPLELENGTH:14.140;
#SELECTABLE:YES;
#BPMS:0.000=135.000;
#STOPS:;
#BGCHANGES:;

//---------------dance-single - ----------------
#NOTES:
     dance-single:
     :
     Hard:
     10:
     0.824,0.934,0.472,0.169,0.884:
0000
0000
0000
0000
,
0000
0000
0000
0000
,
1000
0000
1000
0100
0000
0010
0000
0010
0001
0000
1000
0000
1000
0100
0000
0010
,
0001
0000
0001
1000
0000
0010
0000
0010
0100
0000
0001
0000
0001
1000
0000
0010
,
1000
0000
1000
0001
0000
0010
0000
0010
0100
0000
1000
0000
1000
0001
0000
0010
,
0100
0000
0100
1000
0000
0001
0000
0001
0010
0000
0100
0000
0100
1000
0000
0001
,
0100
0000
0100
0010
0000
1000
0000
1000
0001
0000
0100
0000
0100
0010
0000
1000
,
0001
0000
0001
0010
0000
0100
0000
0100
1000
0000
0001
0000
0001
0010
0000
0100
,
1000
0000
1000
0001
0000
1000
0000
1000
0100
0000
1000
0000
1000
0001
0000
1000
,
0100
0000
0100
0010
0000
0010
0002
0000
0000
0000
0000
0000
1003
0000
0000
0000
,
0001
0000
0001
0100
0000
0010
0000
0010
1000
0000
0001
0000
0001
0010
0000
0100
,
1000
0000
1000
0001
0000
0100
0000
0100
0010
0000
1000
0000
1000
0001
0000
0010
,
0100
0000
0100
1000
0000
0100
0000
0100
0010
0000
0001
0000
0001
1000
0000
0010
,
0100
0000
0100
0001
0000
1000
0000
1000
0100
0000
1100
0000
0110
0000
0011
0000
,
0001
0000
0001
1000
0000
0010
0000
0010
0100
0000
0001
0000
0001
1000
0000
0100
,
0010
0000
0010
0100
0000
1000
0000
1000
0001
0000
0100
0000
0100
0010
0000
1000
,
0001
0000
0001
0010
0000
0100
0000
0100
1000
0000
0001
0000
0001
0100
0000
0010
,
1000
0000
1000
0001
0000
0010
0000
0010
0100
0000
0110
0000
0011
0000
1001
0000
,
1000
0000
1000
0001
0000
0100
0000
0100
0010
0000
1000
0000
1000
0100
0000
0010
,
0001
0000
0001
0100
0000
0010
0000
0010
1000
0000
0100
0000
0100
0010
0000
0001
,
0010
0000
0010
0100
0000
1000
0000
1000
0001
0000
0100
0000
0100
0010
0000
1000
,
0001
0000
0001
0010
0000
0100
0000
0100
1000
0000
1010
0000
0110
0000
0101
0000
,
0001
0000
0001
0100
0000
0010
0000
0010
1000
0000
0001
0000
0001
0010
0000
0100
,
1000
0000
1000
0010
0000
0100
0000
0100
0001
0000
1000
0000
1000
0100
0000
0010
,
0001
0000
0001
0100
0000
0010
0000
0010
1000
0000
0001
0000
0001
0010
0000
0100
,
1000
0000
1000
0001
0000
0100
0000
0100
0010
0000
1000
0000
1000
0001
0000
0100
,
0010
0000
1000
0001
1000
0000
0010
0000
0100
0001
0100
0000
0101
0000
0000
0000
,
0001
0000
1000
0100
1000
0000
0001
0000
0010
0100
0010
0000
0110
0000
0000
0000
,
0001
0000
1000
0100
1000
0000
0001
0000
0100
0010
0100
0000
0110
0000
0000
0000
,
0010
0000
1000
0001
1000
0000
0100
0000
1000
0000
1100
0000
0110
0000
0011
0000
,
0001
0000
1000
0100
1000
0000
0001
0000
1000
0010
1000
0000
1010
0000
0000
0000
,
0010
0000
0100
0001
0100
0000
0010
0000
1000
0001
1000
0000
1001
0000
0000
0000
,
0001
0000
0010
0100
0010
0000
0001
0000
1000
0100
1000
0000
1100
0000
0000
0000
,
0100
0000
1000
0001
1000
0000
0010
0000
0100
0000
0101
0000
1001
0000
1010
0000
,
0010
0000
1000
0001
1000
0000
0100
0000
0010
0001
0010
0000
0011
0000
0000
0000
,
0001
0000
1000
0100
1000
0000
0001
0000
0100
0010
0100
0000
0110
0000
0000
0000
,
0010
0000
1000
0001
1000
0000
0010
0000
1000
0100
1000
0000
1100
0000
0000
0000
,
0100
0000
1000
0001
1000
0000
0100
0000
0010
0000
0011
0000
0110
0000
1100
0000
,
1000
0000
0001
0100
0001
0000
1000
0000
0100
0010
0100
0000
0110
0000
0000
0000
,
0010
0000
0001
1000
0001
0000
0010
0000
0100
1000
0100
0000
1100
0000
0000
0000
,
1000
0000
0001
0100
0001
0000
1000
0000
0001
0010
0001
0000
0011
0000
0000
0000
,
0010
0000
0010
0100
0000
1000
0000
1000
0001
0000
0100
0000
0100
0010
0000
1000
,
0001
0000
0001
0010
0000
0100
0000
0100
1000
0000
1000
0001
0000
0100
0000
0100
,
0010
0000
0010
1000
0000
1000
0001
0100
0001
1000
0100
1000
0001
0100
0010
1000
,
0002
0000
0000
0000
0000
0000
0000
0003
,
1001
0000
0000
0000
,
0200
0000
0000
0000
0000
0000
0300
0110
,
0000
0000
0000
0000
,
0002
0000
0000
0000
0000
0000
0000
0003
,
1001
0000
0000
0000
0000
0000
0000
0000
0000
0000
0001
0000
1000
0001
0000
0001
,
1000
0000
0100
0010
0100
0000
1000
0000
0001
0100
0001
0000
0101
0000
0000
0000
,
0100
0000
0010
1000
0010
0000
0100
0000
0001
1000
0001
0000
1001
0000
0000
0000
,
1000
0000
0001
0010
0001
0000
1000
0000
0010
0100
0010
0000
0110
0000
0000
0000
,
1000
0000
0001
0100
0001
0000
1000
0000
0100
0000
0110
0000
0011
0000
1001
0000
,
1000
0000
0010
0100
0010
0000
1000
0000
0001
0010
0001
0000
0011
0000
0000
0000
,
1000
0000
0100
1000
0100
0000
0010
0000
0100
1000
0100
0000
1100
0000
0000
0000
,
0001
0000
0010
0100
0010
0000
0001
0000
0010
0100
0010
0000
0011
0000
0000
0000
,
0001
0000
1000
0010
1000
0000
0001
0000
0010
0000
0110
0000
1100
0000
1001
0000
,
0001
0000
1000
0100
1000
0000
0001
0000
0100
0010
0100
0000
0110
0000
0000
0000
,
0010
0000
1000
0001
1000
0000
0100
0000
0010
0001
0010
0000
0011
0000
0000
0000
,
0001
0000
1000
0010
1000
0000
0001
0000
0100
0001
0100
0000
0101
0000
0000
0000
,
0001
0000
1000
0010
1000
0000
0001
0000
0100
0000
0110
0000
1010
0000
1001
0000
,
0001
0000
1000
0100
1000
0000
0001
0000
0010
0100
0010
0000
0110
0000
0000
0000
,
0100
0000
1000
0001
1000
0000
0010
0000
0100
0001
0100
0000
0101
0000
0000
0000
,
0001
0000
1000
0100
1000
0000
0001
0000
1000
0010
1000
0000
1010
0000
0000
0000
,
1000
0000
0001
0010
0001
0000
1000
0000
0010
0000
0110
0000
0101
0000
1001
0000
,
1000
0010
0100
0001
1000
0100
1000
0001
0100
0010
1000
0001
0010
0001
1000
0001
,
1000
0100
0010
0001
1000
0100
0010
0100
1000
0001
0010
0100
0010
0001
1000
0100
,
1000
0001
0100
0001
1000
0010
0100
0001
1000
0100
1000
0001
0100
0010
1000
0001
,
1000
0100
1000
0001
0100
0010
0100
0001
1000
0000
1010
0000
0110
0000
0101
0000
,
0001
1000
0100
1000
0001
0100
0010
1000
0001
1000
0100
1000
0001
1000
0100
0010
,
0001
0010
0100
1000
0001
1000
0100
0010
0100
1000
0100
0010
0001
0010
0100
0010
,
0001
1000
0100
1000
0001
0100
0001
1000
0100
1000
0001
0100
0010
1000
0001
0010
,
0001
1000
0100
1000
0001
1000
0010
0100
0001
0000
0011
0000
0110
0000
1100
0000
,
1000
0000
0001
0000
0100
0010
0000
1000
0001
0000
0020
0000
0230
0000
2300
0000
,
3001
0000
0100
0000
0010
0000
1000
0001
0100
0000
0020
0000
2030
0000
3002
0000
,
0013
0000
0100
1000
0001
0000
0100
0010
1000
0001
0020
0000
0032
0000
2003
0000
,
3010
0000
0100
0000
0001
1000
0000
0100
1000
0000
1100
0000
0110
0000
0011
0000
,
0001
0000
1000
0000
0010
0000
0100
0001
1000
0000
0020
0000
0230
0000
0302
0000
,
1003
0000
0100
0000
0010
0000
0001
1000
0010
0000
0200
0000
0302
0000
2003
0000
,
3010
0000
0100
0000
0001
1000
0000
0000
0100
0000
0020
0000
0032
0000
2003
0000
,
3010
0100
0001
1000
0100
0110
0011
1001
,
2000
0000
0000
0000
0000
0000
0000
0000
0000
0000
0000
0000
0000
0000
0000
0000
3000
0000
0000
0000
0000
0000
0000
0000
0000
0000
0000
0000
0000
2000
0000
0002
,
0000
0000
3003
0000
0000
0000
0000
1001
0000
0000
0000
0000
0000
0000
0000
0000
1000
0000
0000
0000
0100
0000
0000
0000
0000
0000
0000
0000
0000
1000
0000
0000
0000
0000
0000
0000
0000
0000
0001
0000
0000
0000
0000
0100
0000
0000
0000
0000
0000
0000
0000
0000
0001
0000
0000
0000
1000
0000
0000
0000
0001
0000
0000
0000
;

//---------------dance-single - ----------------
#NOTES:
     dance-single:
     :
     Medium:
     8:
     0.559,0.640,0.000,0.169,0.327: // measure 1
0000
0000
0000
0000
,  // measure 2
0000
0000
0000
0000
,  // measure 3
1000
0001
0000
0000
0100
0000
0010
0000
0000
1000
0000
0001
0000
0000
1000
0000
,  // measure 4
0000
0100
0000
0000
1000
0000
0001
0000
0000
0100
0000
0010
0000
0000
1000
0000
,  // measure 5
0000
0001
0000
0000
0010
0000
0100
0000
0000
1000
0000
0001
0000
0000
1000
0000
,  // measure 6
0000
0010
0000
0000
0100
0000
0001
0000
0000
1000
0000
0100
0000
0000
1000
0000
,  // measure 7
0000
0001
0000
0000
0100
0000
0010
0000
0000
1000
0000
0001
0000
0000
0010
0000
,  // measure 8
0000
0100
0000
0000
1000
0000
0001
0000
0000
0100
0000
0010
0000
0000
1000
0000
,  // measure 9
0000
0001
0000
0000
0010
0000
0100
0000
0000
1000
0000
0001
0000
0000
0100
0000
,  // measure 10
0000
0010
0000
0000
1000
0000
0000
0002
0000
0000
0000
0000
1003
0000
0000
0000
,  // measure 11
0001
0100
0000
0000
0010
0000
1000
0000
0000
0001
0000
0010
0000
0000
0100
0000
,  // measure 12
0000
1000
0000
0000
0001
0000
0100
0000
0000
0010
0000
1000
0000
0000
0001
0000
,  // measure 13
0000
0100
0000
0000
0001
0000
1000
0000
0000
0100
0000
0010
0000
0000
0001
0000
,  // measure 14
0000
1000
0000
0000
0010
0000
0100
0000
0000
0001
1000
0000
1000
0000
1000
0000
,  // measure 15
0001
0100
0000
0000
0010
0000
1000
0000
0000
0001
0000
0010
0000
0000
0100
0000
,  // measure 16
0000
1000
0000
0000
0100
0000
0010
0000
0000
0001
0000
1000
0000
0000
0010
0000
,  // measure 17
0000
0100
0000
0000
0001
0000
1000
0000
0000
0100
0000
1000
0000
0000
0001
0000
,  // measure 18
0000
0100
0000
0000
0010
0000
1000
0000
0000
0001
0010
0000
0010
0000
0010
0000
,  // measure 19
0100
1000
0000
0000
0001
0000
0100
0000
0000
0010
0000
1000
0000
0000
0001
0000
,  // measure 20
0000
0010
0000
0000
0100
0000
0010
0000
0000
0001
0000
1000
0000
0000
0010
0000
,  // measure 21
0000
0100
0000
0000
0001
0000
1000
0000
0000
0100
0000
1000
0000
0000
0001
0000
,  // measure 22
1000
0000
0000
0001
0000
1000
0000
0000
0100
0000
0010
0000
0010
0000
0010
0000
,  // measure 23
0001
0000
0000
1000
0000
0100
0000
0000
1000
0000
0001
0000
0100
0000
0000
0000
,  // measure 24
0010
0000
0000
1000
0000
0001
0000
0000
0010
0000
0100
0000
1000
0000
0000
0000
,  // measure 25
0001
0000
0000
0100
0000
0010
0000
0000
1000
0000
0001
0000
0100
0000
0000
0000
,  // measure 26
0001
0000
0000
1000
0000
0100
0000
0000
0010
0000
0100
0000
1000
0000
0000
0000
,  // measure 27
0001
1000
0010
0100
0001
1000
0100
0000
,  // measure 28
1000
0000
0001
0000
0100
0000
0010
0000
1000
0000
0001
0000
0010
0100
0000
0000
,  // measure 29
1000
0001
1000
0100
0010
0001
1000
0000
,  // measure 30
0001
1000
0001
0010
0100
1000
1000
1000
,  // measure 31
0001
0100
0010
1000
0001
1000
0100
0000
,  // measure 32
1000
0010
0100
0001
1000
0001
0010
0100
,  // measure 33
0100
1000
0001
0100
0010
1000
0001
0000
,  // measure 34
1000
0010
0100
0001
1000
0100
0100
0100
,  // measure 35
0010
0001
1000
0010
0100
0001
1000
0000
,  // measure 36
0100
0000
1000
0000
0001
0000
0100
0000
0010
0000
1000
0000
0001
0010
0000
0000
,  // measure 37
0100
1000
0001
0100
0010
1000
0100
0000
,  // measure 38
0010
0001
1000
0010
0100
0001
0001
0001
,  // measure 39
1000
0100
0010
0100
1000
0010
0100
0000
,  // measure 40
0001
0010
0100
0010
0001
0100
0010
1000
,  // measure 41
1000
0100
0010
0001
0100
0010
1000
0000
,  // measure 42
0001
0010
0100
1000
0010
0100
0100
0100
,  // measure 43
0001
0000
1000
0001
0000
0100
0000
0010
1000
0000
0001
0100
0000
0010
0000
1000
,  // measure 44
0010
0000
0100
0001
0000
1000
0000
0010
0000
0100
0000
0001
0000
1000
0000
0010
,  // measure 45
0200
0000
0000
0000
0000
0000
0000
0300
,  // measure 46
0100
0000
0000
0000
,  // measure 47
0020
0000
0000
0000
0000
0000
0030
0010
,  // measure 48
0000
0000
0000
0000
,  // measure 49
2000
0000
0000
0000
0000
0000
0000
3000
,  // measure 50
1000
0000
0000
0000
0000
0000
0000
0000
0000
0000
0002
0000
0000
2003
0000
0000
,  // measure 51
3001
1000
0100
1000
0001
0100
0010
0000
,  // measure 52
1000
0000
0001
0000
0010
0000
0001
0000
1000
0000
0010
0000
0100
0001
0000
0000
,  // measure 53
1000
0100
0010
0100
1000
0001
1000
0000
,  // measure 54
0001
0010
0100
0010
0001
1000
1000
1000
,  // measure 55
0001
0100
0010
1000
0100
0010
0001
0000
,  // measure 56
1000
0010
0100
0001
0010
0100
1000
0001
,  // measure 57
0001
0100
0010
1000
0001
0010
0100
0000
,  // measure 58
1000
0010
0100
0001
1000
0100
0100
0100
,  // measure 59
1000
0001
0100
0010
1000
0001
0010
0000
,  // measure 60
0001
0000
1000
0000
0010
0000
0100
0000
0001
0000
1000
0000
0100
0010
0000
0000
,  // measure 61
0001
1000
0010
0100
0001
1000
0001
0000
,  // measure 62
1000
0001
0100
0010
1000
0001
0001
0001
,  // measure 63
1000
0100
0010
0001
0010
0100
1000
0000
,  // measure 64
0001
0010
0100
1000
0100
0010
0001
1000
,  // measure 65
1000
0010
0100
0001
1000
0100
1000
0000
,  // measure 66
0001
0100
0010
1000
0001
0010
0010
0010
,  // measure 67
0001
0000
1000
0100
1000
0000
0001
0000
1000
0100
1000
0000
0001
0000
0000
0000
,  // measure 68
1000
0000
0001
0010
0001
0000
1000
0000
0001
0010
0001
0000
1000
0001
0000
0000
,  // measure 69
1000
0000
0100
0010
0100
0000
1000
0000
0100
0010
0100
0000
1000
0000
0000
0000
,  // measure 70
0001
0000
0010
0100
0010
0000
0001
0000
0010
0000
0100
0000
0100
0000
0100
0000
,  // measure 71
1000
0000
0001
0100
0001
0000
1000
0000
0001
0100
0001
0000
1000
0000
0000
0000
,  // measure 72
0001
0000
0100
0010
0100
0000
0001
0000
0100
0010
0100
0000
0001
0000
1000
0000
,  // measure 73
1000
0000
0010
0100
0010
0000
1000
0000
0010
0100
0010
0000
1000
0000
0000
0000
,  // measure 74
0001
0000
1000
0100
1000
0000
0001
0000
1000
0000
0010
0000
0010
0000
0010
0000
,  // measure 75
0100
0001
1000
0100
1000
0002
0203
0320
,  // measure 76
1030
0001
1000
0100
0010
0002
2003
3020
,  // measure 77
0130
0001
1000
0100
1000
0002
0203
0320
,  // measure 78
1030
0001
0010
0100
1000
0001
0001
0001
,  // measure 79
1000
0010
0100
0001
1000
0200
0320
0032
,  // measure 80
1003
0010
0100
0001
1000
0020
0230
0302
,  // measure 81
1003
0100
0010
0001
1000
0020
0230
0302
,  // measure 82
1003
0100
0010
0001
1000
0010
0010
0010
,  // measure 83
0200
0000
0300
0000
;

//---------------dance-single - ----------------
#NOTES:
     dance-single:
     :
     Easy:
     5:
     0.402,0.387,0.000,0.047,0.051:
0000
0000
0000
0000
,
0000
0000
0000
0000
,
1000
0000
0000
1000
0000
0000
0000
0000
0001
0000
0000
0000
0100
0000
0000
0000
,
0010
0000
0000
0010
0000
0000
0000
0000
1000
0000
0000
0000
0001
0000
0000
0000
,
0100
0000
0000
0100
0000
0000
0000
0000
0010
0000
0000
0000
1000
0000
0000
0000
,
0001
0000
0000
0001
0000
0000
0000
0000
0010
0000
0000
0000
0100
0000
0000
0000
,
1000
0000
0000
1000
0000
0000
0000
0000
0001
0000
0000
0000
0100
0000
0000
0000
,
0010
0000
0000
0010
0000
0000
0000
0000
1000
0000
0000
0000
0001
0000
0000
0000
,
0010
0000
0000
0010
0000
0000
0000
0000
0100
0000
0000
0000
1000
0000
0000
0000
,
0002
0000
0000
1003
,
0001
0000
1000
0000
0001
0100
0001
0000
,
1000
0000
0010
0000
0100
0001
0100
0000
,
0010
0000
1000
0000
0001
0010
0001
0000
,
1000
0000
0100
0000
1000
0001
1000
0001
,
1000
0000
0100
0000
0010
0001
0010
0000
,
0100
0000
1000
0000
0001
0100
0001
0000
,
1000
0000
0100
0000
0010
0001
0010
0000
,
0100
0000
1000
0000
0001
0100
0001
0100
,
0001
0000
1000
0000
0010
0100
0010
0000
,
1000
0000
0001
0000
0010
0100
0010
0000
,
0001
0000
1000
0000
0100
0010
0100
0000
,
1000
0000
0001
0000
0100
0010
0100
0010
,
0100
0000
0001
0000
1000
0010
1000
0000
,
0001
0000
0100
0000
0010
1000
0010
0000
,
0100
0000
0001
0000
1000
0100
1000
0000
,
0002
0000
2003
0000
,
3001
0100
0001
0000
0001
0100
0001
0000
,
1000
0100
1000
0000
1000
0100
1000
0000
,
0001
0010
0001
0000
0001
0010
0001
0000
,
1000
0010
1000
0000
1000
0010
1000
0010
,
1000
0010
1000
0000
1000
0010
1000
0000
,
0001
0010
0001
0000
0001
0010
0001
0000
,
1000
0100
1000
0000
1000
0100
1000
0000
,
0001
0100
0001
0000
0001
0100
0001
0100
,
0001
0100
0001
0000
0001
0100
0001
0000
,
1000
0100
1000
0000
1000
0100
1000
0000
,
0001
0100
0001
0000
0001
0100
0001
0000
,
0100
0010
0100
0000
0100
0010
0100
0010
,
0100
0010
0100
0000
0100
0010
0100
0000
,
0010
1000
0010
0000
0010
1000
0010
0000
,
1000
0001
1000
0000
1000
0001
1000
0000
,
0001
0100
0001
0000
0001
0100
0001
0100
,
0002
0000
0000
0000
,
0000
0000
0000
0003
,
2000
0000
0000
0000
0000
0000
0000
3000
,
1000
0000
0000
0000
,
0002
0000
0000
0000
0000
0000
0003
0001
,
0000
0000
0000
0000
,
0200
0000
0000
0000
0000
0000
0000
0300
,
0100
0000
0000
0000
,
0001
1000
0001
0000
1000
0100
1000
0000
,
0001
0100
0001
0000
1000
0010
1000
0000
,
0001
0010
0001
0000
1000
0100
1000
0000
,
0001
0100
0001
0000
1000
0100
1000
0100
,
1000
0100
1000
0000
0001
0100
0001
0000
,
1000
0010
1000
0000
0001
0010
0001
0000
,
1000
0100
1000
0000
0001
0100
0001
0000
,
1000
0100
1000
0000
0001
0010
0001
0010
,
0001
0010
0001
0000
0010
0100
0010
0000
,
0100
1000
0100
0000
1000
0001
1000
0000
,
0001
0100
0001
0000
0100
0010
0100
0000
,
0010
1000
0010
0000
1000
0001
1000
0001
,
1000
0001
1000
0000
0100
0010
0100
0000
,
0010
0001
0010
0000
0100
0010
0100
0000
,
1000
0100
1000
0000
0001
1000
0001
0000
,
0100
0001
0100
0000
0001
1000
0001
1000
,
0001
0000
0000
0100
0001
0000
0000
0000
0001
0000
0000
0000
0001
0000
0000
0000
,
1000
0000
0000
0100
1000
0000
0000
0000
1000
0000
0000
0000
1000
0000
0000
0000
,
0001
0000
0000
0100
0001
0000
0000
0000
0001
0000
0000
0000
0001
0000
0000
0000
,
1000
0000
0000
0100
1000
0000
0000
0000
1000
0000
0001
0000
1000
0000
0001
0000
,
1000
0000
0000
0100
1000
0000
0000
0000
1000
0000
0000
0000
1000
0000
0000
0000
,
0001
0000
0000
0100
0001
0000
0000
0000
0001
0000
0000
0000
0001
0000
0000
0000
,
1000
0000
0000
0010
1000
0000
0000
0000
1000
0000
0000
0000
1000
0000
0000
0000
,
0001
0000
0000
0100
0001
0000
0000
0000
0001
0000
1000
0000
0001
0000
1000
0000
,
0001
0000
0100
0000
0010
1000
0010
1000
,
0010
0000
0100
0000
0001
1000
0001
1000
,
0001
0000
0010
0000
0100
1000
0100
1000
,
0100
0000
0010
0000
0001
1000
0001
1000
,
0001
0000
0100
0000
0010
1000
0010
1000
,
0010
0000
0100
0000
0001
1000
0001
1000
,
0001
0000
0010
0000
0100
1000
0100
1000
,
0100
0000
0010
0000
0001
1000
0001
1000
,
0001
0000
0000
0000
;

//---------------dance-single - ----------------
#NOTES:
     dance-single:
     :
     Beginner:
     2:
     0.164,0.249,0.000,0.000,0.000:
0000
0000
0000
0000
,
0000
0000
0000
0000
,
1000
0000
0000
0000
,
1000
0000
0000
0000
,
0001
0000
0000
0000
,
0001
0000
0000
0000
,
0100
0000
0000
0000
,
0100
0000
0000
0000
,
0010
0000
0000
0000
,
0010
0000
0000
0000
,
1000
0000
1000
0000
,
0001
0000
0001
0000
,
0100
0000
0100
0000
,
0001
0000
0001
0001
,
0001
0000
0001
0000
,
1000
0000
1000
0000
,
0010
0000
0010
0000
,
0100
0000
0100
0100
,
0100
0000
0100
0000
,
0001
0000
0001
0000
,
1000
0000
1000
0000
,
0010
0000
0010
0010
,
0010
0000
0010
0000
,
0100
0000
0100
0000
,
0001
0000
0001
0000
,
0001
0000
0000
0000
,
1000
0000
1000
0000
,
1000
0000
1000
0000
,
1000
0000
1000
0000
,
1000
0000
1000
1000
,
1000
0000
1000
0000
,
1000
0000
1000
0000
,
1000
0000
1000
0000
,
1000
0000
1000
1000
,
1000
0000
0001
0000
,
0100
0000
0010
0000
,
1000
0000
0001
0000
,
0100
0000
0010
0010
,
0010
0000
1000
0000
,
0001
0000
0100
0000
,
0010
0000
1000
0000
,
0001
0000
0100
0100
,
0100
0000
0000
0000
,
0100
0000
0000
0000
,
0010
0000
0000
0000
,
0000
0000
0000
0000
,
0010
0000
0000
0000
,
0000
0000
0000
0000
,
0010
0000
0000
0000
,
0000
0000
0000
0000
,
1000
0000
1000
0000
,
0001
0000
0001
0000
,
1000
0000
1000
0000
,
0001
0000
0001
0001
,
0001
0000
0001
0000
,
0100
0000
0100
0000
,
0010
0000
0010
0000
,
1000
0000
1000
1000
,
1000
0000
0001
0000
,
1000
0000
0001
0000
,
0100
0000
0010
0000
,
0100
0000
0010
0100
,
0010
0000
1000
0000
,
0010
0000
1000
0000
,
0001
0000
0100
0000
,
0001
0000
0100
0001
,
0100
0000
0010
0000
,
1000
0000
0001
0000
,
0100
0000
0010
0000
,
1000
0000
0001
0100
,
0001
0000
1000
0000
,
0010
0000
0100
0000
,
0001
0000
1000
0000
,
0010
0000
0100
0001
,
0100
0100
0100
0100
,
0010
0010
0010
0010
,
1000
1000
1000
1000
,
0001
0001
0001
0001
,
0010
0010
0010
0010
,
0100
0100
0100
0100
,
1000
1000
1000
1000
,
0001
0001
0001
0001
,
0001
0000
0000
0000
;
