#TITLE:Aphrodisiac;
#SUBTITLE:;
#ARTIST:Eleftheria Eleftheriou;
#TITLETRANSLIT:;
#SUBTITLETRANSLIT:;
#ARTISTTRANSLIT:;
#CREDIT:;
#BANNER:Aphrodisiac.PNG;
#BACKGROUND:Aphrodisiac-bg.PNG;
#LYRICSPATH:;
#CDTITLE:;
#MUSIC:Aphrodisiac.mp3;
#OFFSET:-6.580;
#SAMPLESTART:39.290;
#SAMPLELENGTH:17.450;
#SELECTABLE:YES;
#BPMS:0.000=110.000;
#STOPS:;
#BGCHANGES:;

//---------------dance-single - ----------------
#NOTES:
     dance-single:
     :
     Hard:
     8:
     0.512,0.491,0.335,0.088,0.251: // measure 1
1000
0001
1000
0110
,  // measure 2
1001
0000
0000
0001
0000
0000
1000
0000
0001
0000
0010
0000
0001
0000
0000
0000
,  // measure 3
1000
0100
1000
0001
0010
0100
0010
0000
,  // measure 4
0001
0000
1000
0010
0100
0000
0001
0000
0010
0000
0100
0000
0010
0000
0000
0000
,  // measure 5
0001
0000
1000
0010
1000
0000
0001
0000
1000
0001
1000
0001
1000
0000
0000
0000
,  // measure 6
0001
0000
0000
0000
1000
0000
0100
0000
1000
0000
0000
1000
0001
0000
0000
0000
,  // measure 7
1000
0000
0000
0000
0001
0000
0100
0000
0001
0000
0000
0001
1000
0000
0100
0000
,  // measure 8
0010
0100
1000
0001
0100
0000
0101
0000
,  // measure 9
0001
0000
0010
0000
0100
0000
0010
0000
0100
0000
0010
0001
1000
0000
0001
0000
,  // measure 10
0100
0000
0000
0001
0100
0000
0001
0000
1000
0000
0000
0000
1001
0000
0000
0000
,  // measure 11
0001
0000
0010
0000
0100
0000
1000
0000
0100
0000
0000
0010
0001
0000
0000
0000
,  // measure 12
1000
0010
0100
0001
0100
0000
1010
0000
,  // measure 13
0001
0000
0010
0000
1000
0000
0010
0000
0001
0000
0000
0001
1000
0000
0100
0000
,  // measure 14
0220
0330
2002
3003
,  // measure 15
0011
0000
0000
0000
1100
0000
0000
0000
1010
0000
0000
0001
0100
0001
0100
0000
,  // measure 16
1001
0000
0000
0001
0010
0000
0100
0000
1000
0000
0000
0000
1001
0000
0000
0000
,  // measure 17
0010
0000
0000
1000
0100
0000
0010
0000
0001
0000
1000
0100
0010
0000
0100
1000
,  // measure 18
0001
0100
0010
1000
1010
0010
0110
0100
,  // measure 19
0001
0000
0010
0000
1000
0000
0010
0000
0001
0000
0000
1000
0001
1000
0100
0000
,  // measure 20
0011
0000
0000
0010
0001
0000
0100
0000
0010
0000
0000
0000
1010
0000
0000
0000
,  // measure 21
1100
0000
0000
0100
1000
0000
0001
0000
0100
0000
0000
0000
0101
0000
0000
0000
,  // measure 22
0010
1000
0001
0010
0110
0100
1100
1000
,  // measure 23
0001
0000
1000
0000
0010
0000
0100
0000
0001
0100
0001
0100
0010
1000
0010
0000
,  // measure 24
1000
0000
0100
0000
0010
0000
0001
0000
0100
0010
0100
0000
0001
0000
1000
0000
,  // measure 25
0010
0000
0100
0000
0001
0000
0010
0001
0100
0001
0100
0000
0010
0000
0100
0000
,  // measure 26
0001
0000
1000
0100
0010
0000
0010
0100
1000
0000
0001
0000
1000
0000
0100
0000
,  // measure 27
0010
0000
0001
0000
0010
0000
0100
0000
1000
0010
0100
0001
0100
0010
1000
0000
,  // measure 28
0101
0000
0010
1000
0100
0000
0010
0001
,  // measure 29
0100
0000
0000
0001
1000
0000
0100
0000
0001
0000
0100
0000
0010
0000
0001
0000
,  // measure 30
1000
0000
0000
0001
0100
0000
0010
0000
1000
0000
0000
0000
1000
0000
0100
0000
,  // measure 31
0010
0000
0000
0100
0010
0000
0100
0000
1000
0000
0001
0000
0100
0000
0010
0000
,  // measure 32
1001
0000
0000
1000
0001
0000
0100
0000
1000
0000
0100
0000
0010
0000
0100
0000
,  // measure 33
0001
0000
0000
1000
0001
0000
0010
0000
0100
0000
0010
0000
0001
0000
1000
0000
,  // measure 34
1100
0000
0010
0001
0101
0000
0100
0010
,  // measure 35
1001
0000
1000
0100
0011
0100
1001
0000
,  // measure 36
0220
0330
2002
3003
,  // measure 37
1010
0000
0000
0000
0101
0000
0000
0000
1001
0000
0000
1000
0100
0010
0001
2000
,  // measure 38
0002
0000
0000
0000
,  // measure 39
0000
0000
3003
1001
,  // measure 40
0101
0000
0000
0010
1000
0000
0001
0000
0100
0000
0001
0000
0010
0000
0100
0000
,  // measure 41
1000
0000
0100
0000
0001
0000
0100
0000
1001
0000
0000
1000
0001
1000
0001
0000
,  // measure 42
1000
0000
0000
0001
0100
0000
0010
0000
0100
0000
0000
0000
1001
0000
0000
0000
,  // measure 43
0001
0000
0000
1000
0100
0000
0010
0000
0100
0000
0010
0000
0001
1000
0001
1000
,  // measure 44
0001
1000
0010
0100
0110
0010
1010
0000
,  // measure 45
1000
0000
0001
0000
0100
0000
0001
0000
1000
0010
0100
0010
0100
0001
1000
0000
,  // measure 46
0001
0000
0010
0000
0100
0000
0010
0000
0001
0010
0100
0000
0010
0000
0001
0000
,  // measure 47
1000
0000
0010
0000
0100
0000
0001
1000
0001
1000
0100
0000
0010
0000
0100
0000
,  // measure 48
0010
0000
0001
1000
0001
1000
0100
0010
0100
0000
1000
0001
1000
0000
0001
0000
,  // measure 49
0001
0100
0010
0010
0010
0000
0000
0000
;

//---------------dance-single - ----------------
#NOTES:
     dance-single:
     :
     Medium:
     7:
     0.407,0.363,0.282,0.194,0.079:
1000
0001
0100
1001
,
0110
0000
0010
1000
0100
0000
0010
0000
,
0100
0010
0001
0010
0100
0000
1000
0000
,
0001
0100
0001
0000
1000
0010
1000
0000
,
0001
1000
0100
0010
0001
0100
0010
0000
,
2001
0000
0010
0010
0020
0000
3030
0000
,
1002
0000
0100
0100
0200
0000
0303
0000
,
0210
0000
0001
0001
0002
0000
0303
0000
,
2001
0000
0100
0100
0200
0000
3300
0000
,
1000
0000
0000
0001
0000
0000
1000
0000
0001
0000
0000
0000
0100
0000
0000
0000
,
0010
0000
0000
0100
0000
0000
0010
0000
0100
0000
0000
0000
0001
0000
0000
0000
,
1000
0000
0000
0100
0000
0000
1000
0000
0100
0000
0000
0000
0011
0000
0000
0000
,
0001
0000
0100
0000
0010
0000
1000
0000
0001
0000
0000
0001
1000
0000
0000
0000
,
0220
0330
2002
3003
,
0110
1001
0220
0330
,
1001
0000
0000
0001
0000
0000
0100
0000
0001
0000
0000
0000
0100
0000
0000
0000
,
0010
0000
0000
1000
0000
0000
0100
0000
1000
0000
0100
0000
0010
0000
0001
0000
,
0100
0000
0010
0100
0001
0000
0101
0000
,
0001
1000
0100
0001
0100
0000
0110
0000
,
1001
0000
0000
1000
0000
0000
0001
0000
0100
0000
0000
0000
0110
0000
0000
0000
,
0100
0000
0000
0001
0000
0000
1000
0000
0100
0000
0000
0000
1100
0000
0000
0000
,
1000
0100
0001
0100
0010
0000
0011
0000
,
0001
0100
0010
1000
0010
0100
0001
1000
,
0001
0010
0001
0100
0010
0010
0010
0000
,
1000
0010
0100
0001
1000
1000
1000
0000
,
0001
0010
0100
1000
0100
0100
0100
0000
,
0010
0001
0100
0001
1000
1000
1000
0000
,
0101
0000
0000
0001
0000
0000
0100
0000
0001
0000
0000
1000
0000
0000
0100
0000
,
1000
0000
0000
0001
0000
0000
0010
0000
0100
0000
0010
0000
0001
0000
1000
0000
,
0010
0000
0000
0100
0000
0000
0010
0000
1000
0000
0000
0001
0000
0000
1000
0000
,
0001
0000
0000
0010
0000
0000
0001
0000
1000
0000
0100
0000
0010
0000
0001
0000
,
0100
0000
0000
0010
0100
0000
0010
0000
0100
0000
0000
0000
0001
0000
1000
0000
,
0100
0000
0000
1000
0100
0000
0010
0000
0001
0000
1000
0000
0010
0000
0100
0000
,
0001
0000
1000
0010
0100
0000
0010
0100
,
0001
0000
1000
0001
1000
0000
1001
0000
,
0220
0330
2002
3003
,
0110
1001
0220
0330
,
2002
0000
0000
0000
,
0000
0000
3003
1001
,
0001
0010
0001
0100
0010
0000
1001
0000
,
1000
0010
0100
0001
0010
0100
0010
0001
,
1000
0000
0000
0100
0000
0000
1000
0000
0001
0000
0000
0000
1001
0000
0000
0000
,
0001
0000
0000
0100
0000
0000
0001
0000
1000
0000
0000
0000
1001
0000
0000
0000
,
1000
0010
0100
0001
0010
0100
0010
0001
,
1000
0010
0100
0001
1000
0000
1001
0000
,
0100
0001
0100
0001
1000
0100
1000
0000
,
0001
0010
0001
1000
0100
1000
0010
0000
,
0100
0010
1000
0100
0010
0001
0100
0000
,
0010
0100
0010
0100
0010
0000
0000
0000
;

//---------------dance-single - ----------------
#NOTES:
     dance-single:
     :
     Easy:
     3:
     0.208,0.299,0.167,0.088,0.000:
1000
0001
1000
1001
,
0110
0000
0100
0000
,
0010
1000
0001
0000
,
1000
0100
0010
0000
,
0001
0100
0010
1000
,
1001
0000
0001
0000
,
0100
0000
0010
0000
,
1000
0000
0001
0000
,
0010
0010
0010
0000
,
0100
0000
1000
0000
,
0001
0000
0100
0000
,
0001
0000
1000
0000
,
0010
0010
0010
0000
,
0110
0000
1001
0000
,
0110
0110
0220
0330
,
1001
0000
0001
0000
,
0100
0001
0100
0000
,
0001
0000
1000
0000
,
0100
1000
0001
1000
,
0100
0000
0010
0000
,
0001
1000
0001
0000
,
0100
0001
0100
0001
,
1000
0001
1000
0000
,
1001
0000
0001
0000
,
0100
0010
0100
0000
,
0001
1000
0100
0000
,
0010
0100
0010
0000
,
1001
0000
0001
0000
,
0001
0000
1000
0001
,
0100
0000
0100
0000
,
0100
0010
0100
0010
,
1000
0000
1000
0100
,
0001
0000
0100
1000
,
0100
0000
0010
0000
,
0100
0010
0010
0001
,
2002
3003
2002
3003
,
0110
0110
0220
0330
,
2002
0000
0000
0000
,
0000
0000
0000
3003
,
1001
1000
0001
0001
,
0100
0100
0100
0000
,
0001
1000
0001
1000
,
0100
1000
0100
0000
,
1000
0001
0100
0001
,
0010
0100
0010
0000
,
1001
0000
1000
0000
,
0001
0100
0001
1000
,
0001
0100
0010
0010
,
0100
0100
0100
0000
;

//---------------dance-single - ----------------
#NOTES:
     dance-single:
     :
     Beginner:
     1:
     0.112,0.128,0.053,0.000,0.000:
0000
0000
0000
0000
,
0110
0000
0000
0000
,
0100
0000
0001
0000
,
1000
0000
0000
0000
,
0001
0001
0001
0000
,
1000
0000
0000
0000
,
0001
0000
0000
0000
,
1000
0000
0100
0000
,
0001
0000
0100
0000
,
1000
0000
0000
0000
,
0001
0000
0000
0000
,
1000
0000
0010
0000
,
0001
0000
0010
0000
,
1000
0000
0001
0000
,
1001
0000
0000
0000
,
0110
0000
0100
0000
,
0001
0000
1000
0000
,
0100
0000
0000
0000
,
0010
0000
0000
0000
,
0001
0000
0010
0000
,
0001
0000
1000
0000
,
0001
0000
0100
0000
,
0010
0000
0000
0000
,
1000
0000
1000
0000
,
0001
0000
0001
0000
,
0100
0000
0010
0000
,
0100
0000
0000
0000
,
1001
0000
0000
0000
,
1000
0000
0001
0000
,
0100
0000
0000
0000
,
0010
0000
0100
0000
,
0001
0000
1000
0000
,
0100
0000
0010
0000
,
0100
0000
0100
0000
,
0010
0000
0010
0000
,
0100
0000
0010
0000
,
0001
0001
0001
0000
,
1001
0000
0000
0000
,
0000
0000
0000
0000
,
0110
0000
0100
0000
,
0001
0001
0001
0000
,
1000
0000
0000
0000
,
0001
0000
0000
0000
,
1000
0000
0001
0000
,
1000
1000
1000
0000
,
0001
0000
0010
0000
,
0100
0000
1000
0000
,
0010
0000
0100
0000
,
0010
0010
0010
0000
;
