#VERSION:0.83;
#TITLE:the shadow;
#SUBTITLE:;
#ARTIST:kors k;
#TITLETRANSLIT:;
#SUBTITLETRANSLIT:;
#ARTISTTRANSLIT:;
#GENRE:;
#CREDIT:valgrind;
#MUSIC:theshadow.ogg;
#BANNER:theshadow-bn.png;
#BACKGROUND:theshadow-bg.png;
#CDTITLE:cdtitle.png;
#SAMPLESTART:12.307;
#SAMPLELENGTH:12.308;
#SELECTABLE:YES;
#OFFSET:1.134;
#BPMS:0.000=156.000;
#STOPS:;
#SPEEDS:0.000=1.000=0.000=0;
#SCROLLS:0.000=1.000,
193.500=0.950,
194.000=0.900,
194.500=0.850,
195.000=0.800,
195.500=0.750,
196.000=0.700,
229.000=0.750,
233.000=0.800,
237.000=0.850,
241.000=0.900,
245.000=0.925,
247.000=0.950,
249.000=0.975,
251.000=1.000,
329.500=0.950,
330.000=0.900,
330.500=0.850,
331.000=0.800,
331.500=0.750,
332.000=0.700,
335.000=-2.000,
335.063=-1.600,
335.125=-1.200,
335.188=-0.800,
335.250=-0.400,
335.313=0.000,
335.375=0.300,
335.438=0.600,
335.500=0.900,
335.563=1.200,
335.625=1.500,
335.688=1.800,
335.750=2.100,
335.813=2.400,
335.875=2.700,
335.938=3.000
;
#BGCHANGES:;
#FGCHANGES:0.000=lua=1.000=0=0=1;

//--------------- dance-single - [XMOD-] XO+ ----------------
#NOTEDATA:;
#STEPSTYPE:dance-single;
#DESCRIPTION:[XMOD-] XO+;
#DIFFICULTY:Medium;
#METER:12;
#RADARVALUES:0,0,0,0,0;
#CREDIT:valgrind | 12 |;
#CHARTNAME:basic 8th walks;
#NOTES:
0000
0000
0000
0000
,
0000
0000
0000
0000
,
0000
0000
0000
0000
,
0000
0000
0000
0000
,
0000
0000
0000
0000
,
1001
0000
0000
0000
,
1000
0000
0000
0001
0000
0000
1000
0000
0000
0000
0000
0000
0020
0000
0000
0000
,
0000
0000
0000
0000
0230
0000
0000
0000
0000
0000
0000
0000
0000
0000
0000
0300
,
0101
0000
1100
0000
1001
1000
0100
1000
,
0010
0100
0001
0100
0010
0100
0001
0100
,
0010
1000
0001
0010
0100
1000
0001
0100
,
0001
0000
0010
0000
0000
0010
0000
0000
0100
0000
0000
0100
0000
0000
0010
0000
,
0001
0001
1000
1000
0010
0100
0002
0000
,
0013
0100
1000
0100
0010
0100
1000
0100
,
0010
0001
1000
0010
0100
0001
2000
0000
,
3001
0000
0100
0000
0000
0100
0000
0000
0010
0000
0000
0010
0000
0000
0200
0000
,
0301
0000
0000
1001
0000
0000
1000
0000
0100
0000
0010
0000
0002
0000
0000
0000
,
0103
0010
1000
0010
0100
0010
1000
0010
,
0100
0001
1000
0100
0010
0001
2000
3010
,
1000
0000
0100
0000
0000
0100
0000
0000
0010
0000
0000
0010
0000
0000
0100
0000
,
1000
1000
0001
0001
0100
0010
2000
0000
,
3100
0010
0001
0010
0100
0010
0001
0010
,
0100
1000
0001
1000
0010
0100
0002
0000
,
1003
0000
0010
0000
0000
0010
0000
0000
0100
0000
0000
0100
0000
0000
0020
0000
,
1030
0001
1001
0000
1000
0100
0020
0000
,
0031
0000
0000
0100
0000
0000
0010
0000
1000
0000
0000
0100
0000
0000
0010
0000
,
0100
0000
0000
0001
0000
0000
0100
0000
0000
1000
0000
0000
0001
0000
0100
0000
,
0001
0000
0000
0010
0000
0000
0100
0000
1000
0000
0000
0010
0000
0000
0100
0000
,
0010
0000
0000
1000
0000
0000
0200
0000
0000
0000
0302
0000
0000
0000
0103
0000
,
1000
0000
0000
0010
0000
0000
0100
0000
0001
0000
0000
0010
0000
0000
0100
0000
,
0010
0000
0000
1000
0000
0000
0010
0000
0001
0000
0000
1000
0000
0000
0010
0000
,
1000
0001
1000
0001
0010
0100
0010
0100
,
2000
0000
0000
0000
,
3010
1000
0100
1000
0010
1000
0100
0010
,
0001
0100
0010
0100
1000
0100
0001
1000
,
0100
0010
0001
0100
0010
1000
0001
0010
,
0100
0100
0010
0010
0001
1000
0020
0000
,
0130
0001
0010
0001
0100
0001
0010
0100
,
0001
0100
1000
0001
0100
0010
0100
0001
,
1000
0100
0001
0100
0010
0001
0100
0010
,
1000
0000
0001
1000
0000
0001
0000
0000
0100
0000
0010
0000
2000
0000
0000
0000
,
3100
0000
0010
0000
0000
0010
0000
0000
0001
0000
1000
0000
1000
0000
0010
0000
,
0100
0000
0010
0000
0000
0010
0000
0000
1000
0000
0001
0000
2000
0000
0000
0000
,
3010
0000
0100
0000
0000
0100
0000
0000
0001
0000
1000
0000
1000
0000
0100
0000
,
0010
0010
0100
0100
1000
0001
0100
0001
,
0010
0000
0100
0000
0000
0100
0000
0000
1000
0000
0001
0000
0001
0000
0100
0000
,
0010
0000
0100
0000
0000
0100
0000
0000
0001
0000
1000
0000
0001
0000
0010
0000
,
0100
0000
0000
1000
0000
0001
0000
1000
0000
0001
0000
0100
0000
0000
0010
0000
,
0100
0001
1000
0100
0010
0001
0100
0010
,
2000
0000
0000
0000
,
3002
0000
0000
0000
,
2003
0000
0000
0000
,
3200
0000
0320
0000
,
0032
0000
0000
0000
,
2003
0000
0000
0000
,
3002
0000
0000
0000
,
0203
0000
0320
0000
,
1030
0000
1001
0000
0000
1000
0100
0010
,
0001
0000
1001
0000
0000
0001
0010
0100
,
1000
0000
1001
0000
0000
1000
0010
0100
,
0001
0000
1001
0000
0000
0001
0100
0010
,
1000
1001
0100
0110
,
1000
1100
0001
0101
,
0110
0110
1001
1001
,
1000
0100
1000
0100
0010
0001
0010
0001
,
2000
0000
0000
0000
,
3010
0100
0001
0100
0010
1000
0200
0000
,
0310
1000
0010
0001
1000
0100
1000
0010
,
0100
1000
0100
0001
1000
0010
1000
0100
,
0010
1000
0010
0001
1000
0100
1000
0010
,
0100
0000
0001
0000
0001
0000
1000
0000
0000
0100
0000
0010
0100
0000
1000
0000
,
0100
0001
0100
1000
0001
0010
0001
0100
,
0010
0001
0010
1000
0001
0100
0001
0010
,
0100
0100
0010
0010
0002
0000
2003
0000
,
3010
1000
0100
1000
0010
0100
1000
0100
,
0010
0001
0010
1000
0001
0010
1000
0010
,
0100
0001
0100
1000
0001
0100
1000
0100
,
0010
0001
0010
1000
0001
0010
1000
0010
,
0100
0000
0001
0000
0100
0000
1000
0000
0100
0010
0000
0100
0010
0000
0001
0000
,
0100
1000
0100
0001
1000
0100
0001
0100
,
0010
1000
0010
0001
1000
0010
0001
0010
,
1000
0100
0001
0100
1000
0010
0001
0010
,
0100
1000
0001
0010
1000
0001
0010
0100
,
1000
0000
0000
0010
0000
0000
0100
0000
0001
0000
0010
0000
0100
0000
0000
0000
,
2002
0000
3003
0000
;

//--------------- dance-single - [FX/XMOD-] GH+ ----------------
#NOTEDATA:;
#STEPSTYPE:dance-single;
#DESCRIPTION:[FX/XMOD-] GH+;
#DIFFICULTY:Hard;
#METER:16;
#RADARVALUES:0,0,0,0,0;
#CREDIT:valgrind | 16 |;
#CHARTNAME:intro to wadats;
#NOTES:
0000
0000
0000
0000
,
0000
0000
0000
0000
,
0000
0000
0000
0000
,
0000
0000
0000
0000
,
0000
0000
0000
0000
,
1001
0000
0000
0000
,
0001
0000
0000
0001
0000
0000
0001
0000
2000
0000
0000
0000
3002
0000
0000
0000
,
0000
0000
0203
0000
0000
0000
0000
0000
0010
0000
0000
0010
0000
0000
0310
0000
,
0100
0000
0000
0000
0110
0000
0000
0000
1001
0000
1000
0000
0001
0010
0100
1000
,
0010
0000
1000
0010
1000
0000
0001
0010
0001
0000
1000
0010
1000
0000
0001
0010
,
0001
0000
1000
0100
1000
0000
0001
0100
0001
0000
1000
0100
1000
0000
0001
1000
,
0001
0000
0100
0000
0000
0100
0000
0000
0010
0000
0000
0010
0000
0000
1000
0000
,
0001
0010
0001
0010
0100
1000
0100
1000
0001
0000
0100
0010
2000
0000
0000
3000
,
0100
0000
0010
0001
0010
0000
0100
1000
0100
0000
0010
0001
0010
0000
0001
1000
,
0001
0000
1000
0010
1000
0000
0001
0100
0001
0000
1000
0100
0020
0000
0031
1000
,
0001
0000
0100
0000
0000
0100
0000
0000
0010
0000
0000
0010
0000
0000
1000
0010
,
0100
0001
0000
1001
0000
0001
0010
0100
1000
0000
0010
0100
0002
0000
0000
0000
,
0013
0000
0001
0010
0001
0000
1000
0010
1000
0000
0001
0010
0001
0000
1000
0010
,
1000
0000
0001
0100
0001
0000
1000
0100
1000
0000
0001
0100
0020
0000
1030
0001
,
1000
0000
0100
0000
0000
0100
0000
0000
0010
0000
0000
0010
0000
0000
0001
0000
,
1000
0010
1000
0010
0100
0001
0100
0001
1000
0000
0100
0010
0002
0000
0000
0003
,
0100
0000
0010
1000
0010
0000
0100
0001
0100
0000
0010
1000
0010
0000
1000
0001
,
0020
0000
0130
1000
0200
0000
0310
0001
0200
0000
0310
1000
0200
0000
0310
0001
,
1000
0000
0010
0000
0000
0010
0000
0000
0100
0000
0000
0100
0000
0000
0001
0010
,
0100
0000
1000
0000
1001
0000
0000
0000
0001
0000
0100
0010
2000
0000
3000
0000
,
0200
0000
1000
0001
0000
0000
0000
0300
0020
0000
1000
0001
0000
0000
0130
1000
,
0001
0000
0000
0100
0000
0000
0001
0000
0010
0000
0100
0000
1000
0100
1000
0001
,
0200
0000
0001
1000
0000
0000
0000
0300
0020
0000
0001
1000
0000
0000
0130
0001
,
1000
0000
0000
0100
0000
0000
2000
0000
0000
0000
3010
0000
1000
0010
1000
0001
,
0020
0000
0001
1000
0000
0000
0000
0030
0200
0000
0001
1000
0000
0000
0310
0001
,
1000
0000
0000
0010
0000
0000
0100
0000
0001
0000
0010
0000
0001
0010
0001
1000
,
0010
1000
0010
1000
0001
0010
0001
0010
,
0100
1000
0100
1000
0001
0100
0001
0100
0010
1000
0001
0010
0002
0000
0000
0000
,
0103
0000
0001
0100
0001
0000
1000
0100
0010
0000
0001
0010
0001
0000
1000
0010
,
0100
0000
0001
0010
0100
0000
0010
0001
0100
0000
0010
1000
0010
0000
1000
0100
,
0010
0001
0100
0010
1000
0001
0100
0001
,
1000
0100
1000
0100
0010
0001
0010
0001
1000
0000
0010
0100
0002
0000
0000
0003
,
0010
0000
0001
0010
0001
0000
1000
0010
0100
0000
0001
1000
0001
0000
0010
0001
,
0100
0000
0010
1000
0001
0000
0010
0100
1000
0000
0010
0100
0010
0000
1000
0001
,
0010
0001
0100
0010
1000
0001
0010
0001
,
0010
0000
0100
1000
0000
1100
0000
0000
0001
0000
1000
0010
0200
0000
0300
0000
,
0001
1000
0100
0000
0010
0200
0000
0000
1000
0001
0000
0000
0001
0010
0000
0000
,
1300
0001
0100
0000
0010
0100
0000
0000
0001
1000
0100
0000
0010
0000
0001
0000
,
1000
0001
0010
0000
0100
0020
0000
0000
0001
1000
0000
0000
1000
0100
0000
0000
,
0031
0100
0001
0100
0010
1000
0010
1000
0001
0000
0010
0100
1000
0000
0001
0000
,
0100
0000
0001
0100
0001
0000
1000
0000
0100
0000
1000
0100
1000
0000
0001
0100
,
0001
0010
0100
1000
0001
0100
0000
0010
1000
0000
0010
0000
1000
0001
1000
0001
,
0010
0100
0000
1000
0000
0001
0000
0100
0000
0010
0000
0100
0001
1000
0100
0010
,
0001
1000
0001
1000
0010
0100
0010
0100
0001
1000
0100
0010
0001
1000
0010
0100
,
0002
0100
0000
0000
0203
0000
0000
0000
0000
0000
0000
0302
0000
0000
0023
0000
,
0000
0100
0000
0000
0230
0000
0000
0000
0000
0000
0000
2300
0000
0000
3020
0000
,
0000
0100
0000
0000
0230
0000
0000
0000
0000
0000
0000
0302
0000
0000
0023
0000
,
0130
1000
0100
0000
1000
0000
1000
0000
0000
0001
0000
0010
0100
0000
2000
0000
,
0000
0010
0000
0000
3020
0000
0000
0000
0000
0000
0000
2030
0000
0000
3200
0000
,
0000
0010
0000
0000
0320
0000
0000
0000
0000
0031
0000
1000
0010
1000
0001
0200
,
0000
0010
0000
0000
0320
0000
0000
0000
0000
0000
0000
2030
0000
0000
3100
0000
,
0100
0000
0010
0000
0010
0000
0001
0000
0001
0000
1000
0010
0100
0010
1000
0000
,
0001
1000
0100
0000
0110
0000
0000
0000
0000
0001
0010
0000
0001
1000
0010
0000
,
1000
0001
0100
0000
0110
0000
0000
0000
0000
1000
0010
0000
1000
0001
0010
0000
,
0001
1000
0010
0000
0110
0000
0000
0000
0000
0001
0100
0000
0001
1000
0100
0000
,
1000
0001
0010
0000
0110
0000
0000
0000
0000
1000
0100
0000
1000
0001
0100
0000
,
0001
1000
0010
0000
0110
0000
0000
0000
1000
0001
0010
0000
0110
0000
0001
0000
,
1000
0001
0100
0000
0110
0000
0000
0000
0001
1000
0100
0000
0110
0000
1000
0000
,
0011
1010
0101
1100
,
0001
0001
0100
0100
0010
0010
1000
1000
,
0001
0000
0010
0000
0001
0000
1000
0000
0000
0010
0000
0000
0000
0000
0000
0010
0000
0000
0000
0000
0000
0100
0000
0000
,
0002
0000
0000
0000
0000
0000
0000
0000
0000
0000
0000
0000
0013
0100
0010
0100
,
1000
0010
0000
0100
0001
0000
1000
0010
1000
0000
0001
0010
0000
0001
0100
0000
,
0001
0010
0000
0100
1000
0000
0001
0010
0001
0000
1000
0010
0000
1000
0100
0000
,
1000
0010
0000
0100
0001
0000
1000
0010
1000
0000
0001
0010
0000
0001
0100
0000
,
0001
0010
0100
0000
1000
0001
1000
0000
0000
0010
0000
0100
0001
0000
0010
0000
,
0001
0100
0000
0010
1000
0000
0001
0100
0001
0000
1000
0100
0000
1000
0010
0000
,
1000
0100
0000
0010
0001
0000
1000
0100
1000
0010
0000
0100
0001
1000
0001
0010
,
0100
0000
0100
0000
1000
0000
1000
0000
0001
0100
0001
0100
0010
1000
0010
1000
,
0002
0000
0010
0000
2003
0000
0010
0000
3001
0000
0100
0010
2000
0000
3001
0010
,
0200
0000
1000
0001
0000
0000
0001
0010
0000
0000
1000
0010
0000
0000
0301
0000
,
0020
0000
0001
1000
0000
0000
1000
0100
0000
0000
0001
0100
0000
0000
1030
0001
,
0200
0000
0001
1000
0000
0000
1000
0010
0000
0000
0001
0010
0000
0000
1300
0000
,
0020
0000
1000
0001
0000
0000
0001
0100
0000
0000
1000
0100
0000
0000
0031
0000
,
0200
0000
0001
0010
0000
0000
0010
0001
0000
0000
0010
1000
0000
0000
1300
0001
,
0020
0000
0001
0100
0000
0000
0100
0001
0000
0000
0130
1000
0001
0100
0000
0001
,
1000
0001
0000
0010
0100
0010
0000
0001
1000
0001
0000
0100
0010
1000
0000
0001
,
1000
0100
1000
0010
0100
0001
1000
0100
0010
0001
0100
0010
1000
0100
0010
0100
,
1000
0000
0000
0010
0000
0000
0100
0000
0001
0000
0010
0000
0100
0000
0000
0000
,
2002
0000
3003
0000
;

//--------------- dance-single - [FX/XMOD-] GH+ XO BU- ----------------
#NOTEDATA:;
#STEPSTYPE:dance-single;
#DESCRIPTION:[FX/XMOD-] GH+ XO BU-;
#DIFFICULTY:Challenge;
#METER:17;
#RADARVALUES:0,0,0,0,0;
#CREDIT:valgrind | 17+ |;
#CHARTNAME:esoteric wadat boss;
#NOTES:
0000
0000
0000
0000
,
0000
0000
0000
0000
,
0000
0000
0000
0000
,
0000
0000
0000
0000
,
0000
0000
0000
0000
,
1001
0000
0000
0000
,
0001
0000
0000
0001
0000
0000
0001
0000
2000
0000
0000
0000
3002
0000
0000
0000
,
0000
0000
0203
0000
0000
0000
0000
0000
0010
0000
0000
0010
0000
0000
0310
0000
,
0100
0000
0000
0000
0110
0000
0000
0000
1001
0000
1000
0000
0001
0010
0100
1000
,
0020
0000
1000
0100
0000
0000
0001
0100
0000
0000
1000
0100
0000
0000
0001
0100
,
0000
0000
0130
0001
1000
0000
0001
1000
0100
0000
1000
0001
0100
0000
0010
0100
,
0001
0000
0010
0000
0100
0010
0000
0001
0010
0000
0100
0010
0000
0001
0010
0000
,
0001
1000
0001
1000
0010
0100
0010
0100
0001
0000
0010
0100
0002
0000
0000
0103
,
0020
0000
0100
1000
0000
0000
0100
0001
0000
0000
0130
1000
0001
0000
0100
0001
,
1000
0000
0010
1000
0001
0000
0100
0001
0010
0000
0100
0010
2000
0000
3010
0100
,
1000
0000
0000
0000
0000
0000
0010
0000
0000
0000
0000
0000
0100
0000
0000
0010
0000
0000
0000
0000
0000
1000
0000
0000
0010
0000
0000
0000
0000
0000
0100
0000
0000
0010
0000
0000
0000
0000
0000
1000
0000
0000
0001
0000
0010
0000
0001
0000
,
0010
0100
0000
0010
0000
1000
0010
0100
1000
0001
0100
0010
2000
0000
0000
0000
,
3200
0000
1000
0010
0000
0000
0001
0010
0000
0000
1000
0010
0000
0000
0001
0010
,
0000
0000
0310
0001
1000
0000
0010
1000
0001
0000
0010
0100
0002
0000
0103
0010
,
0001
0000
0100
0000
0010
0100
0000
0001
0100
0000
0010
0100
0000
0001
0100
0000
,
0001
1000
0001
1000
0100
0010
0100
0010
0001
0000
0100
0010
0002
0000
0003
0010
,
0200
0000
0010
1000
0000
0000
0010
0001
0000
0000
0310
1000
0001
0000
0010
0100
,
0002
0000
0103
0010
0002
0000
0013
0100
2000
0000
3010
0100
2000
0000
3100
0010
,
1000
0000
0000
0000
0000
0000
0100
0000
0000
0000
0000
0000
0010
0000
0000
0100
0000
0000
0000
0000
0000
1000
0000
0000
0100
0000
0000
0000
0000
0000
0010
0000
0000
0100
0000
0000
0000
0000
0000
1000
0000
0000
0001
0000
0100
0000
0001
0000
,
0100
0000
0010
0000
0110
0000
0000
0000
1000
0000
0001
0100
0010
0000
1000
0000
,
0100
0000
0010
0001
0200
0000
0310
0000
1000
0000
0010
1000
0200
0000
1300
0001
,
0020
0001
0100
0000
0100
0001
0000
0000
0000
0130
1000
0000
0001
0010
0001
1000
,
0010
0000
0100
0001
0020
0000
0130
0000
1000
0000
0100
1000
0020
0000
1030
0001
,
0200
0001
0010
0000
0010
0001
0000
0000
0000
0310
2000
0000
3001
0000
0010
0001
,
0100
0000
0010
1000
0200
0000
1300
0000
0001
0000
0010
0001
0200
0000
0301
1000
,
0200
1000
0010
0000
0010
1000
0000
0000
0310
0000
0001
0010
0001
1000
0000
0010
,
0100
0001
0100
0001
1000
0100
1000
0100
,
0010
0001
0010
0001
1000
0010
1000
0010
0100
0001
1000
0100
2000
0000
0000
0000
,
3020
0000
1000
0100
0000
0000
0001
0100
0000
0000
1030
0001
0200
0000
0001
1000
,
0000
1000
0010
0000
0010
1000
0000
0000
0320
0000
0000
0000
0130
0000
1000
0001
,
0010
0000
0100
1000
0020
0000
0130
0000
0001
0000
0100
0001
0020
0000
0130
0000
,
1000
0001
1000
0001
0100
0010
0100
0010
1000
0000
0100
0010
2000
0000
0000
3010
,
0200
0000
1000
0010
0000
0000
0001
0010
0000
0000
1300
0001
0020
0000
0001
1000
,
0000
1000
0100
0000
0100
1000
0000
0000
0000
0000
0230
0000
0301
0000
1000
0001
,
0010
0000
0100
0010
2000
0000
3010
0000
0100
0000
0010
0001
0200
0000
0310
0000
,
1000
0000
0001
0100
0000
0101
0000
0000
1000
0000
0001
0010
0200
0000
0000
0000
,
1300
0001
0100
0000
0100
0010
0000
0000
1000
0200
0010
0000
0010
0001
0000
0000
,
0301
1000
0010
0000
0010
0100
0000
0000
0001
0010
0100
0000
2000
0000
0000
3000
,
0001
1000
0100
0000
0100
0010
0000
0000
0001
0200
0010
0000
0010
1000
0000
0000
,
1300
0001
1000
0001
0100
0010
0100
0010
1000
0000
0100
0010
2000
0000
3010
0000
,
0001
0000
1000
0100
0010
0000
0001
0000
1000
0000
0010
0100
0001
0000
0010
0001
,
1000
0000
0010
0000
1000
0000
0010
0000
0000
0100
0000
0000
0001
0000
0000
1000
0000
0000
0000
0000
0000
0100
0000
0000
0010
0000
0000
0000
0000
0000
0010
0000
0000
0000
0000
0000
0001
0000
0000
1000
0000
0000
0010
0000
0000
1000
0000
0000
,
0001
0010
0000
0011
0000
0110
0000
0011
0000
1001
0000
0001
0100
0010
1000
0001
,
0010
0100
1000
0001
0100
0001
1000
0100
0010
0001
0100
0010
1000
0100
0010
0001
,
0100
0001
0000
0000
0002
0000
0000
0000
0000
0000
0000
0100
0000
0000
0010
0000
,
0000
1003
0000
0000
2000
0000
0000
0000
0000
0000
0000
0100
0000
0000
0010
0000
,
0000
3001
0000
0000
0002
0000
0000
0000
0000
0000
0000
0100
0000
0000
0013
0000
,
0100
0000
1000
0000
0100
0000
1000
0000
0000
0000
0000
0000
1000
0000
0000
0000
0000
0000
0001
0000
0000
0000
0000
0000
0000
0000
0000
0100
0000
0000
0000
0000
0000
0010
0000
0000
0100
0000
0000
0010
0000
0000
1000
0000
0000
0000
0000
0000
,
0000
0001
0000
0000
0002
0000
0000
0000
0000
0000
0000
0010
0000
0000
0100
0000
,
0000
1003
0000
0000
2000
0000
0000
0000
0000
0010
0000
3001
0010
0001
0020
0100
,
0000
0031
0000
0000
0002
0000
0000
0000
0000
0000
0000
0010
0000
0000
0100
0000
,
0103
0000
0000
0000
0000
0000
0001
0000
0000
0000
0000
0000
0001
0000
0000
0000
0000
0000
1000
0000
0000
0000
0000
0000
1000
0000
0000
0000
0000
0000
0001
0000
0100
0000
0001
0000
0100
0000
0000
0010
0000
0000
1000
0000
0000
0000
0000
0000
,
0001
0010
0100
0000
0110
0000
0000
0000
0000
0001
0010
0000
0001
1000
0010
0000
,
1000
0010
0100
0000
0110
0000
0000
0000
0000
1000
0010
0000
1000
0001
0010
0000
,
0001
0100
0010
0000
0110
0000
0000
0000
0000
0001
0100
0000
0001
1000
0100
0000
,
1000
0100
0010
0000
0110
0000
0000
0000
0000
1000
0100
0000
1000
0001
0100
0000
,
0001
0010
0100
0000
0110
0000
1000
0000
0001
0100
0010
0000
0110
0000
0001
0000
,
1000
0100
0010
0000
0110
0000
0001
0000
1000
0010
0100
0000
0110
0000
1000
0000
,
0101
0001
1100
1000
0011
0001
1010
1000
,
0001
0001
0010
0010
0100
0100
1000
1000
,
0001
0000
0100
0000
0001
0000
1000
0000
0000
0100
0000
0000
0000
0000
0000
0100
0000
0000
0000
0000
0000
1000
0000
0000
,
0020
0000
0100
0001
0000
0000
0100
1000
0000
0000
0130
0001
1000
0100
1000
0001
,
0100
2000
0000
0100
0010
0000
0000
0000
3001
0010
0100
0001
0000
0100
1000
0000
,
0100
0002
0000
0100
0010
0000
0000
0000
1003
0010
0100
1000
0000
0100
0001
0000
,
0100
2000
0000
0100
0010
0000
0000
0000
3001
0010
0100
0001
0000
0100
1000
0000
,
0100
0000
0010
0000
0100
0000
0010
0000
0000
0000
0000
0000
0001
0000
0000
1000
0000
0000
0010
0000
0000
0000
0000
0000
0100
0000
0000
1000
0000
0000
0000
0000
0000
0100
0000
0000
0001
0000
0000
1000
0000
0000
0100
0000
0000
0000
0000
0000
,
0010
2000
0000
0010
0100
0000
0000
0000
3001
0100
0010
0001
0000
0010
1000
0000
,
0010
0002
0000
0010
0100
0000
0000
0000
1003
0010
0000
0010
1000
0001
1000
0100
,
0010
0000
0001
0000
0010
0000
0001
0000
1000
0010
1000
0010
0100
0001
0100
0001
,
2000
0000
0100
0000
3002
0000
0100
0000
1003
0000
0001
0010
2000
0000
3010
0100
,
1000
0010
0000
0100
2000
0000
0100
0010
0000
0000
0001
0010
0000
0000
3010
0000
,
0001
0100
0000
0010
0002
0000
0010
0100
0000
0000
1000
0100
0000
0000
0103
0000
,
1000
0100
0000
0010
2000
0000
0010
0100
0000
0000
0001
0100
0000
0000
3100
0000
,
0001
0010
0000
0100
0002
0000
0100
0010
0000
0000
1000
0010
0000
0000
0013
0000
,
1000
0100
0000
0010
2000
0000
0001
0100
0000
0000
0010
0100
0000
0000
3100
0000
,
0001
0010
0000
0100
0002
0000
1000
0010
0000
0000
0103
0010
1000
0200
0000
1000
,
0010
0000
0000
0001
0010
0000
0000
0010
0001
0000
0000
0010
1000
0000
0000
0310
,
0001
1000
0010
0001
0010
0100
0001
1000
0100
0010
1000
0010
0001
1000
0010
0100
,
0001
0000
0000
0010
0000
0000
0100
0000
1000
0000
0010
0000
0100
0000
0000
0000
,
2002
0000
3003
0000
;
