#TITLE:rainbow flyer;
#SUBTITLE:;
#ARTIST:dj TAKA;
#TITLETRANSLIT:;
#SUBTITLETRANSLIT:;
#ARTISTTRANSLIT:;
#GENRE:;
#CREDIT:;
#BANNER:rainbow flyer.png;
#BACKGROUND:rainbow flyer-bg.png;
#LYRICSPATH:;
#CDTITLE:;
#MUSIC:rainbow flyer.ogg;
#OFFSET:0.000000;
#SAMPLESTART:32.450001;
#SAMPLELENGTH:15.000000;
#SELECTABLE:YES;
#DISPLAYBPM:148.000000;
#BPMS:0.000000=147.199997
,4.000000=148.000000
;
#STOPS:
;
#BGCHANGES:;
#KEYSOUNDS:;
#ATTACKS:;

//---------------dance-single - ----------------
#NOTES:
     dance-single:
     :
     Challenge:
     16:
     0.599527,0.942415,0.184065,0.202472,0.621221,456.000000,436.000000,20.000000,22.000000,3.000000,0.000000,0.599527,0.942415,0.184065,0.202472,0.621221,456.000000,436.000000,20.000000,22.000000,3.000000,0.000000:
// measure 0
0000
0000
0000
0000
,  // measure 1
0000
0000
0000
0000
,  // measure 2
0000
0000
0000
0000
,  // measure 3
0000
0000
0000
0000
,  // measure 4
2001
0000
0000
0000
,  // measure 5
3020
0000
0000
0000
,  // measure 6
0230
0000
0000
0000
,  // measure 7
0002
0000
0300
0000
,  // measure 8
1003
1000
0001
0001
,  // measure 9
1000
0000
0000
0000
1000
0000
0000
0000
0001
0000
0000
0000
0100
0010
1000
0100
,  // measure 10
00M0
0100
0001
0000
1000
0000
0000
0000
0001
0000
0000
0000
0001
0000
0000
0000
,  // measure 11
1000
0000
0000
0000
1000
0000
0000
0000
0001
0000
0000
0000
0100
0010
1000
0100
,  // measure 12
1100
0000
0000
0000
0110
0000
0000
0000
1100
0000
0000
0000
0100
0010
0001
0100
,  // measure 13
0101
0000
0000
0000
0110
0000
0000
0000
0101
0000
0000
0000
0100
0010
1000
0100
,  // measure 14
1100
0000
0000
0000
0000
0000
0000
0000
0001
0000
0000
0000
0000
0000
0000
0000
0100
0000
0000
0000
0000
0010
0000
0000
0000
0000
0000
0000
0000
0100
0000
0000
0001
0000
0000
0000
0000
0000
0000
0000
1000
0000
0000
0000
0000
0000
0000
0000
0100
0000
0000
0000
0000
0010
0000
0000
0000
0000
0000
0000
0000
0100
0000
0000
,  // measure 15
1000
0000
0000
0000
0000
0001
0000
0000
0100
0000
0000
0000
0000
0010
0000
0000
1000
0000
0000
0000
0000
0100
0000
0000
0010
0000
0000
0000
0000
0001
0000
0000
2000
0000
0000
0000
0000
0000
0000
0000
0000
0000
0000
0000
0000
0000
0000
0000
3001
0000
0000
0000
0000
0000
0000
0000
0000
0000
0000
0000
0000
0000
0000
0000
,  // measure 16
1001
0000
0000
0000
,  // measure 17
0000
0000
0000
0000
,  // measure 18
0001
0000
0000
0000
0000
0000
0000
0000
1000
0000
0000
0000
0000
0000
0000
0000
0010
0000
0000
0000
0000
0100
0000
0000
0000
0000
0000
0000
0000
0010
0000
0000
1000
0000
0000
0000
0000
0000
0000
0000
0001
0000
0000
0000
0000
0000
0000
0000
0010
0000
0000
0000
0000
0100
0000
0000
0000
0000
0000
0000
0000
0010
0000
0000
,  // measure 19
0001
0000
0000
0000
0000
1000
0000
0000
0010
0000
0000
0000
0000
0100
0000
0000
0001
0000
0000
0000
0000
0010
0000
0000
0100
0000
0000
0000
0000
1000
0000
0000
0002
0000
0000
0000
0000
0000
0000
0000
0000
0000
0000
0000
0000
0000
0000
0000
0103
0000
0000
0000
0001
0000
0000
0000
1000
0000
0000
0000
0000
0000
0000
0000
,  // measure 20
0001
0000
0010
0000
0100
0000
1000
0000
0010
0000
0100
0000
1000
0100
0010
0100
,  // measure 21
1000
0000
0000
0000
1000
0000
0000
0000
0100
0000
0000
0000
0100
0000
0000
0000
0001
0000
0000
0000
0001
0000
0000
0000
1000
0000
0100
00M0
0100
0000
0001
0000
,  // measure 22
1000
0000
0100
0000
0010
0000
0001
0000
0100
0000
0010
0000
0001
0010
0100
0010
,  // measure 23
0001
0001
0010
0010
1000
0001
1000
0001
,  // measure 24
0011
0000
0000
0000
0110
0000
0000
0000
0011
0000
0000
0000
0010
0100
1000
0010
,  // measure 25
1010
0000
0000
0000
0110
0000
0000
0000
1010
0000
0000
0000
0010
0100
0001
0010
,  // measure 26
0011
0110
0011
1000
,  // measure 27
0002
0000
0003
0000
,  // measure 28
1000
0000
0010
0000
0100
0000
0001
0000
0010
0000
0100
0000
0001
0100
0010
0100
,  // measure 29
0001
0000
0000
0000
0001
0000
0000
0000
0100
0000
0000
0000
0100
0000
0000
0000
1000
0000
0000
0000
1000
0000
0000
0000
0001
0000
0100
00M0
0100
0000
1000
0000
,  // measure 30
0001
0000
0100
0000
0010
0000
1000
0000
0100
0000
0010
0000
1000
0010
0100
0010
,  // measure 31
1000
1000
0010
0010
0001
1000
0001
1000
,  // measure 32
0010
0100
0001
0000
0010
0000
0100
0000
0010
0000
0001
0000
0100
0010
1000
0001
,  // measure 33
0010
0100
1000
0000
0010
0000
0100
0010
1000
0000
0100
0010
0001
1000
0010
0100
,  // measure 34
0001
0000
0000
0000
0000
0000
0000
0000
1000
0000
0000
0000
0000
0000
0000
0000
0100
0000
0000
0000
0000
0010
0000
0000
0000
0000
0000
0000
0000
0100
0000
0000
1000
0000
0000
0000
0000
0000
0000
0000
0001
0000
0000
0000
0000
0000
0000
0000
0100
0000
0000
0000
0000
0010
0000
0000
0000
0000
0000
0000
0000
0100
0000
0000
,  // measure 35
0001
0000
0000
0000
0000
1000
0000
0000
0100
0000
0000
0000
0000
0010
0000
0000
0001
0000
0000
0000
0000
0100
0000
0000
0010
0000
0000
0000
0000
1000
0000
0000
0001
0000
0000
0000
0000
0000
0000
0000
0010
0000
0000
0000
0000
0000
0000
0000
0100
0000
0000
0000
0000
0000
0000
0000
1000
0000
0000
0000
0000
0000
0000
0000
,  // measure 36
2002
0000
0000
0000
,  // measure 37
0000
0000
0000
0000
,  // measure 38
0000
0000
0000
0000
,  // measure 39
0000
0000
0000
3003
,  // measure 40
0002
0000
0203
0000
,  // measure 41
0020
0000
0000
0000
0000
0000
0000
0300
0L30
0000
0000
0000
0000
0000
0000
0000
,  // measure 42
0200
0000
0302
0000
,  // measure 43
2003
0000
3200
0000
,  // measure 44
0320
0000
0032
0000
,  // measure 45
2000
0000
0000
0000
0000
0000
0000
0003
300L
0000
0000
0000
0000
0000
0000
0000
,  // measure 46
0002
0000
0203
0000
,  // measure 47
0020
0000
0330
0000
,  // measure 48
1000
0100
0010
0001
1000
0100
0001
0000
,  // measure 49
0001
0100
1000
0001
0100
0010
0001
1000
,  // measure 50
0100
0010
0001
0000
1000
0100
0010
0000
,  // measure 51
0100
0010
0001
0010
0100
0001
0010
0100
,  // measure 52
1000
0000
0000
0000
0000
0100
0000
0000
0010
0000
0000
0000
0000
0100
0000
0000
1000
0000
0000
0000
0000
0100
0000
0000
0010
0000
0000
0000
0000
0000
0000
0000
0001
0000
0000
0000
0000
0100
0000
0000
0010
0000
0000
0000
0000
0100
0000
0000
0001
0000
0000
0000
0000
0100
0000
0000
0010
0000
0000
0000
0000
0000
0000
0000
,  // measure 53
0100
0000
0000
0000
0000
0001
0000
0000
1000
0000
0000
0000
0000
0001
0000
0000
0010
0000
0000
0000
0000
0001
0000
0000
1000
0000
0000
0000
0000
0000
0000
0000
0010
0000
0000
0000
0000
1000
0000
0000
0001
0000
0000
0000
0000
1000
0000
0000
0100
0000
0000
0000
0000
1000
0000
0000
0001
0000
0000
0000
0000
0000
0000
0000
,  // measure 54
1000
0010
0100
0001
1000
0100
0010
0001
0100
0010
0100
0001
0010
0100
0010
0001
,  // measure 55
0100
0010
0001
0010
0100
0001
0010
0100
1000
0000
0000
0000
1000
0000
0000
0000
,  // measure 56
0001
0000
1000
0010
0100
0000
1000
0100
0010
0000
1000
0100
0010
0000
1000
0010
,  // measure 57
0100
1000
0010
0100
1000
0100
0010
1000
0100
0010
0001
0100
0010
0001
0010
0100
,  // measure 58
0001
0000
0010
0100
1000
0000
0010
0100
1000
0100
0010
1000
0100
0010
0001
0000
,  // measure 59
1000
0000
0100
0010
0001
0000
0100
0010
0001
0010
0100
0001
0010
0100
1000
0010
,  // measure 60
1010
0000
0001
0010
0100
0000
0001
0100
0010
0000
0001
0100
0010
0000
0001
0010
,  // measure 61
0100
0001
0010
0100
0001
0100
0010
0001
0100
0010
1000
0100
0010
1000
0010
0100
,  // measure 62
1000
0000
0000
0000
0000
0000
0000
0000
0001
0000
0000
0000
0000
0000
0000
0000
0100
0000
0000
0000
0000
0010
0000
0000
0000
0000
0000
0000
0000
0100
0000
0000
0001
0000
0000
0000
0000
0000
0000
0000
1000
0000
0000
0000
0000
0000
0000
0000
0100
0000
0000
0000
0000
0010
0000
0000
0000
0000
0000
0000
0000
0100
0000
0000
,  // measure 63
1000
0000
0000
0000
0000
0000
0000
0000
0000
0000
0000
0000
0001
0000
0000
0000
0000
0000
0000
0000
0000
0000
0000
0000
0010
0000
0000
0000
0000
0000
0000
0000
0000
0000
0000
0000
0100
0000
0000
0000
0000
0000
0000
0000
0000
0000
0000
0000
1000
0000
0000
0000
0000
0000
0000
0000
0000
0000
0000
0000
0001
0000
0000
0000
0000
0000
0000
0000
0000
0000
0000
0000
0100
0000
0000
0000
0000
0000
0000
0000
0000
0000
0000
0000
0010
0000
0000
0000
0000
0000
0000
0000
0000
0000
0000
0000
0100
0000
0000
0000
0000
0000
0000
0000
0000
0000
0010
0000
0000
0000
0000
0000
0000
0000
0000
0100
0000
0000
0000
0000
0000
0000
0000
0000
0000
0010
0000
0000
0000
0000
0000
0000
0000
0000
0100
0000
0000
0000
0000
0000
0000
0000
0000
0000
0010
0000
0000
0000
0000
0000
0000
0000
0000
0000
0100
0000
0000
0000
0000
0000
0000
0000
0000
0010
0000
0000
0000
0000
0000
0000
0000
0000
0000
0100
0000
0000
0000
0000
0000
0000
0000
0000
0010
0000
0000
0000
0000
0000
0000
0000
0000
0000
,  // measure 64
0100
0000
0000
0000
;

//---------------dance-single - ----------------
#NOTES:
     dance-single:
     :
     Hard:
     13:
     0.473311,0.736262,0.220879,0.266895,0.142651,360.000000,336.000000,24.000000,29.000000,2.000000,0.000000,0.473311,0.736262,0.220879,0.266895,0.142651,360.000000,336.000000,24.000000,29.000000,2.000000,0.000000:
// measure 0
0000
0000
0000
0000
,  // measure 1
0000
0000
0000
0000
,  // measure 2
0000
0000
0000
0000
,  // measure 3
0000
0000
0000
0000
,  // measure 4
1002
0000
0000
0000
,  // measure 5
0203
0000
0000
0000
,  // measure 6
0320
0000
0000
0000
,  // measure 7
2000
0000
0030
0000
,  // measure 8
3001
0010
0001
0000
1000
0010
1000
0000
,  // measure 9
0001
0010
0001
1000
0010
0100
0001
1000
,  // measure 10
0000
1000
0001
0000
1000
0100
1000
0000
,  // measure 11
0001
0100
0001
1000
0100
0010
0001
1000
,  // measure 12
1010
0000
0110
0000
1010
0000
0100
0001
,  // measure 13
0011
0000
0110
0000
0011
0000
0100
1000
,  // measure 14
1010
0001
1100
0001
,  // measure 15
1000
0010
0100
0001
1000
0100
0010
0001
,  // measure 16
1001
0000
0000
0000
,  // measure 17
0000
0000
0000
0000
,  // measure 18
1000
0000
0000
0000
0000
0000
0000
0000
0001
0000
0000
0000
0000
0000
0000
0000
1000
0000
0000
0000
0000
0001
0000
0000
0000
0000
0000
0000
0000
1000
0000
0000
0001
0000
0000
0000
0000
0000
0000
0000
0100
0000
0000
0000
0000
0000
0000
0000
0010
0000
0000
0000
0000
0100
0000
0000
0000
0000
0000
0000
0000
0010
0000
0000
,  // measure 19
0100
0100
0001
0001
2000
0000
3001
0001
,  // measure 20
1000
0100
0010
0100
0001
0100
0020
0100
,  // measure 21
0031
0100
0010
0100
1000
0100
0020
0100
,  // measure 22
1030
0100
0010
0100
0001
0100
0020
0100
,  // measure 23
0031
0100
0001
0100
0010
1000
0010
1000
,  // measure 24
1010
0000
0110
0000
1010
0000
0100
0001
,  // measure 25
0011
0000
0110
0000
0011
0000
0100
1000
,  // measure 26
1010
0110
1010
0001
,  // measure 27
2000
0000
3000
0000
,  // measure 28
0001
0000
0010
0000
0100
0000
1000
0000
0010
0000
0100
0000
1000
0100
1000
0000
,  // measure 29
0100
0000
0010
0000
1000
0000
0001
0000
0010
0000
0100
0000
0001
0100
0001
0000
,  // measure 30
0100
0000
0010
0000
0001
0000
1000
0000
0010
0000
0100
0000
1000
0100
1000
0000
,  // measure 31
0100
0010
0100
0010
1000
0001
1000
0001
,  // measure 32
0011
0100
1000
0010
0100
1000
1000
000M
,  // measure 33
1010
0100
0001
0010
0100
0001
0001
M000
,  // measure 34
0011
1000
0010
0000
1010
0001
0010
0000
,  // measure 35
0100
1000
0001
0100
0010
1000
0001
0010
,  // measure 36
0110
0000
0001
0000
1000
0010
0100
0000
,  // measure 37
1000
0000
0100
0000
0001
0010
0100
0000
,  // measure 38
0001
0000
0100
0000
1000
0010
0100
0000
,  // measure 39
1000
0000
0100
0000
0001
0010
0100
1000
,  // measure 40
0002
0000
0203
0000
,  // measure 41
0020
0000
0330
0000
,  // measure 42
0200
0000
0302
0000
,  // measure 43
2003
0000
3200
0000
,  // measure 44
0320
0000
0032
0000
,  // measure 45
2000
0000
3003
0000
,  // measure 46
0002
0000
0203
0000
,  // measure 47
0020
0000
0330
0000
,  // measure 48
2000
0010
3002
1000
,  // measure 49
0023
0001
0100
0100
,  // measure 50
0032
0010
2003
0001
,  // measure 51
3020
1000
0230
0010
,  // measure 52
1300
0100
0010
1000
0100
0010
0100
0010
,  // measure 53
0001
0100
0010
0001
0010
0100
0001
0010
,  // measure 54
0100
0010
0100
0000
1000
0100
1000
0000
0010
0100
0010
0000
1000
0100
1000
0000
,  // measure 55
0100
0010
0100
0010
0100
0010
0100
0010
0100
0000
0000
0000
0100
0000
0000
0000
,  // measure 56
1000
0000
0000
0010
0100
0000
0000
1000
0100
0000
0000
0010
1000
0000
0000
0100
,  // measure 57
0010
1000
0001
0100
1000
0010
0001
0000
,  // measure 58
0001
0010
0100
0000
0100
0001
1000
0000
,  // measure 59
1000
0100
0010
1000
0001
0100
1000
1000
,  // measure 60
0001
0000
0000
0100
0010
0000
0000
0001
0010
0000
0000
0100
0001
0000
0000
0010
,  // measure 61
0100
0001
1000
0010
0001
0100
1000
0000
,  // measure 62
0100
0000
0000
0000
0000
0000
0000
0000
0010
0000
0000
0000
0000
0000
0000
0000
0100
0000
0000
0000
0000
0010
0000
0000
0000
0000
0000
0000
0000
0100
0000
0000
0010
0000
0000
0000
0000
0000
0000
0000
1000
0000
0000
0000
0000
0000
0000
0000
0001
0000
0000
0000
0000
1000
0000
0000
0000
0000
0000
0000
0000
0001
0000
0000
,  // measure 63
1000
0000
0100
0000
0010
0000
0001
0000
1000
0001
1000
0001
1000
0001
1000
0001
,  // measure 64
1000
0000
0000
0000
;
