#TITLE:otorii INNOVATED -[i]3-;
#SUBTITLE:;
#ARTIST:NAOKI underground;
#TITLETRANSLIT:;
#SUBTITLETRANSLIT:;
#ARTISTTRANSLIT:;
#GENRE:INNOVATED CORE;
#CREDIT:;
#BANNER:otorii INNOVATED -[i]3-.png;
#BACKGROUND:otorii INNOVATED -[i]3--bg.png;
#LYRICSPATH:;
#CDTITLE:cdtitle.png;
#MUSIC:otorii INNOVATED -[i]3-.ogg;
#OFFSET:-0.012000;
#SAMPLESTART:68.478996;
#SAMPLELENGTH:15.000000;
#SELECTABLE:YES;
#DISPLAYBPM:105.000000:480.000000;
#BPMS:0.000000=105.000000
,16.000000=420.000000
,288.000000=105.000000
,304.000000=210.000000
,336.000000=220.000000
,341.000000=440.000000
,469.000000=880.000000
,525.000000=440.000000
,529.000000=240.000000
,593.000000=480.000000
;
#STOPS:336.000000=0.818000,
621.000000=0.188000,
621.500000=0.188000,
646.000000=0.094000,
646.250000=0.094000,
646.500000=0.094000,
646.750000=0.094000,
647.000000=0.094000,
647.250000=0.094000,
647.500000=0.094000,
647.750000=0.094000,
746.000000=0.375000,
749.000000=0.250000,
760.000000=0.125000
;
#BGCHANGES:;
#KEYSOUNDS:;
#ATTACKS:;

//---------------dance-single - Daff_4K----------------
#NOTES:
     dance-single:
     Daff_4K:
     Beginner:
     7:
     0.236472,0.485117,0.036142,0.000000,0.000000,229.000000,224.000000,5.000000,0.000000,0.000000,0.000000,0.236472,0.485117,0.036142,0.000000,0.000000,229.000000,224.000000,5.000000,0.000000,0.000000,0.000000:
0000
0000
0000
0000
,
0000
0000
0000
0000
,
0000
0000
0000
0000
,
0000
0000
0000
0000
,
1000
0000
0000
0000
,
1000
0000
0000
0000
,
1000
0000
0000
0000
,
1000
0000
0000
0000
,
0001
0000
0000
0000
,
0001
0000
0000
0000
,
0001
0000
0000
0000
,
0001
0000
0000
0000
,
0010
0000
0000
0000
,
0010
0000
0000
0000
,
0100
0000
0000
0000
,
0100
0000
0000
0000
,
1000
0000
0000
0000
,
0001
0000
0000
0000
,
0100
0000
0000
0000
,
0010
0000
0000
0000
,
1000
0000
0000
0000
,
0000
0000
0000
0000
,
1000
0000
1000
0000
,
0100
0000
0000
0000
,
0010
0000
0000
0000
,
0000
0000
0000
0000
,
0100
0000
0100
0000
,
0010
0000
0000
0000
,
0001
0000
0000
0000
,
0000
0000
0000
0000
,
0001
0000
0001
0000
,
0100
0000
0000
0000
,
0010
0000
0000
0000
,
0000
0000
0000
0000
,
0100
0000
0100
0000
,
0010
0000
0000
0000
,
1000
0000
0000
0000
,
1000
0000
0000
0000
,
0001
0000
0000
0000
,
0001
0000
0000
0000
,
0010
0000
0000
0000
,
0100
0000
0000
0000
,
1000
0000
1000
0000
,
0000
0000
0001
0000
,
0001
0000
0000
0000
,
0100
0000
0100
0000
,
0000
0000
0010
0000
,
0010
0000
0000
0000
,
1000
0000
0000
0000
,
0100
0000
0000
0000
,
0001
0000
0000
0000
,
0000
0000
0000
0000
,
0001
0000
0000
0000
,
0100
0000
0000
0000
,
1000
0000
0000
0000
,
0000
0000
0000
0000
,
0010
0000
0010
0000
,
0000
0000
0000
0000
,
0100
0000
0100
0000
,
0000
0000
0000
0000
,
0001
0000
0001
0000
,
0000
0000
0000
0000
,
1000
0000
1000
0000
,
1000
0000
0000
0000
,
0100
0000
0100
0000
,
0100
0000
0000
0000
,
0010
0000
0010
0000
,
0010
0000
0000
0000
,
0001
0000
0001
0000
,
0001
0000
0000
0000
,
1000
0000
1000
0000
,
1000
0000
0000
0000
,
0010
0000
0010
0000
,
0100
0100
0100
0000
,
0001
0000
0001
0000
,
1000
1000
1000
0000
,
0001
0000
0010
0000
,
0001
0000
0001
0000
,
1000
0000
0010
0000
,
1000
0000
1000
0000
,
0001
0000
0100
0000
,
0010
0000
1000
0000
,
1000
0000
0100
0000
,
0010
0000
0001
0000
,
1001
0000
0000
0000
,
0000
1000
0000
0000
,
0000
0000
0000
0000
,
0000
0010
0000
0000
,
0000
0010
0000
0000
,
0000
0100
0000
0000
,
0000
0000
0000
0000
,
0000
0001
0000
0000
,
0000
1000
0000
0000
,
0000
0001
0000
0000
,
0000
0000
0000
0000
,
0000
0010
0000
0000
,
0000
0010
0000
0000
,
0000
0100
0000
0000
,
0000
0000
0000
0000
,
0000
1000
0000
0000
,
0000
0001
0000
0000
,
0000
1000
0000
0000
,
0000
1000
0000
0000
,
0000
0010
0000
0010
,
0000
0010
0000
0000
,
0000
0100
0000
0000
,
0000
0001
0000
0000
,
0000
1000
0000
1000
,
0000
1000
0000
0000
,
0000
0001
0000
0000
,
0000
0001
0000
0000
,
0000
0010
0000
0010
,
0000
0010
0000
0000
,
0000
0100
0000
0000
,
0000
1000
0000
0000
,
0000
0001
0000
0000
,
0000
1000
0000
0000
,
0000
1001
0000
0000
,
0000
0000
0000
0000
,
0000
0000
0000
0000
,
0000
0000
0000
0000
,
0000
0000
0000
0000
,
0000
0000
0000
0000
,
0000
0000
0000
0000
,
0000
0000
0000
0000
,
0000
0000
0000
0000
,
0000
0000
0000
0000
,
0000
0000
0000
0000
,
0000
0000
0000
0000
,
0000
0000
0000
0000
,
0000
0000
0000
0000
,
0000
0000
0000
0000
,
0000
0001
0000
0100
,
0000
1000
1000
0000
,
0000
1000
0000
0010
,
0000
0001
0001
0000
,
0000
1000
0000
0100
,
0000
0001
0001
0000
,
0000
0001
0000
0010
,
0000
1000
1000
0000
,
0000
0100
0000
0100
,
0000
0010
0000
0001
,
0001
0001
0000
0001
,
0000
1000
0000
0010
,
0010
0010
0000
0010
,
0000
0100
0000
0100
,
0000
0001
0001
0001
,
0000
1000
1000
1000
,
0000
0001
0000
0000
,
0000
0001
0000
0000
,
0000
0010
0000
0010
,
0000
0010
0000
0000
,
0000
1000
0000
0000
,
0000
0010
0000
0000
,
0000
0001
0000
0000
,
0000
1001
0000
0000
,
0000
0000
1000
0000
,
0000
0000
0010
0000
,
0010
0000
0010
0000
,
0000
0000
0001
0000
,
0000
0000
0010
0000
,
0000
0000
1000
0000
,
0001
0000
0000
0000
,
0100
0000
0000
0000
,
1000
0000
1000
0000
,
0100
0000
0000
0000
,
0001
0000
0000
0000
,
0010
0000
0000
0000
,
0100
0000
0100
0000
,
1000
0000
1000
0000
,
1000
0000
0000
0000
,
0100
0000
0000
0000
,
0001
0000
0001
0000
,
0100
0000
0000
0000
,
1000
0000
0000
0000
,
0010
0000
0000
0000
,
0100
0000
0100
0000
,
0001
0000
0001
0000
,
1001
0000
0000
0000
,
0000
0000
0000
0000
,
0000
0000
0000
0000
,
0000
0000
0000
0000
,
1000
0000
0000
0000
,
0001
0000
0000
0000
,
0100
0000
0100
0000
,
0010
0000
0010
0000
,
1000
0000
0000
0001
,
0000
0000
0100
0000
,
0100
0000
0100
0000
,
0100
0000
0100
0000
,
0000
0010
0000
0010
,
0000
0010
0000
0110
;

//---------------dance-single - Daff_4K----------------
#NOTES:
     dance-single:
     Daff_4K:
     Easy:
     11:
     0.367616,0.723745,0.166253,0.318050,0.000000,356.000000,333.000000,23.000000,44.000000,0.000000,0.000000,0.367616,0.723745,0.166253,0.318050,0.000000,356.000000,333.000000,23.000000,44.000000,0.000000,0.000000:
0000
0000
0000
0000
,
0000
0000
0000
0000
,
0000
0000
0000
0000
,
0000
0000
0000
0000
,
1000
0000
0100
0000
,
1000
0000
0100
0000
,
0001
0000
0100
0000
,
0001
0000
0100
0000
,
1000
0000
0010
0000
,
0001
0000
0010
0000
,
1000
0000
1000
0000
,
0100
0000
0010
0000
,
0001
0000
0100
0000
,
0001
0000
0100
0000
,
1000
0000
0100
0000
,
1000
0000
0100
0000
,
0001
0000
0010
0000
,
1000
0000
0010
0000
,
0001
0000
0001
0000
,
1000
0000
1000
0000
,
0010
0000
0100
0000
,
0002
0000
0003
0000
,
1000
0000
1000
0000
,
0001
0000
0001
0000
,
0010
0000
0010
0000
,
0100
0000
0100
0000
,
2000
0000
3000
0000
,
0002
0000
0003
0000
,
0010
0000
0100
0000
,
2000
0000
3000
0000
,
0001
0000
0001
0000
,
1000
0000
1000
0000
,
0010
0000
0010
0000
,
0100
0000
0100
0000
,
0002
0000
0003
0000
,
2000
0000
3000
0000
,
0100
0000
0010
0000
,
0100
0000
0100
0000
,
1000
0000
0001
0000
,
0100
0000
0010
0000
,
0100
0000
0100
0000
,
0001
0000
1000
0000
,
0001
0000
0010
0000
,
1000
0000
1000
0000
,
0010
0000
0001
0000
,
0001
0000
0100
0000
,
1000
0000
1000
0000
,
0100
0000
0001
0000
,
2001
0000
0000
0000
,
3100
0000
0000
0000
,
0010
0000
0001
0000
,
1000
0000
0000
0000
,
1002
0000
0000
0000
,
0103
0000
0000
0000
,
0010
0000
1000
0000
,
0001
0000
0000
0000
,
1000
0000
0001
0000
,
1001
0000
0000
0000
,
1000
0000
0010
0000
,
0110
0000
0000
0000
,
0100
0000
0001
0000
,
1001
0000
0000
0000
,
1000
0000
0100
0000
,
0010
0000
0010
0000
,
0001
0000
1000
0000
,
1001
0000
0000
0000
,
0001
0000
0010
0000
,
0110
0000
0000
0000
,
0100
0000
1000
0000
,
1001
0000
0000
0000
,
0001
0000
0100
0000
,
0010
0000
1000
0000
,
0002
0013
2000
3100
,
0002
0000
0013
0000
0100
1000
0001
0000
,
2000
3010
0002
0103
,
2000
0000
3010
0000
0100
0001
1000
0000
,
0200
0000
0320
0000
,
0031
1000
0010
0100
,
0002
0000
2003
0000
,
3100
0100
0010
0001
,
0200
0000
0320
0000
,
1030
0001
0010
0100
,
2000
0000
3002
0000
,
0103
0010
1000
0001
,
1001
0000
0000
0000
,
0000
1000
0000
0000
,
0000
1001
0000
0000
,
0000
0001
0000
1000
,
0000
0100
0000
0000
,
0000
0010
0000
0000
,
0000
0110
0000
0000
,
0000
0100
0000
1000
,
0000
0001
0000
1000
,
0000
0001
0000
0000
,
0000
1001
0000
0000
,
0000
1000
0000
0001
,
0000
0100
0000
0000
,
0000
0020
0000
0000
,
0000
0230
0000
0000
,
0000
0301
0000
1000
,
0000
0001
0000
0000
,
0000
1000
0000
0100
,
0000
0010
0000
0100
,
0000
1000
0000
1000
,
0000
0001
0000
0001
,
0000
0100
0000
0010
,
0000
1000
0000
0100
,
0000
0010
0000
0001
,
0000
1000
0000
1000
,
0000
0001
0000
0100
,
0000
0010
0000
0100
,
0000
0001
0000
0001
,
0000
1000
0000
1000
,
0000
0200
0000
0000
,
0000
0320
0000
0000
,
0000
0031
0000
1000
,
0000
0001
0000
1000
,
0000
2002
0000
0000
,
0000
0000
0000
0000
,
0000
0000
0000
0000
,
0000
0000
0000
0000
,
0000
0000
0000
0000
,
0000
0000
0000
0000
,
0000
0000
0000
0000
,
0000
0000
0000
0000
,
0000
0000
0000
0000
,
0000
0000
0000
0000
,
0000
0000
0000
0000
,
0000
0000
0000
0000
,
0000
0000
0000
0000
,
0000
0000
0000
0000
,
0000
3003
0000
0000
,
0000
1001
0000
0110
,
0000
0010
0100
0001
,
0000
1001
0000
0110
,
0000
0100
0010
0001
,
0000
1001
0000
0110
,
0000
0010
0100
1000
,
0000
1001
0000
0110
,
0000
0100
0010
1000
,
0000
0200
0000
0320
,
0000
0032
0000
2003
,
0000
3020
0000
0230
,
0000
0302
0000
2003
,
0000
3001
0001
0001
,
0000
1000
1000
1000
,
0000
0100
0100
0010
,
0010
0001
1000
0001
,
0000
1000
0000
0010
,
0000
1000
0000
0000
,
0000
0100
0000
0100
,
0000
0010
0000
0010
,
0000
0001
0000
1000
,
0000
0001
0000
0000
,
0000
0100
0000
0010
,
0000
1000
0001
0000
,
0010
0000
0001
0000
,
0000
0000
0100
0000
,
0100
0000
0010
0000
,
0010
0000
1000
0000
,
0001
0000
1000
0000
,
0000
0000
0200
0320
,
0031
0000
0100
0000
,
0010
0000
0100
0000
,
0001
0000
0001
0000
,
1000
0000
1000
0000
,
0100
0000
0010
0000
,
0100
0000
1000
0000
,
0010
0000
0100
0000
,
0001
0000
0000
0000
,
1000
0000
0100
0000
,
0010
0000
0100
0000
,
1000
0000
1000
0000
,
0001
0000
0001
0000
,
0100
0000
0010
0000
,
0100
0000
0001
0000
,
0010
0000
0100
0000
,
1000
0000
0001
0000
,
1001
0000
0000
0000
,
0000
0000
0000
0000
,
0000
0000
0000
0000
,
0000
0000
0000
0000
,
2000
0000
3002
0000
,
0023
0000
0230
0000
,
1300
0000
1000
0000
,
0001
0000
0001
0000
,
0100
0000
0010
1000
,
0000
0001
0010
0000
,
0010
0000
0100
0000
,
0100
0000
1000
0000
,
0001
0100
0000
0010
,
0000
1000
0000
2002
,
0000
0000
0000
0000
,
0000
0000
0000
0000
,
0000
0000
0000
0000
,
0000
0000
0000
0000
,
0000
0000
0000
0000
,
0000
0000
0000
0000
,
0000
0000
0000
0000
,
0000
0000
0000
0000
,
0000
3003
0000
0000
;

//---------------dance-single - Daff_4K----------------
#NOTES:
     dance-single:
     Daff_4K:
     Medium:
     13:
     0.536968,0.940868,0.563816,0.578273,0.000000,520.000000,442.000000,78.000000,80.000000,0.000000,0.000000,0.536968,0.940868,0.563816,0.578273,0.000000,520.000000,442.000000,78.000000,80.000000,0.000000,0.000000:
0000
0000
0000
0000
,
0000
0000
0000
0000
,
0000
0000
0000
0000
,
0000
0000
0000
0000
,
1000
0000
0100
0000
,
0001
0000
0100
0000
,
1000
0000
0001
0000
,
0100
0000
0010
0100
,
0010
0000
1000
0000
,
0001
0000
0010
0000
,
0001
0000
1000
0001
,
1000
0000
0001
1000
,
0001
0000
0100
0000
,
1000
0000
0100
0000
,
0001
0000
1000
0000
,
0100
0000
0010
0100
,
0010
0000
0001
0000
,
1000
0000
0010
0000
,
1000
0000
0001
1000
,
0001
0000
0010
0000
,
0100
0000
1000
0000
,
0020
0000
0100
0000
,
0130
0000
0101
0000
,
0011
0000
1001
0000
,
1000
0000
0100
0000
,
0001
0000
0100
0000
,
1100
0000
1010
0000
,
0011
0000
0101
0000
,
0100
0000
0001
0000
,
0020
0000
0100
0000
,
0130
0000
1100
0000
,
1010
0000
1001
0000
,
0001
0000
0100
0000
,
1000
0000
0100
0000
,
0101
0000
0011
0000
,
1010
0000
1100
0000
,
0100
0000
1000
0000
,
0010
0000
0100
0000
,
0001
0000
0010
0000
,
0001
0000
0100
0000
,
0010
0000
1000
0000
,
0100
0000
0010
0000
,
0001
0000
1001
0000
,
1010
0000
1000
0000
,
1001
0000
0011
0000
,
0001
0000
0101
0000
,
0110
0000
0010
0000
,
1010
0000
1001
0000
,
0002
0000
0013
0000
,
0002
0000
1003
0000
,
0001
0000
0100
0000
,
0010
0100
0010
0000
,
2000
0000
3010
0000
,
2000
0000
3001
0000
,
1000
0000
0100
0000
,
0010
0100
0010
0000
,
0011
0000
0101
0000
,
0100
0000
0010
0000
,
1010
0000
1001
0000
,
0001
0000
0010
0000
,
0110
0000
1100
0000
,
1000
0000
0001
0000
,
0101
0000
0110
0000
,
0101
0000
1001
0000
,
1010
0000
1100
0000
,
0100
0000
0010
0000
,
0001
0000
1001
0000
,
1000
0000
0010
0000
,
0100
0000
0101
0000
,
0001
0000
1000
0000
,
1001
0000
0110
0000
,
1001
0000
0110
0000
,
0020
0000
0130
0000
0001
1000
0100
0000
,
0020
0000
0001
0000
0130
1000
0001
0000
,
0020
0000
0130
0000
1000
0001
0100
0000
,
0020
0000
1000
0000
0130
0001
1000
0000
,
0002
0010
1000
0103
,
0200
0001
0010
1300
,
0200
1000
0010
0301
,
1000
0110
0001
0110
,
2000
0010
0001
3100
,
0200
1000
0010
0301
,
0200
0001
0010
1300
,
0001
0110
1000
0110
,
1001
0000
0000
0000
,
0000
0001
0000
0100
,
0001
0100
0000
0010
,
1000
0000
1000
0001
,
0000
0010
0000
0100
,
0000
1000
0000
0001
,
1000
0001
0000
0100
,
0010
0000
0100
0010
,
0000
1000
0000
0001
,
0000
1000
0000
0100
,
1000
0100
0000
0010
,
0001
0000
0001
1000
,
0000
0010
0000
0100
,
0000
0002
0000
0013
,
0000
2000
0000
3010
,
0000
0001
1000
0001
,
0000
0100
0000
0010
,
0000
1000
0000
0100
,
0010
0100
0000
1000
,
0001
1000
0000
0010
,
0000
0100
0000
0001
,
0000
0010
0000
0100
,
1000
0100
0000
0010
,
0001
0010
0000
0100
,
0000
1000
0001
1000
,
0000
0001
0000
0100
,
0010
0100
0000
0001
,
1000
0001
0000
0010
,
0000
0100
0000
1000
,
0000
0002
0000
0103
,
0000
2000
0000
3100
,
0000
0001
1000
0001
,
1000
0100
0000
0110
,
0000
2002
0000
0000
,
0000
0000
0000
0000
,
0000
0000
0000
0000
,
0000
0000
0000
0000
,
0000
0000
0000
0000
,
0000
0000
0000
0000
,
0000
0000
0000
0000
,
0000
0000
0000
0000
,
0000
0000
0000
0000
,
0000
0000
0000
0000
,
0000
0000
0000
0000
,
0000
0000
0000
0000
,
0000
0000
0000
0000
,
0000
0000
0000
0000
,
0000
3003
0000
0000
,
0000
2002
3003
2200
,
3300
0012
1000
0200
,
0303
2020
3030
2002
,
3003
1200
0320
0002
,
0033
2002
3003
0202
,
0303
2010
0001
0200
,
3300
0022
0033
2002
,
3003
0201
0320
2000
,
3030
2002
3003
0022
,
0033
2200
3300
0202
,
0303
2002
3003
2020
,
3030
0202
0303
2200
,
3300
1000
1010
0001
,
0011
1000
1100
0001
,
0101
2000
3002
0203
,
0320
0000
1030
0001
1000
0001
0010
0100
,
0010
0001
0000
1000
,
0001
1000
0000
0010
,
0100
0010
0000
1000
,
0001
1000
0000
0100
,
0000
0010
0000
0001
,
0100
0010
0000
1000
,
0100
0010
0000
0001
,
0000
0000
1001
1001
1000
0000
0000
0000
,
0001
1000
0001
0000
,
0010
0100
0010
0000
,
0001
1000
0001
0000
,
0100
0000
0010
0000
,
1000
0100
0010
0000
,
0001
0000
0000
0000
2000
0001
0001
0001
,
3001
0000
0010
0100
,
0010
0000
0001
0100
,
0010
0000
1000
0100
,
0010
0000
0001
0000
,
1000
0000
0010
0100
,
0010
0000
1000
0001
,
0010
0000
0100
1000
,
0001
1000
0001
0000
,
1000
0000
0010
0100
,
0010
0000
1000
0100
,
0010
0000
0001
0100
,
0010
0000
1000
0000
,
1100
0000
1100
0000
,
0011
0000
0011
0000
,
0001
1000
0001
1000
,
0010
0100
0010
0100
,
0020
0000
0000
0000
,
0000
0000
0000
0000
,
0000
0000
0000
0000
,
0000
0000
0000
0030
,
2000
3002
2003
3002
,
0023
0230
0320
0230
,
1300
0000
0001
0000
,
0100
0000
0010
0000
,
1000
0100
1000
0001
,
0100
0001
0010
0000
,
0100
0000
1000
0000
,
0001
1000
0001
0000
,
0100
0010
0000
1000
,
0001
1000
0000
2002
,
0000
0000
0000
0000
,
0000
0000
0000
0000
,
0000
0000
0000
0000
,
0000
0000
0000
0000
,
0000
0000
0000
0000
,
0000
0000
0000
0000
,
0000
0000
0000
0000
,
0000
0000
0000
0000
,
0000
3003
0000
0000
;

//---------------dance-single - THE LAST DECOY -DAFF_4K-----------------
#NOTES:
     dance-single:
     THE LAST DECOY -DAFF_4K-:
     Hard:
     17:
     0.884964,1.664613,0.412019,0.318050,0.415634,857.000000,800.000000,57.000000,44.000000,0.000000,0.000000,0.884964,1.664613,0.412019,0.318050,0.415634,857.000000,800.000000,57.000000,44.000000,0.000000,0.000000:
// measure 0
0000
0000
0000
0000
,  // measure 1
0000
0000
0000
0000
,  // measure 2
0000
0000
0000
0000
,  // measure 3
0000
0000
0000
0000
,  // measure 4
1000
0100
1000
0001
,  // measure 5
1000
0010
0100
0010
,  // measure 6
1000
0100
0010
0001
,  // measure 7
1000
0010
0100
0001
,  // measure 8
0010
0100
1000
0001
,  // measure 9
0100
0010
1000
0001
,  // measure 10
0010
0100
0010
0001
,  // measure 11
0100
0000
0010
0000
1000
0000
0001
1000
,  // measure 12
0001
0100
0001
1000
,  // measure 13
0001
0010
0100
0010
,  // measure 14
0001
0100
0010
1000
,  // measure 15
0001
0010
0100
1000
,  // measure 16
0010
0100
0001
1000
,  // measure 17
0100
0010
0001
1000
,  // measure 18
0010
0100
0010
1000
,  // measure 19
0100
0000
0010
0100
0010
0000
0001
0000
,  // measure 20
1000
0010
0100
0020
,  // measure 21
0000
1030
0100
0010
,  // measure 22
0002
0000
0000
0103
0020
0000
0000
1030
,  // measure 23
0001
1000
0100
0001
,  // measure 24
1000
0010
0001
0100
,  // measure 25
0010
0100
0001
0020
,  // measure 26
0000
0000
0130
0000
1000
0002
0000
0000
,  // measure 27
0103
0000
0010
0100
0010
0000
1000
0000
,  // measure 28
0001
0010
0100
0020
,  // measure 29
0000
0031
0100
0010
,  // measure 30
2000
0000
0000
3100
0020
0000
0000
0031
,  // measure 31
1000
0001
0100
1000
,  // measure 32
0001
0010
1000
0100
,  // measure 33
0010
0100
1000
0020
,  // measure 34
0000
0000
0130
0000
0001
2000
0000
0000
,  // measure 35
3100
0000
0010
0100
0010
0000
0001
0000
,  // measure 36
1000
0010
0100
0010
,  // measure 37
1000
0000
0001
1000
0001
0000
0010
0000
,  // measure 38
0100
0000
0010
0000
0001
0000
1000
0001
,  // measure 39
1000
0010
0100
0001
,  // measure 40
0010
0100
1000
0001
,  // measure 41
0100
0010
0100
0001
,  // measure 42
1000
0100
0101
0000
,  // measure 43
0110
0000
0001
0100
,  // measure 44
1100
0000
0110
0000
,  // measure 45
1001
0000
0011
0000
,  // measure 46
1010
0000
0101
0000
,  // measure 47
1100
0000
1001
0000
,  // measure 48
0101
0000
1010
0000
,  // measure 49
1001
0000
0000
0001
0010
0000
0001
0000
,  // measure 50
0100
0010
2000
0000
,  // measure 51
3001
0000
1001
0000
,  // measure 52
1100
0000
0011
0000
,  // measure 53
1001
0000
0000
1000
0010
0000
1000
0000
,  // measure 54
0100
0010
0002
0000
,  // measure 55
1003
0000
1001
0000
,  // measure 56
0101
0000
1010
0000
,  // measure 57
1001
0000
0000
0000
0001
0000
0010
0000
0100
0000
0010
0000
,  // measure 58
0001
0000
1100
0000
,  // measure 59
1001
0000
0000
0000
0001
0000
0100
0000
0010
0000
1000
0000
,  // measure 60
0001
0000
0110
0000
,  // measure 61
1001
0000
0000
0000
1000
0000
0100
0000
0010
0000
0001
0000
,  // measure 62
1000
0000
1001
0000
,  // measure 63
0110
0000
1001
0000
,  // measure 64
1100
0000
0011
0000
,  // measure 65
1001
0000
0000
0000
1000
0000
0010
0000
0100
0000
0010
0000
,  // measure 66
1000
0000
0101
0000
,  // measure 67
1001
0000
0000
0000
1000
0000
0100
0000
0010
0000
0001
0000
,  // measure 68
1000
0000
0110
0000
,  // measure 69
1001
0000
0000
0000
0001
0000
0100
0000
0010
0000
1000
0000
,  // measure 70
0001
0000
1001
0000
,  // measure 71
1000
0001
1000
0001
0100
0010
0100
0010
,  // measure 72
2000
0100
0100
0001
3020
0000
1000
0100
,  // measure 73
0230
0000
1000
0000
0010
0000
0010
0000
0302
0000
1000
0000
0013
0100
0010
0000
,  // measure 74
0002
0100
0100
1000
0023
0000
0001
0100
,  // measure 75
0230
0000
0001
0000
0010
0000
0010
0000
2300
0000
0001
0000
3010
0100
0010
0000
,  // measure 76
1000
0010
0100
0010
0100
0001
1000
0000
0001
0000
1000
0000
,  // measure 77
0100
0010
0100
0010
0001
0010
0001
0000
1000
0000
0001
0000
,  // measure 78
1000
0010
0100
0010
0100
0001
1000
0000
0001
0000
1000
0000
,  // measure 79
0100
0000
0010
0100
0000
1000
0001
0100
0010
0100
0010
1000
,  // measure 80
0001
0010
0100
0010
0100
1000
0001
0000
1000
0000
0001
0000
,  // measure 81
0100
0010
0100
0010
1000
0010
1000
0000
0001
0000
1000
0000
,  // measure 82
0001
0010
0100
0010
0100
1000
0001
0000
1000
0000
0001
0000
,  // measure 83
0100
0000
0100
0000
0010
0000
0010
0000
1000
0001
1000
0001
1000
0001
1000
0001
,  // measure 84
1000
0000
0000
0000
0100
0010
0000
0100
0010
0000
0100
0000
1000
0001
1000
0001
,  // measure 85
1000
0001
0100
0010
,  // measure 86
0100
0001
1000
0001
,  // measure 87
0010
0100
1000
0010
,  // measure 88
0002
0000
0013
1000
,  // measure 89
0001
1000
0100
0010
,  // measure 90
0100
1000
0001
0100
,  // measure 91
0010
0100
0001
0010
,  // measure 92
0100
1000
0010
0100
,  // measure 93
0001
1000
0100
0010
,  // measure 94
0100
1000
0001
1000
,  // measure 95
0010
0100
0001
0010
,  // measure 96
2000
0000
3010
0001
,  // measure 97
1000
0000
0001
0100
0001
0100
0001
0000
,  // measure 98
1000
0100
1000
0100
1000
0000
0020
0000
,  // measure 99
0200
0330
0001
0010
,  // measure 100
0100
0000
1000
0000
0010
0100
0010
0000
,  // measure 101
0100
0000
0001
0000
1000
0001
1000
0000
,  // measure 102
0100
0010
0001
0100
,  // measure 103
0010
1000
0100
0001
,  // measure 104
0100
1000
0010
0100
,  // measure 105
0001
1000
0100
0010
,  // measure 106
0001
1000
0001
0100
,  // measure 107
0010
1000
0100
0010
,  // measure 108
0100
1000
0001
0100
,  // measure 109
0010
0000
1000
0000
0001
1000
0001
0000
,  // measure 110
0100
0010
1000
0100
,  // measure 111
0010
0001
0100
1000
,  // measure 112
0100
0001
0010
0100
,  // measure 113
1000
0000
0001
0010
0001
0010
0001
0000
,  // measure 114
1000
0010
1000
0010
1000
0000
0200
0000
,  // measure 115
0020
0330
0001
0100
,  // measure 116
0010
0000
1000
0000
0100
0010
0100
0000
,  // measure 117
0010
2002
0000
0000
,  // measure 118
0000
0000
0000
0000
,  // measure 119
0000
0000
0000
0000
,  // measure 120
0000
0000
0000
0000
,  // measure 121
0000
0000
0000
0000
,  // measure 122
0000
0000
0000
0000
,  // measure 123
0000
0000
0000
0000
,  // measure 124
0000
0000
0000
0000
,  // measure 125
0000
0000
0000
0000
,  // measure 126
0000
0000
0000
0000
,  // measure 127
0000
0000
0000
0000
,  // measure 128
0000
0000
0000
0000
,  // measure 129
0000
0000
0000
0000
,  // measure 130
0000
0000
0000
0000
,  // measure 131
0000
0000
0000
0000
,  // measure 132
3003
0000
0000
2001
0000
0000
3010
0100
0010
0200
0000
0000
,  // measure 133
0301
1000
0001
2000
0000
0000
3100
0000
0000
0110
0000
0000
,  // measure 134
0011
0000
0000
2001
0000
0000
3010
0100
0010
0200
0000
0000
,  // measure 135
0301
1000
0001
2000
0000
0000
3100
0000
0000
0011
0000
0000
,  // measure 136
1100
0000
0000
1002
0000
0000
0013
0100
0010
0200
0000
0000
,  // measure 137
1300
0001
1000
0002
0000
0000
0103
0000
0000
0110
0000
0000
,  // measure 138
1010
0000
0000
1002
0000
0000
0013
0100
0010
0200
0000
0000
,  // measure 139
1300
0001
1000
0002
0000
0000
0103
0000
0000
1010
0000
0000
,  // measure 140
0101
0000
0000
1001
0000
1000
0100
0000
0100
1000
0000
0001
,  // measure 141
0010
0000
0010
0001
0000
1000
0010
0000
0010
0100
0000
0100
,  // measure 142
0001
0000
0000
1001
0000
0001
0100
0000
0100
0001
0000
1000
,  // measure 143
0010
0000
0010
1000
0000
0001
0010
0000
0010
0100
0000
0100
,  // measure 144
1000
0000
0000
1001
0000
1000
0010
0000
0010
0100
0000
0100
,  // measure 145
0001
0000
0001
0010
0000
0010
0100
0000
0100
1000
0000
1000
,  // measure 146
0001
0000
0100
0100
0010
0010
1000
1000
,  // measure 147
0001
0000
0001
0000
0010
0000
0100
0000
1000
0000
0001
0000
0100
0010
0100
0010
,  // measure 148
0100
0010
0100
0010
1000
0000
0000
0000
0100
0000
1000
0000
0100
0000
0000
0000
,  // measure 149
0010
0001
0100
0010
,  // measure 150
0100
0001
0010
1000
,  // measure 151
0010
0001
0100
0010
,  // measure 152
0100
0000
0001
0000
0010
0100
0010
0000
,  // measure 153
0100
1000
0010
0001
,  // measure 154
0010
0100
0001
1000
,  // measure 155
0100
0000
0110
1001
0001
0000
0100
0001
,  // measure 156
0100
0010
1000
0100
,  // measure 157
0010
0100
1000
0010
,  // measure 158
0001
0010
1000
0100
,  // measure 159
0010
0000
0100
0000
1000
0000
0010
0100
,  // measure 160
0010
0100
0001
0010
,  // measure 161
1000
0000
0000
0000
0010
0000
0000
0000
0001
0001
1000
1000
0010
0010
0100
0100
,  // measure 162
0001
0000
1000
0001
1000
0000
0010
0000
,  // measure 163
0100
0001
0010
0100
,  // measure 164
0010
0001
1000
0010
,  // measure 165
0100
1000
0100
0001
,  // measure 166
1000
0000
0001
1000
0001
0000
0010
0000
,  // measure 167
0100
1000
0010
0100
,  // measure 168
0010
1000
0001
0010
,  // measure 169
0100
0001
0100
1000
,  // measure 170
0010
0000
0100
0001
0100
0000
0001
0000
,  // measure 171
0010
0000
0100
1000
0100
0000
1000
0000
,  // measure 172
0001
0000
0100
0001
0100
0000
0010
0000
,  // measure 173
1000
0000
0100
1000
0100
0000
0010
0000
,  // measure 174
0001
0001
1000
1000
,  // measure 175
0010
0010
0100
0100
,  // measure 176
0001
1000
0001
0000
1000
0001
1000
0000
,  // measure 177
0001
1000
0001
1000
0001
1000
0001
2000
,  // measure 178
0002
0000
0000
0000
,  // measure 179
0000
0000
0000
0000
,  // measure 180
0000
0000
0000
0000
,  // measure 181
0000
0000
0000
3003
,  // measure 182
1000
0000
0001
1000
0001
0000
0100
0010
,  // measure 183
0100
0010
1000
0001
,  // measure 184
1000
0100
0010
0001
,  // measure 185
0100
0010
1000
0001
,  // measure 186
1000
0001
0011
0001
,  // measure 187
1000
1010
1000
0100
,  // measure 188
0001
0100
1000
0010
,  // measure 189
0100
0001
0010
0100
,  // measure 190
1000
0001
0100
1000
,  // measure 191
0100
0001
1000
2002
,  // measure 192
0000
0000
0000
0000
,  // measure 193
0000
0000
0000
0000
,  // measure 194
0000
0000
0000
0000
,  // measure 195
0000
0000
0000
0000
,  // measure 196
0000
0000
0000
0000
,  // measure 197
0000
0000
0000
0000
,  // measure 198
0000
0000
0000
0000
,  // measure 199
0000
0000
0000
0000
,  // measure 200
0000
3003
0000
0000
;

//---------------dance-single - INNOVATED MASTERM[i]ND -DAFF_4K-----------------
#NOTES:
     dance-single:
     INNOVATED MASTERM[i]ND -DAFF_4K-:
     Challenge:
     18:
     0.963444,1.881736,0.310822,0.462618,0.502375,933.000000,890.000000,43.000000,64.000000,0.000000,0.000000,0.963444,1.881736,0.310822,0.462618,0.502375,933.000000,890.000000,43.000000,64.000000,0.000000,0.000000:
// measure 0
0000
0000
0000
0000
,  // measure 1
0000
0000
0000
0000
,  // measure 2
0000
0000
0000
0000
,  // measure 3
0000
0000
0000
0000
,  // measure 4
0001
0100
0010
0100
,  // measure 5
0001
0100
1000
0100
,  // measure 6
0001
0100
0010
1000
,  // measure 7
0100
0000
0010
0000
0001
0000
1000
0001
,  // measure 8
1000
0100
0010
0100
,  // measure 9
1000
0100
0001
0100
,  // measure 10
1000
0100
0010
0001
,  // measure 11
0100
0010
0100
0000
0010
0000
1000
0001
,  // measure 12
1000
0010
0100
0001
,  // measure 13
0010
0000
0100
0000
1000
0000
0001
1000
,  // measure 14
0001
0010
0100
1000
,  // measure 15
0010
0000
0100
0000
0001
0000
1000
0001
,  // measure 16
1000
0100
1000
0000
0001
0000
1000
0000
,  // measure 17
0001
0100
0001
0000
1000
0000
0001
0000
,  // measure 18
0010
0000
0100
0000
1000
0001
1000
0000
,  // measure 19
0001
0000
0100
0010
0100
0000
0010
0000
,  // measure 20
1000
0100
0001
0200
,  // measure 21
0000
1300
0001
0100
,  // measure 22
0020
0000
1000
0001
0000
0000
0001
1000
,  // measure 23
0000
0000
1000
0001
0030
0000
0100
0000
,  // measure 24
1000
0010
0001
1000
,  // measure 25
0100
0001
0010
0200
,  // measure 26
0000
0000
1300
0000
0001
0000
0100
0001
,  // measure 27
0100
0000
0010
1000
0010
0000
1000
0000
,  // measure 28
0001
0100
1000
0200
,  // measure 29
0000
0301
1000
0100
,  // measure 30
0020
0000
0001
1000
0000
0000
1000
0001
,  // measure 31
0000
0000
0001
1000
0030
0000
0100
0000
,  // measure 32
0001
0010
1000
0001
,  // measure 33
0100
1000
0010
0200
,  // measure 34
0000
0000
0301
0000
1000
0000
0100
1000
,  // measure 35
0100
0000
0010
0001
0010
0000
0001
0000
,  // measure 36
0100
1000
0001
0010
,  // measure 37
1000
0010
1000
0000
0100
0000
0001
0000
,  // measure 38
1000
0000
0010
0000
0001
0010
0001
0000
,  // measure 39
0100
0010
0001
0010
,  // measure 40
1000
0100
0010
1000
,  // measure 41
0010
0001
0100
0010
,  // measure 42
1000
0001
1000
0000
0011
0000
0000
0000
,  // measure 43
1100
0000
0000
0000
0001
1000
0001
0000
,  // measure 44
1010
0000
0101
0000
,  // measure 45
0010
0100
0010
0000
1001
0000
0000
0000
,  // measure 46
0110
0000
1001
0000
,  // measure 47
1000
0100
1000
0000
0001
0100
0001
0000
,  // measure 48
0110
0000
0000
0000
1001
0000
0000
1000
,  // measure 49
0001
0000
0100
0010
0100
0000
0001
0000
,  // measure 50
0010
1000
0010
0001
,  // measure 51
0100
0010
1000
0000
,  // measure 52
0110
0000
0000
0000
1001
0000
0000
0001
,  // measure 53
1000
0000
0100
0010
0100
0000
1000
0000
,  // measure 54
0001
0000
1000
0010
1000
0000
0001
0010
,  // measure 55
0001
0100
0010
1000
,  // measure 56
1100
0000
0000
0000
0000
0000
0011
0000
0000
0000
0001
0000
,  // measure 57
0100
0000
0010
0000
0100
0000
0001
0000
0100
0000
0010
0000
,  // measure 58
1000
0000
0000
0000
0000
0000
1001
0000
0000
0000
0001
0000
,  // measure 59
0010
0000
0100
0000
0010
0000
0001
0000
0010
0000
0100
0000
,  // measure 60
1000
0000
0000
0000
0000
0000
1001
0000
0000
0000
0001
0000
,  // measure 61
1000
0000
0010
0000
0100
0000
0010
0000
1000
0000
0001
0000
,  // measure 62
0010
0000
0000
0000
0000
0000
1100
0000
0000
0000
1000
0000
,  // measure 63
0001
0000
0010
0000
0100
0000
1000
0000
0010
0000
0100
0000
,  // measure 64
0001
0000
0000
0000
0000
0000
1010
0000
0000
0000
1000
0000
,  // measure 65
0100
0000
0010
0000
0100
0000
1000
0000
0100
0000
0010
0000
,  // measure 66
0001
0000
0000
0000
0000
0000
1001
0000
0000
0000
1000
0000
,  // measure 67
0010
0000
0100
0000
0010
0000
1000
0000
0010
0000
0100
0000
,  // measure 68
0001
0000
0000
0000
0000
0000
1001
0000
0000
0000
1000
0000
,  // measure 69
0001
0000
0010
0000
0100
0000
0010
0000
0001
0000
1000
0000
,  // measure 70
0001
0100
0001
0000
1000
0100
1000
0000
,  // measure 71
0010
0100
0010
0100
0001
1000
0001
1000
,  // measure 72
0002
0010
1000
0100
0023
0000
1000
0100
,  // measure 73
0032
0000
0100
0000
2003
0000
0010
0000
3200
0000
0000
0000
0310
0001
0100
0010
,  // measure 74
2000
0100
0001
0010
3200
0000
0001
0010
,  // measure 75
2300
0000
0010
0000
3002
0000
0100
0000
0023
0000
0000
0000
0130
1000
0010
0100
,  // measure 76
0001
0010
0100
0010
0001
0010
0200
0000
0320
0000
0032
0000
,  // measure 77
0103
0010
1000
0010
0100
0010
2000
0000
3020
0000
0230
0000
,  // measure 78
0301
1000
0100
1000
0001
1000
0200
0000
2300
0000
3002
0000
,  // measure 79
0103
0010
0100
0010
1000
0001
1000
0001
0010
0100
1000
0001
,  // measure 80
1000
0010
0100
0010
1000
0010
0200
0000
0320
0000
2030
0000
,  // measure 81
3100
0010
0001
0010
0100
0010
0002
0000
0023
0000
0230
0000
,  // measure 82
1300
0001
0100
0001
1000
0001
0200
0000
0302
0000
2003
0000
,  // measure 83
3001
0010
0001
0000
1000
0010
1000
0000
0100
0010
0100
0010
0001
1000
0001
1000
,  // measure 84
0001
0000
0000
0000
1000
0100
0000
0001
0100
0000
0010
0100
0010
0001
1000
0001
,  // measure 85
1000
0000
0001
0000
0010
0001
0010
0000
,  // measure 86
0100
1000
0010
0001
,  // measure 87
0010
1000
0100
0010
,  // measure 88
0001
1000
0010
0100
,  // measure 89
0001
0000
1000
0000
0010
0100
0010
0000
,  // measure 90
1000
0100
0001
1000
,  // measure 91
0010
0001
0100
0010
,  // measure 92
0100
0000
0001
0000
0010
0000
0100
0010
,  // measure 93
0100
0000
1000
0000
0010
1000
0010
0000
,  // measure 94
0100
0001
0010
1000
,  // measure 95
0010
0001
0100
0010
,  // measure 96
1000
0001
0010
0100
,  // measure 97
1000
0000
0001
0010
0001
0010
0001
0000
,  // measure 98
1000
0010
1000
0010
1000
0000
0001
0000
,  // measure 99
2002
3003
1000
0100
,  // measure 100
0010
0000
0001
0000
0100
0010
0100
0000
,  // measure 101
0010
0000
1000
0001
1000
0001
0010
0000
,  // measure 102
0100
1000
0010
0001
,  // measure 103
1000
0100
0001
0010
,  // measure 104
0100
0000
1000
0000
0001
1000
0001
0000
,  // measure 105
0100
0000
0010
0000
1000
0001
1000
0000
,  // measure 106
0100
0001
0100
1000
,  // measure 107
0001
0000
1000
0000
0010
0100
0010
0000
,  // measure 108
1000
0000
0001
0000
0010
0100
0010
0000
,  // measure 109
0001
0000
1000
0000
0010
0100
0010
0000
,  // measure 110
0100
0001
0010
1000
,  // measure 111
0001
0100
1000
0010
,  // measure 112
0100
0000
0001
0000
1000
0001
1000
0000
,  // measure 113
0100
0000
0010
0001
0100
0001
0100
0000
,  // measure 114
0010
1000
0100
1000
0100
0000
0010
0000
,  // measure 115
2002
0000
3003
0000
0001
1000
0001
0000
,  // measure 116
1000
0000
0010
0100
0010
0000
0100
0000
,  // measure 117
0001
2002
0000
0000
,  // measure 118
0000
0000
0000
0000
,  // measure 119
0000
0000
0000
0000
,  // measure 120
0000
0000
0000
0000
,  // measure 121
0000
0000
0000
0000
,  // measure 122
0000
0000
0000
0000
,  // measure 123
0000
0000
0000
0000
,  // measure 124
0000
0000
0000
0000
,  // measure 125
0000
0000
0000
0000
,  // measure 126
0000
0000
0000
0000
,  // measure 127
0000
0000
0000
0000
,  // measure 128
0000
0000
0000
0000
,  // measure 129
0000
0000
0000
0000
,  // measure 130
0000
0000
0000
0000
,  // measure 131
0000
0000
0000
0000
,  // measure 132
3003
0000
0000
2001
0000
0000
3010
1000
0001
0020
0000
0000
,  // measure 133
0130
1000
0001
0200
0000
0000
0010
0000
0000
0301
0000
0000
,  // measure 134
0110
0000
0000
1002
0000
0000
0013
0001
1000
0020
0000
0000
,  // measure 135
0130
0001
1000
0200
0000
0000
0010
0000
0000
1300
0000
0000
,  // measure 136
0110
0000
0000
2001
0000
0000
3100
1000
0010
0200
0000
0000
,  // measure 137
0310
0100
0001
0020
0000
0000
0130
0000
0000
1001
0000
0000
,  // measure 138
0110
0000
0000
1002
0000
0000
0103
0001
0010
0200
0000
0000
,  // measure 139
0310
0100
1000
0020
0000
0000
0130
0000
0000
1001
0000
0000
,  // measure 140
0110
0000
0000
1002
0000
0000
0013
0100
1000
0020
0000
0000
,  // measure 141
0130
0001
1000
0200
0000
0000
0310
0001
1000
0020
0000
0000
,  // measure 142
0130
0000
0000
2001
0000
0000
3010
0100
0001
0020
0000
0000
,  // measure 143
0130
1000
0001
0200
0000
0000
0310
1000
0001
0020
0000
0000
,  // measure 144
0130
0000
0000
1001
0000
1000
0100
0000
0001
0100
0000
1000
,  // measure 145
0010
0000
0001
0010
0000
1000
0001
0000
0010
0100
0000
1000
,  // measure 146
0001
0000
1000
1000
0001
0001
0010
0010
,  // measure 147
0100
0000
0100
0000
1000
0001
1000
0000
0001
1000
0001
0000
0100
0010
0100
0010
,  // measure 148
0100
0010
0100
0010
1000
0000
0000
0000
0001
0000
0010
0000
0001
0000
0000
0000
,  // measure 149
0100
0010
1000
0100
,  // measure 150
0010
0001
0100
0010
,  // measure 151
0100
0000
0001
0000
1000
0000
0100
1000
,  // measure 152
0001
0000
0010
0000
0100
0010
0100
0000
,  // measure 153
1000
0010
0100
0010
,  // measure 154
1000
0000
0100
0000
0010
0100
0010
0000
,  // measure 155
0001
0000
0110
1001
0001
0000
1000
0010
,  // measure 156
1000
0100
0010
0001
,  // measure 157
0100
0010
1000
0100
,  // measure 158
0010
0100
1000
0001
,  // measure 159
0100
0001
1000
0000
0010
0000
0100
0010
,  // measure 160
0100
0001
0010
0100
,  // measure 161
0010
0000
0000
0000
0001
0000
0000
0000
0100
0100
0100
0100
0010
0010
0010
0010
,  // measure 162
1000
0000
0100
0010
0100
0010
0001
0000
,  // measure 163
1000
0010
0001
0010
,  // measure 164
1000
0100
0010
0100
,  // measure 165
1000
0000
0001
1000
0001
0000
0100
0000
,  // measure 166
0001
0000
0100
0010
0100
0010
1000
0000
,  // measure 167
0001
0010
1000
0010
,  // measure 168
0001
0100
0010
0100
,  // measure 169
0001
0000
1000
0001
1000
0000
0100
0000
,  // measure 170
1000
0000
0001
0010
0001
0010
0100
0000
,  // measure 171
1000
0000
0010
0100
0010
0000
0100
0000
,  // measure 172
0001
0000
1000
0010
1000
0010
0100
0000
,  // measure 173
0001
0000
0010
0100
0010
0000
0100
0000
,  // measure 174
1000
0010
1000
0010
1000
0010
1000
0000
,  // measure 175
0001
0010
0001
0010
0001
0010
0001
0000
,  // measure 176
0100
0010
0100
0000
0010
0100
0010
0000
,  // measure 177
1000
0001
1000
0001
1000
0001
1000
0002
,  // measure 178
2000
0000
0000
0000
,  // measure 179
0000
0000
0000
0000
,  // measure 180
0000
0000
0000
0000
,  // measure 181
0000
0000
0000
3003
,  // measure 182
0001
0100
0001
0100
0010
1000
0010
1000
,  // measure 183
0100
0010
0001
1000
,  // measure 184
0001
0000
0100
0010
0100
0000
0001
0000
,  // measure 185
1000
0000
0100
0010
0100
0000
1000
0000
,  // measure 186
0001
1000
0001
0000
1100
0000
1000
0001
,  // measure 187
1000
0101
1001
1000
,  // measure 188
0100
0010
0100
0000
0001
0000
0100
0000
,  // measure 189
1000
0001
0100
1000
,  // measure 190
0110
0000
1001
0000
0001
0000
1000
0001
,  // measure 191
1000
0100
0010
2002
,  // measure 192
0000
0000
0000
0000
,  // measure 193
0000
0000
0000
0000
,  // measure 194
0000
0000
0000
0000
,  // measure 195
0000
0000
0000
0000
,  // measure 196
0000
0000
0000
0000
,  // measure 197
0000
0000
0000
0000
,  // measure 198
0000
0000
0000
0000
,  // measure 199
0000
0000
0000
0000
,  // measure 200
0000
3003
0000
0000
;
