#VERSION:0.83;
#TITLE:mochimochi;
#SUBTITLE:;
#ARTIST:TAK feat. Hatsune Miku;
#TITLETRANSLIT:;
#SUBTITLETRANSLIT:;
#ARTISTTRANSLIT:;
#GENRE:;
#ORIGIN:;
#CREDIT:Kommisar;
#BANNER:mochi-bn.png;
#BACKGROUND:mochi-bg.png;
#PREVIEWVID:;
#JACKET:;
#CDIMAGE:;
#DISCIMAGE:;
#LYRICSPATH:;
#CDTITLE:;
#MUSIC:mochimochi.ogg;
#OFFSET:0.200000;
#SAMPLESTART:60.485142;
#SAMPLELENGTH:12.000000;
#SELECTABLE:YES;
#BPMS:0.000=166.000;
#STOPS:;
#DELAYS:;
#WARPS:;
#TIMESIGNATURES:0.000=4=4;
#TICKCOUNTS:0.000=4;
#COMBOS:0.000=1;
#SPEEDS:0.000=1.000=0.000=0;
#SCROLLS:0.000=1.000;
#FAKES:;
#LABELS:0.000=Song Start;
#BGCHANGES:0.211=mochimochi.mp4=1.000=0=0=0=StretchNoLoop====,
99999=-nosongbg-=1.000=0=0=0 // don't automatically add -songbackground-
;
#KEYSOUNDS:;
#ATTACKS:
;

//---------------dance-single - SJ-----------------
#NOTEDATA:;
#CHARTNAME:;
#STEPSTYPE:dance-single;
#DESCRIPTION:SJ-;
#CHARTSTYLE:;
#DIFFICULTY:Challenge;
#METER:14;
#RADARVALUES:0.840816,0.859056,0.342857,0.473469,0.755102,721.000000,679.000000,42.000000,58.000000,4.000000,0.000000,2.000000,0.000000,0.000000,0.840816,0.859056,0.342857,0.473469,0.755102,721.000000,679.000000,42.000000,58.000000,4.000000,0.000000,2.000000,0.000000,0.000000;
#CREDIT:Kommisar;
#NOTES:
// measure 0
0000
0000
0000
0000
,  // measure 1
0000
0000
0000
0000
,  // measure 2
1000
0100
0000
1000
0010
0000
0100
0000
0001
0010
0000
0001
0100
0000
0010
0000
,  // measure 3
1000
0100
0000
0010
0001
0000
1000
0000
0001
0000
0000
0000
0MM0
0000
0000
0000
,  // measure 4
1000
0100
0000
1000
0010
0000
0100
0000
0001
0010
0000
0001
0100
0000
0010
0000
,  // measure 5
1000
0100
0000
1000
0010
0000
0100
0000
0001
0000
0010
0100
4000
0000
3001
0000
,  // measure 6
0100
0010
0000
0100
0001
0000
1000
0000
0100
0010
0000
0100
1000
0000
0010
0000
,  // measure 7
0100
0001
0000
0100
0010
0000
1000
0000
0001
00M0
0000
0000
0M00
0000
0000
0000
,  // measure 8
1000
0100
0000
0010
0001
0000
1000
0000
0010
0100
0000
0010
1000
0000
1200
0000
,  // measure 9
0000
0000
0000
0000
0000
0000
0000
0300
1000
0010
1000
0000
0002
0000
0000
0003
,  // measure 10
0011
0000
0010
0000
0100
0000
1000
0000
0010
0000
0100
0001
0100
0000
0010
0000
,  // measure 11
1000
0000
0100
0000
1000
0000
0100
0000
0010
0000
0001
0000
1000
0000
0010
0100
,  // measure 12
0001
0000
1000
0000
0100
0000
0010
0000
0100
0000
1000
0010
0100
0000
0001
0000
,  // measure 13
0010
0000
0001
0000
0010
0000
0100
0010
0100
0000
1000
0000
0010
0000
0100
0000
,  // measure 14
0101
0000
0001
0000
1000
0000
0100
0000
0010
0000
0001
0100
0001
0000
1000
0000
,  // measure 15
0100
0000
0010
0000
0100
0000
0010
0000
0001
0000
0100
0000
0010
0000
1000
0100
,  // measure 16
1000
0000
0010
0000
0100
0000
0001
0000
1000
0000
0100
0010
0001
0000
1000
0000
,  // measure 17
0010
0000
0100
0000
0010
0000
0100
0001
0100
0000
0001
0000
0010
0000
0100
0000
,  // measure 18
0110
0000
0000
0000
1100
0000
0000
0101
,  // measure 19
0000
0101
0000
0001
0000
0010
0001
0000
,  // measure 20
1100
0000
1000
0020
0130
0001
0010
0110
,  // measure 21
0000
0110
0000
0100
1000
0010
0100
0001
,  // measure 22
0011
0000
0000
0000
0110
0000
0000
2100
,  // measure 23
0000
3000
1001
0000
0001
0000
0200
0000
0000
0000
0310
0000
1000
0000
0100
0000
,  // measure 24
0120
0000
0000
0030
0001
0000
1000
0000
1010
0000
0010
0000
0100
0000
2001
0000
,  // measure 25
0000
0000
0002
0000
0000
3003
0000
0000
1000
0100
1000
0000
0020
0000
0100
0030
,  // measure 26
0001
0000
1000
0000
0100
0000
1000
0000
0010
0000
0100
0001
0100
0000
0010
0000
,  // measure 27
1000
0000
0100
0000
0010
0000
0100
0000
1000
0000
0020
0030
0200
0300
0020
0030
,  // measure 28
0200
0300
0001
0000
0010
0000
0001
0000
1000
0000
0100
0010
0100
0000
1000
0000
,  // measure 29
0010
0000
0100
0000
0001
0000
0010
0000
0100
0000
1000
0010
1000
0000
0001
0000
,  // measure 30
0100
0000
0010
0000
1000
0000
0001
0000
0010
0000
0100
1000
0100
0000
1000
0000
,  // measure 31
0010
0000
0100
0000
0001
0000
0010
0000
0001
0000
2000
3000
0200
0300
2000
3000
,  // measure 32
0200
0300
0000
0000
0010
0000
0001
0000
0200
0300
0010
1000
0001
0000
0011
0000
,  // measure 33
0000
1100
0000
0000
0000
0000
0000
0000
,  // measure 34
1000
0010
0000
0100
0010
0000
1000
0100
1000
0010
0000
0100
0001
0000
0010
0000
,  // measure 35
0100
1000
0000
0100
0010
0000
0001
0000
0100
0000
0010
0000
1000
0001
0000
0000
,  // measure 36
0100
0010
0000
0100
0001
0000
1000
0000
0100
0010
0000
0100
1000
0000
0010
0000
,  // measure 37
0100
0000
0000
0001
0000
0000
0000
0000
0000
0100
0000
0000
0010
0000
0000
0000
0000
0000
1000
0000
0000
0000
0000
0000
0001
0000
0000
0000
0010
0000
0000
0000
0100
0000
0000
0000
1000
0000
0000
0000
0010
0000
0000
0000
0100
0000
0000
0000
,  // measure 38
0001
0010
0000
0001
0100
0000
0010
0000
1000
0100
0000
1000
0010
0000
0100
0000
,  // measure 39
0001
1000
0010
0100
0010
0000
1000
0000
0100
0010
0100
0010
0004
0000
0000
0003
,  // measure 40
1001
0000
1000
0100
0110
0010
0001
1001
,  // measure 41
0000
0000
0000
0000
,  // measure 42
1001
0000
0001
0010
0100
1000
0010
0000
0100
0000
0001
1000
0100
0010
0100
0000
,  // measure 43
1000
0000
0010
0100
0001
0010
0100
0000
1000
0000
1000
0000
0020
0000
0100
0000
,  // measure 44
0031
0010
0010
0100
0200
1300
0010
0100
,  // measure 45
0001
0000
0010
0001
1000
0000
0100
1000
0010
0000
0100
0000
0102
0000
1000
0003
,  // measure 46
0001
0000
0010
0100
1000
0010
1000
0000
0001
0000
0100
0010
1000
0100
0010
0000
,  // measure 47
0001
0000
0010
0100
1000
0010
0100
0000
0001
0000
0001
0000
1000
0000
0100
0000
,  // measure 48
0020
0000
0000
0031
0020
0000
0000
0031
0020
0000
0000
0031
0020
0000
0000
0031
,  // measure 49
1000
0000
0010
0100
0010
0000
1000
0000
0000
0000
0100
0000
0010
0000
0001
0000
,  // measure 50
2000
0000
0000
3000
2000
0000
0000
3000
2000
0000
0000
3000
2000
0000
0000
3000
,  // measure 51
0020
0000
0130
0020
0000
0130
0001
0000
1000
0100
0000
0010
,  // measure 52
0012
0000
0000
0000
0000
0000
0000
0000
0000
0003
0000
0000
0201
0000
0000
0000
0300
0000
0000
0000
0100
0000
0000
0000
2010
0000
0000
0000
0000
0000
0000
0000
3000
0000
0000
0000
1200
0000
0000
0000
0300
0000
0000
0000
0100
0000
0000
0000
,  // measure 53
0012
0000
0000
0000
0000
0000
0000
0000
0003
0000
0000
0000
0201
0000
0000
0000
0300
0000
0000
0000
0100
0000
0000
0000
2010
0000
0000
0000
0000
0000
0000
0000
0000
3000
0000
0000
1200
0000
0000
0000
0000
0000
0000
0000
0310
0000
0000
0000
,  // measure 54
0012
0000
0003
0201
0300
0100
2010
0000
3000
1200
0300
0100
,  // measure 55
2000
0000
3010
2000
0000
3010
0200
0000
0301
0020
0000
0130
,  // measure 56
1000
0000
0010
0100
0000
0010
1000
0000
0010
0100
0001
0010
,  // measure 57
0100
0000
1000
0010
0000
1000
0100
0000
1000
0100
0010
0001
,  // measure 58
1000
0100
1000
0010
0100
0001
0010
0001
1000
0100
0010
0001
,  // measure 59
2000
0000
3000
0010
0100
0000
0020
0100
0030
0010
1000
0000
,  // measure 60
1001
0001
0010
0100
0000
1000
0010
0100
0001
0010
0000
0001
,  // measure 61
1000
0100
1000
0010
0000
0100
0001
0000
0000
0010
0100
0000
,  // measure 62
1000
0010
1000
0100
0000
0010
0001
0100
0010
0100
0000
0001
,  // measure 63
1000
0100
0010
0001
0000
1000
0010
0100
0001
0010
0100
1000
,  // measure 64
0001
0010
0001
0100
0000
0010
0100
0010
1000
0100
0000
1000
,  // measure 65
0100
0010
0100
1000
0000
0001
0100
0000
0000
0020
0000
0130
,  // measure 66
0001
0010
0001
1000
0000
0100
0010
0100
1000
0010
0000
0110
,  // measure 67
0000
0000
0000
0000
,  // measure 68
1001
0000
0001
0010
0100
1000
0010
0000
0100
0000
0001
1000
0100
0010
0100
0000
,  // measure 69
1000
0000
0010
0100
0001
0010
0100
0000
1000
0000
1000
0000
0020
0000
0100
0000
,  // measure 70
0031
0010
0010
0100
0200
1300
0010
0100
,  // measure 71
0001
0000
0010
0001
1000
0000
0100
1000
0010
0000
0100
0000
0102
0000
1000
0003
,  // measure 72
0001
0000
0010
0100
1000
0010
1000
0000
0001
0000
0100
0010
1000
0100
0010
0000
,  // measure 73
0001
0000
0010
0100
1000
0010
0100
0000
0001
0000
0001
0000
1000
0000
0100
0000
,  // measure 74
0020
0000
0000
0031
0020
0000
0000
0031
0020
0000
0000
0031
0020
0000
0000
0031
,  // measure 75
1000
0000
0010
0100
0010
0000
1000
0000
0000
0000
0100
0000
0010
0000
0001
0000
,  // measure 76
1001
0000
1000
0000
0100
0000
1000
0000
0010
0000
0100
0001
0100
0000
0010
0000
,  // measure 77
1000
0000
0100
0000
1000
0000
0100
0000
0010
0000
0001
0000
1000
0000
0010
0100
,  // measure 78
0001
0000
1000
0000
0100
0000
0010
0000
0100
0000
1000
0010
0100
0000
0001
0000
,  // measure 79
0010
0000
0001
0000
0010
0000
0100
0010
0100
0000
1000
0000
0010
0000
0100
0000
,  // measure 80
0101
0000
0001
0000
1000
0000
0100
0000
0010
0000
0001
0100
0001
0000
1000
0000
,  // measure 81
0100
0000
0010
0000
0100
0000
0010
0000
0001
0000
0100
0000
0010
0000
1000
0100
,  // measure 82
1000
0000
0100
0000
0010
0000
0100
0000
1000
0000
0001
0010
0100
0000
0010
0000
,  // measure 83
0001
0000
0100
0000
0010
0000
1000
0001
1000
0000
0010
0000
0200
0000
0000
0000
,  // measure 84
0000
0000
0000
0300
0000
0000
0000
0000
0000
0000
0000
0000
0000
0000
0000
0000
;

//---------------dance-single - ----------------
#NOTEDATA:;
#CHARTNAME:;
#STEPSTYPE:dance-single;
#DESCRIPTION:;
#CHARTSTYLE:;
#DIFFICULTY:Hard;
#METER:12;
#RADARVALUES:0.614577,0.688776,0.024490,0.481633,0.457143,527.000000,524.000000,3.000000,59.000000,4.000000,0.000000,4.000000,0.000000,0.000000,0.614577,0.688776,0.024490,0.481633,0.457143,527.000000,524.000000,3.000000,59.000000,4.000000,0.000000,4.000000,0.000000,0.000000;
#CREDIT:Kommisar;
#NOTES:
0000
0000
0000
0000
,
0000
0000
0000
0000
,
1000
0000
0010
0000
,
0100
0000
0000
0MM0
,
0001
0000
0010
0000
,
0100
0000
2000
0000
,
3010
0000
0100
0000
,
0001
0000
0000
0000
0000
0000
0000
0000
0000
00M0
0000
0000
0M00
0000
0000
0000
,
1000
0000
0000
0000
0010
0000
0000
0210
,
0000
0000
0000
0000
0000
0000
0000
0300
0010
0000
0000
0000
2000
0000
0000
3000
,
0001
0000
0010
0000
0100
0000
1000
0000
0010
0000
0100
0001
0100
0000
0010
0000
,
1000
0100
1000
0100
0010
0000
0001
0000
,
0100
0000
0010
0000
1000
0000
0100
0000
0010
0000
0001
0100
0001
0000
1000
0000
,
0010
0100
0010
1000
0001
0010
0100
1000
,
0001
0000
1000
0000
0100
0000
0010
0000
0001
0000
0100
0001
0100
0000
0010
0000
,
1000
0100
1000
0100
0010
0001
1000
0010
,
0100
0000
0001
0000
1000
0000
0010
0000
1000
0000
0001
0010
0001
0000
1000
0000
,
0010
0000
0100
0000
0010
0000
0100
0001
0100
0000
0001
0000
0010
0000
0100
0000
,
0010
0000
0000
0000
0100
0000
0000
1000
,
0000
1000
0000
0010
0000
0100
0001
0000
,
1000
0000
1000
0020
0130
0001
0010
0100
,
0000
0100
0000
1000
0010
0100
0001
1000
,
0010
0000
0000
0000
0100
0000
0000
0002
,
0000
0003
0010
0000
0100
0000
2000
0000
0000
0000
3010
0000
0100
0000
0001
0000
,
0010
0000
0100
1000
0010
0100
0001
1002
,
0000
0000
0000
0000
0000
0000
0000
0003
1000
0100
1000
0000
0020
0000
0100
0030
,
0001
1000
0000
0010
0100
0001
0000
0010
,
0000
0000
0100
0000
1000
0000
0010
0000
0100
0000
0002
0003
0020
0030
0002
0003
,
0020
0030
0001
0000
1000
0000
0100
0000
0010
0000
0001
0000
0100
0000
0010
0000
,
0000
1000
0000
0001
0010
0000
0001
1000
,
0100
1000
0000
0010
0100
0001
0000
0020
,
0000
0000
0130
0000
1000
0000
0010
0000
0100
0000
0002
0003
0020
0030
0002
0003
,
0020
0030
0000
0000
0001
0000
1000
0000
0010
0000
0100
0000
0001
0000
1000
0000
,
0000
0010
0000
0000
0000
0000
0000
0000
,
2000
0000
0000
0000
0000
0000
0000
0000
3000
0000
0000
0000
0001
0010
0000
0000
,
0002
0000
0000
0000
0000
0000
0000
0000
0000
0000
0003
0000
0100
0001
0000
0000
,
0010
0100
0000
0000
2000
0000
0000
3000
0010
0100
0000
0000
0002
0000
0000
0003
,
0010
0000
0000
0100
0000
0000
0000
0000
0000
0000
0000
0000
2000
0000
0000
0000
0000
0000
0000
0000
0000
0000
0000
0000
3001
0000
0000
0000
0010
0000
0000
0000
0100
0000
0000
0000
1000
0000
0000
0000
0010
0000
0000
0000
0100
0000
0000
0000
,
0001
0000
0000
0020
0000
0000
0000
0000
0000
0030
0000
0000
0100
1000
0000
0000
,
0020
0000
0000
0000
0000
0000
0000
0000
0000
0000
0000
0000
0000
0000
0000
0000
0000
0000
0000
0000
0000
0000
0000
0000
0000
0000
0000
0030
0000
0000
0000
0000
0000
0000
0000
0000
0200
0000
0000
0000
0000
0000
0300
0000
0010
0000
0000
0000
,
1000
0000
0000
0000
0001
0100
0000
0000
0001
0100
0000
0000
0010
0000
1000
0000
,
0001
0000
0000
0000
,
0001
0000
0100
0001
0000
0000
0100
0000
0010
0000
1000
0010
0000
0000
1000
0000
,
0001
0000
0100
0001
0000
0000
0100
0000
0010
0000
0010
0000
2000
0000
0000
3000
,
0001
0010
0100
1000
0020
0030
0100
0001
,
0000
0000
1000
0000
0100
0000
0010
0000
0001
0000
0100
0000
0020
0000
0000
0030
,
1000
0000
0001
1000
0000
0000
0001
0000
0010
0000
0100
0010
0000
0000
0100
0000
,
1000
0000
0100
0010
0000
0000
0100
0000
1000
0000
0010
0000
0100
0000
0001
0000
,
0020
0000
0000
0031
0020
0000
0000
0031
0020
0000
0000
0031
0020
0000
0000
0031
,
1000
0000
0010
0100
0010
0000
1000
0000
0000
0000
0100
0000
0010
0000
0001
0000
,
1000
1000
1000
1000
,
0020
0000
0130
0020
0000
0130
0001
0000
1000
0100
0000
0010
,
0002
0000
0000
0000
0000
0000
0000
0000
0000
0003
0000
0000
0020
0000
0000
0000
0000
0000
0030
0000
0100
0000
0000
0000
2000
0000
0000
0000
0000
0000
0000
0000
3000
0000
0000
0000
0200
0000
0000
0000
0300
0000
0000
0000
0010
0000
0000
0000
,
0002
0000
0000
0000
0000
0000
0000
0000
0003
0000
0000
0000
0020
0000
0000
0000
0000
0000
0030
0000
0100
0000
0000
0000
2000
0000
0000
0000
0000
0000
0000
0000
0000
3000
0000
0000
0200
0000
0000
0000
0000
0000
0000
0000
0310
0000
0000
0000
,
0002
0000
0003
0200
0300
0010
2000
0000
3000
0020
0000
0130
,
0002
0000
1003
0002
0000
1003
0002
0000
0013
0100
0000
1000
,
0001
0000
0100
0001
0000
0100
0001
0000
0100
0001
1000
0001
,
1000
0000
0010
0100
0000
0010
0100
0000
0010
1000
0010
1000
,
0004
0043
0430
4300
,
3002
0000
0000
1003
0100
0000
1000
0100
0000
1000
0010
0000
,
0100
0001
0100
0001
0000
1000
0010
1000
0010
1000
0000
0001
,
0010
0100
0010
0100
0000
1000
0010
0000
0000
0100
0001
0000
,
1000
0100
1000
0100
0000
0010
0001
0100
0001
0100
0000
0010
,
1000
0001
1000
0001
0000
0010
0100
0010
0000
0100
1000
0000
,
0001
0010
0001
0010
0000
0001
1000
0010
1000
0010
0000
0100
,
0001
0100
0001
0010
0000
0100
1000
0000
0000
0020
0000
0130
,
0001
0010
0001
1000
0000
0100
0010
0100
1000
0010
0000
0110
,
0000
0000
0000
0000
,
0001
0000
0100
0001
0000
0000
0100
0000
0010
0000
1000
0010
0000
0000
1000
0000
,
0001
0000
0100
0001
0000
0000
0100
0000
0010
0000
0010
0000
2000
0000
0000
3000
,
0001
0010
0100
1000
0020
0030
0100
0001
,
0000
0000
1000
0000
0100
0000
0010
0000
0001
0000
0100
0000
0020
0000
0000
0030
,
1000
0000
0001
1000
0000
0000
0001
0000
0010
0000
0100
0010
0000
0000
0100
0000
,
1000
0000
0100
0010
0000
0000
0100
0000
1000
0000
0010
0000
0100
0000
0001
0000
,
0020
0000
0000
0031
0020
0000
0000
0031
0020
0000
0000
0031
0020
0000
0000
0031
,
1000
0000
0010
0100
0010
0000
1000
0000
0000
0000
0100
0000
0010
0000
0001
0000
,
1000
0000
0100
0000
0010
0000
0001
0000
0100
0000
0010
1000
0010
0000
0100
0000
,
0001
0010
0001
0010
0100
0000
1000
0000
,
0010
0000
0100
0000
0001
0000
0010
0000
0100
0000
1000
0010
1000
0000
0001
0000
,
0100
0010
0100
0001
1000
0100
0010
0001
,
1000
0000
0001
0000
0010
0000
0100
0000
1000
0000
0010
1000
0010
0000
0100
0000
,
0001
0010
0001
0010
0100
1000
0001
0100
,
0010
0000
1000
0000
0001
0000
0100
0000
0001
0000
1000
0100
1000
0000
0001
0000
,
0100
0000
0010
0000
0100
0000
0010
1000
0010
0000
1000
0000
0200
0000
0000
0000
,
0000
0000
0000
0300
0000
0000
0000
0000
;
