#VERSION:0.83;
#TITLE:microwave popcorn;
#SUBTITLE:;
#ARTIST:Mr.T;
#TITLETRANSLIT:;
#SUBTITLETRANSLIT:;
#ARTISTTRANSLIT:;
#GENRE:;
#ORIGIN:;
#TAGS:;
#CREDIT:;
#BANNER:microwave popcorn.png;
#BACKGROUND:microwave popcorn-bg.png;
#PREVIEWVID:;
#JACKET:microwave popcorn-jacket.png;
#CDIMAGE:;
#DISCIMAGE:;
#LYRICSPATH:;
#CDTITLE:;
#MUSIC:microwave popcorn.ogg;
#OFFSET:2.000000;
#SAMPLESTART:47.500000;
#SAMPLELENGTH:14.500000;
#SELECTABLE:YES;
#DISPLAYBPM:120.000000;
#BPMS:0.000000=120.000000
,24.000000=240.000000
,26.000000=120.000000
,32.000000=240.000000
,34.000000=120.000000
,96.000000=240.000000
,98.000000=120.000000
,128.000000=240.000000
,132.000000=120.000000
,192.000000=240.000000
,194.000000=120.000000
;
#STOPS:24.000000=0.125000
,24.500000=0.125000
,25.000000=0.125000
,25.500000=0.125000
,32.000000=0.125000
,32.500000=0.125000
,33.000000=0.125000
,33.500000=0.125000
,96.000000=0.125000
,96.500000=0.125000
,97.000000=0.125000
,97.500000=0.125000
,128.000000=0.125000
,128.500000=0.125000
,129.000000=0.125000
,129.500000=0.125000
,130.000000=0.125000
,130.500000=0.125000
,131.000000=0.125000
,131.500000=0.125000
,192.000000=0.125000
,192.500000=0.125000
,193.000000=0.125000
,193.500000=0.125000
;
#DELAYS:;
#WARPS:;
#TIMESIGNATURES:0.000000=4=4
;
#TICKCOUNTS:0.000000=4
;
#COMBOS:0.000000=1
;
#SPEEDS:0.000000=1.000000=0.000000=0
;
#SCROLLS:0.000000=1.000000
;
#FAKES:;
#LABELS:0.000000=Song Start
;
#BGCHANGES:;
#KEYSOUNDS:;
#ATTACKS:
;

//---------------dance-single - OrangeRight----------------
#NOTEDATA:;
#CHARTNAME:OrangeRight;
#CHARTHASH:2147483647;
#STEPSTYPE:dance-single;
#BANNER:;
#DESCRIPTION:OrangeRight;
#CHARTSTYLE:;
#DIFFICULTY:Beginner;
#METER:3;
#METERF:0.000000;
#LASTSECONDHINT:117.500000;
#RADARVALUES:0.145252,0.200832,0.025209,0.058821,0.000000,121.000000,118.000000,3.000000,7.000000,0.000000,0.000000,0.000000,0.000000,0.000000,0.145252,0.200832,0.025209,0.058821,0.000000,121.000000,118.000000,3.000000,7.000000,0.000000,0.000000,0.000000,0.000000,0.000000;
#CREDIT:OrangeRight;
#OFFSET:2.000000;
#BPMS:0.000000=120.000000
,24.000000=240.000000
,26.000000=120.000000
,32.000000=240.000000
,34.000000=120.000000
,96.000000=240.000000
,98.000000=120.000000
,128.000000=240.000000
,132.000000=120.000000
,192.000000=240.000000
,194.000000=120.000000
;
#STOPS:24.000000=0.125000
,24.500000=0.125000
,25.000000=0.125000
,25.500000=0.125000
,32.000000=0.125000
,32.500000=0.125000
,33.000000=0.125000
,33.500000=0.125000
,96.000000=0.125000
,96.500000=0.125000
,97.000000=0.125000
,97.500000=0.125000
,128.000000=0.125000
,128.500000=0.125000
,129.000000=0.125000
,129.500000=0.125000
,130.000000=0.125000
,130.500000=0.125000
,131.000000=0.125000
,131.500000=0.125000
,192.000000=0.125000
,192.500000=0.125000
,193.000000=0.125000
,193.500000=0.125000
;
#DELAYS:;
#WARPS:;
#TIMESIGNATURES:0.000000=4=4
;
#TICKCOUNTS:0.000000=4
;
#COMBOS:0.000000=1
;
#SPEEDS:0.000000=1.000000=0.000000=0
;
#SCROLLS:0.000000=1.000000
;
#FAKES:;
#LABELS:0.000000=Song Start
;
#DISPLAYBPM:120.000000;
#NOTES:
0000
0000
0000
0000
,
0000
0000
0000
0000
,
0000
0000
0000
0000
,
1000
0000
1000
0000
,
1000
0000
1000
0000
,
0001
0000
0001
0000
,
0001
0000
1000
0000
,
0100
0000
0100
0000
,
1000
0000
0001
0000
,
1000
0000
0010
0000
,
1000
0001
1000
0000
,
0001
0000
0010
0000
,
0001
1000
0001
0000
,
1000
1000
0100
0000
,
0100
0100
0010
0000
,
0010
0010
0001
0000
,
1000
0001
1000
0001
,
1000
0000
0100
0100
,
1000
0000
0001
0000
,
0100
0000
0010
0000
,
1000
0000
1000
0000
,
0001
0000
0001
0000
,
1000
0000
1000
0000
,
0001
0000
1000
0000
,
1001
0000
0000
0000
,
1000
0000
0100
0000
,
0010
0000
0100
0000
,
1000
0000
0001
0000
,
0100
0000
0100
0000
,
0001
0000
0001
0000
,
1000
0000
1000
0000
,
0010
0000
0100
0100
,
0001
0000
1000
0000
,
0002
0003
0000
0000
,
2000
3000
0000
0000
,
0020
0030
0000
0000
,
0200
0300
0000
0000
,
0002
0003
0000
0000
,
0020
0030
0000
0000
,
0200
0300
0000
0000
,
1000
0001
1000
0001
,
1000
0000
0100
0000
,
0010
0000
0010
0000
,
0001
0000
0100
0000
,
0010
0000
0010
0000
,
1000
0000
0001
0000
,
0010
0000
0010
0000
,
0001
0000
1000
0000
,
1001
0000
0000
0000
,
0001
0000
0100
0000
,
0010
0000
0100
0000
,
0001
0000
1000
0000
,
0100
0000
0100
0000
,
1000
0000
1000
0000
,
0001
0000
0001
0000
,
0100
0000
0010
0000
,
1000
0000
0001
0000
,
0010
0000
0100
0100
,
1000
0000
0010
0000
,
0100
0000
0001
1001
;

//---------------dance-single - OrangeRight----------------
#NOTEDATA:;
#CHARTNAME:OrangeRight;
#CHARTHASH:2076171427;
#STEPSTYPE:dance-single;
#BANNER:;
#DESCRIPTION:OrangeRight;
#CHARTSTYLE:;
#DIFFICULTY:Easy;
#METER:5;
#METERF:0.000000;
#LASTSECONDHINT:117.500000;
#RADARVALUES:0.225681,0.251040,0.042015,0.344523,0.000000,188.000000,183.000000,5.000000,41.000000,0.000000,0.000000,0.000000,0.000000,0.000000,0.225681,0.251040,0.042015,0.344523,0.000000,188.000000,183.000000,5.000000,41.000000,0.000000,0.000000,0.000000,0.000000,0.000000;
#CREDIT:OrangeRight;
#OFFSET:2.000000;
#BPMS:0.000000=120.000000
,24.000000=240.000000
,26.000000=120.000000
,32.000000=240.000000
,34.000000=120.000000
,96.000000=240.000000
,98.000000=120.000000
,128.000000=240.000000
,132.000000=120.000000
,192.000000=240.000000
,194.000000=120.000000
;
#STOPS:24.000000=0.125000
,24.500000=0.125000
,25.000000=0.125000
,25.500000=0.125000
,32.000000=0.125000
,32.500000=0.125000
,33.000000=0.125000
,33.500000=0.125000
,96.000000=0.125000
,96.500000=0.125000
,97.000000=0.125000
,97.500000=0.125000
,128.000000=0.125000
,128.500000=0.125000
,129.000000=0.125000
,129.500000=0.125000
,130.000000=0.125000
,130.500000=0.125000
,131.000000=0.125000
,131.500000=0.125000
,192.000000=0.125000
,192.500000=0.125000
,193.000000=0.125000
,193.500000=0.125000
;
#DELAYS:;
#WARPS:;
#TIMESIGNATURES:0.000000=4=4
;
#TICKCOUNTS:0.000000=4
;
#COMBOS:0.000000=1
;
#SPEEDS:0.000000=1.000000=0.000000=0
;
#SCROLLS:0.000000=1.000000
;
#FAKES:;
#LABELS:0.000000=Song Start
;
#DISPLAYBPM:120.000000;
#NOTES:
0000
0000
0000
0000
,
0000
0000
0000
0000
,
0000
0000
0000
0000
,
2000
3000
0001
0100
,
0002
0003
1000
0100
,
2000
3000
0010
0100
,
0002
0000
0003
0000
,
1000
0100
0010
0001
,
2000
0000
3000
0000
,
0001
0100
0010
1000
,
0100
0010
0200
0300
,
1000
0100
0010
0001
,
0100
0001
0020
0030
,
0010
0100
1000
0001
,
1000
0010
0200
0300
,
0001
0010
0100
1000
,
0001
0001
0001
0001
,
1000
0100
0020
0030
,
0001
0100
0020
0030
,
1000
0100
0010
0001
,
0200
0000
0300
0000
,
0001
0010
0002
0003
,
1000
0010
2000
3000
,
0001
0010
0100
1000
,
0002
0000
0003
1001
,
1000
0010
0100
0001
,
1000
0100
0020
0030
,
0001
0100
1000
0100
,
0001
1000
1000
0001
,
1000
0100
0010
0001
,
0100
0010
2000
3000
,
0001
1000
0001
0001
,
2000
0000
3000
0000
,
2000
3000
0002
0003
,
0100
0010
0200
0300
,
0002
0003
2000
3000
,
0100
0010
0200
0300
,
2000
3000
0002
0003
,
0100
0001
0200
0300
,
0002
0003
2000
3000
,
1001
0000
1001
0000
,
1000
0100
0010
0001
,
0200
0320
0230
0300
,
0001
0100
0010
1000
,
0200
0320
0230
0300
,
1000
0001
0100
0010
,
2000
3002
2003
3002
,
1003
0100
0010
0001
,
2000
0000
3000
1001
,
0001
0010
0100
1000
,
0001
0100
0020
0030
,
1000
0100
0001
0100
,
1000
0001
0001
1000
,
0001
0100
0010
1000
,
0100
0010
0002
0003
,
1000
0001
1000
0001
,
1000
0100
0010
0001
,
0100
0010
1000
1000
,
0001
0010
0100
1000
,
0001
1000
0001
1001
;

//---------------dance-single - OrangeRight----------------
#NOTEDATA:;
#CHARTNAME:OrangeRight;
#CHARTHASH:738588877;
#STEPSTYPE:dance-single;
#BANNER:;
#DESCRIPTION:OrangeRight;
#CHARTSTYLE:;
#DIFFICULTY:Medium;
#METER:7;
#METERF:0.000000;
#LASTSECONDHINT:117.500000;
#RADARVALUES:0.343323,0.351456,0.067224,0.344523,0.000000,286.000000,278.000000,8.000000,41.000000,0.000000,0.000000,0.000000,0.000000,0.000000,0.343323,0.351456,0.067224,0.344523,0.000000,286.000000,278.000000,8.000000,41.000000,0.000000,0.000000,0.000000,0.000000,0.000000;
#CREDIT:OrangeRight;
#OFFSET:2.000000;
#BPMS:0.000000=120.000000
,24.000000=240.000000
,26.000000=120.000000
,32.000000=240.000000
,34.000000=120.000000
,96.000000=240.000000
,98.000000=120.000000
,128.000000=240.000000
,132.000000=120.000000
,192.000000=240.000000
,194.000000=120.000000
;
#STOPS:24.000000=0.125000
,24.500000=0.125000
,25.000000=0.125000
,25.500000=0.125000
,32.000000=0.125000
,32.500000=0.125000
,33.000000=0.125000
,33.500000=0.125000
,96.000000=0.125000
,96.500000=0.125000
,97.000000=0.125000
,97.500000=0.125000
,128.000000=0.125000
,128.500000=0.125000
,129.000000=0.125000
,129.500000=0.125000
,130.000000=0.125000
,130.500000=0.125000
,131.000000=0.125000
,131.500000=0.125000
,192.000000=0.125000
,192.500000=0.125000
,193.000000=0.125000
,193.500000=0.125000
;
#DELAYS:;
#WARPS:;
#TIMESIGNATURES:0.000000=4=4
;
#TICKCOUNTS:0.000000=4
;
#COMBOS:0.000000=1
;
#SPEEDS:0.000000=1.000000=0.000000=0
;
#SCROLLS:0.000000=1.000000
;
#FAKES:;
#LABELS:0.000000=Song Start
;
#DISPLAYBPM:120.000000;
#NOTES:
0000
0000
0000
0000
,
0000
0000
0000
0000
,
0000
0000
0000
0000
,
1000
1000
1000
0000
0010
0000
0100
0000
,
0001
0001
0001
0000
0010
0000
0100
0000
,
1000
1000
1000
0000
0001
0000
1000
0000
,
0001
1000
0001
1000
0001
0000
1001
0000
,
1000
0100
0010
0001
,
0100
0010
0100
0010
0100
0000
0010
0000
,
1000
0100
1000
0100
1000
0000
0001
0000
,
0100
0000
0010
1000
0002
0000
0003
0000
,
0001
0100
0001
0100
0001
0000
1000
0000
,
0100
0000
0010
0001
0200
0000
0300
0000
,
0010
1000
0010
0000
0100
0001
0100
0000
,
0001
0010
0001
0000
2000
0000
3000
0000
,
0010
0100
0010
0000
1000
0001
1000
0000
,
1001
0000
1001
0000
,
1000
0001
1000
0001
0200
0000
0300
0000
,
0001
1000
0001
1000
0200
0000
0300
0000
,
1000
0001
1000
0001
0100
0000
0010
0000
,
2000
0001
0000
3001
,
1000
0100
1000
0100
0020
0000
0030
0000
,
0001
0100
0001
0100
0020
0000
0030
0000
,
1000
0001
1000
0001
0100
0000
0010
0000
,
1000
0001
1000
0001
1000
0000
1001
0000
,
1000
0010
1000
0000
0200
0000
0320
0000
,
0031
1000
0001
0000
0200
0000
0300
0000
,
0001
0010
0001
0000
0200
0000
0320
0000
,
1030
0001
1000
0001
2000
0000
3000
0000
,
0001
0010
0001
0000
1000
0010
1000
0000
,
0010
0100
0001
0100
0020
0000
0030
0000
,
1000
0100
0010
0001
1000
0000
0001
0000
,
1000
0001
1000
0001
1000
0000
0000
0000
,
1000
0100
0001
0100
,
2000
3002
2003
3000
,
0001
0100
1000
0100
,
0002
2003
3002
0003
,
1000
0010
0001
0010
,
2000
3002
0203
0300
,
0001
0010
0100
1000
,
1001
0000
1001
0000
,
1000
0010
1000
0000
0001
0010
0001
0000
,
2000
3020
0230
0300
,
0001
0100
0001
0000
1000
0100
1000
0000
,
0002
0023
0230
0300
,
1000
0100
0010
0000
0001
0100
0010
0000
,
2000
3002
2003
3002
,
1003
0010
0100
0000
0001
0010
0100
0000
,
1000
0001
1000
0001
1000
0000
1001
0000
,
0001
0010
0001
0000
0200
0000
0320
0000
,
1030
0001
1000
0000
0200
0000
0300
0000
,
1000
0010
1000
0000
0200
0000
0320
0000
,
0031
1000
0001
1000
0002
0000
0003
0000
,
1000
0010
1000
0000
0001
0010
0001
0000
,
0010
0100
1000
0100
0020
0000
0030
0000
,
0001
0100
0010
1000
0001
0000
1000
0000
,
0001
0010
0001
1000
0001
0100
0001
0000
,
1000
0100
0010
0001
1000
0000
0001
0000
,
1000
0100
1000
0001
0100
0001
1000
0000
,
0001
1000
0001
1001
;

//---------------dance-single - OrangeRight----------------
#NOTEDATA:;
#CHARTNAME:OrangeRight;
#CHARTHASH:708165386;
#STEPSTYPE:dance-single;
#BANNER:;
#DESCRIPTION:OrangeRight;
#CHARTSTYLE:;
#DIFFICULTY:Hard;
#METER:12;
#METERF:0.000000;
#LASTSECONDHINT:117.500000;
#RADARVALUES:0.517385,0.527184,0.327717,0.285702,0.147053,431.000000,392.000000,39.000000,34.000000,0.000000,0.000000,0.000000,0.000000,0.000000,0.517385,0.527184,0.327717,0.285702,0.147053,431.000000,392.000000,39.000000,34.000000,0.000000,0.000000,0.000000,0.000000,0.000000;
#CREDIT:OrangeRight;
#OFFSET:2.000000;
#BPMS:0.000000=120.000000
,24.000000=240.000000
,26.000000=120.000000
,32.000000=240.000000
,34.000000=120.000000
,96.000000=240.000000
,98.000000=120.000000
,128.000000=240.000000
,132.000000=120.000000
,192.000000=240.000000
,194.000000=120.000000
;
#STOPS:24.000000=0.125000
,24.500000=0.125000
,25.000000=0.125000
,25.500000=0.125000
,32.000000=0.125000
,32.500000=0.125000
,33.000000=0.125000
,33.500000=0.125000
,96.000000=0.125000
,96.500000=0.125000
,97.000000=0.125000
,97.500000=0.125000
,128.000000=0.125000
,128.500000=0.125000
,129.000000=0.125000
,129.500000=0.125000
,130.000000=0.125000
,130.500000=0.125000
,131.000000=0.125000
,131.500000=0.125000
,192.000000=0.125000
,192.500000=0.125000
,193.000000=0.125000
,193.500000=0.125000
;
#DELAYS:;
#WARPS:;
#TIMESIGNATURES:0.000000=4=4
;
#TICKCOUNTS:0.000000=4
;
#COMBOS:0.000000=1
;
#SPEEDS:0.000000=1.000000=0.000000=0
,130.000000=0.800000=2.000000=0
,160.000000=1.000000=4.000000=0
;
#SCROLLS:0.000000=1.000000
;
#FAKES:;
#LABELS:0.000000=Song Start
;
#ATTACKS: TIME=29.994141:LEN=1.500000:MODS=*100 25% Beat: TIME=30.244141:LEN=1.000000:MODS=*100 100% BeatOffset: TIME=31.244141:LEN=5.000000:MODS=*100 0 BeatOffset: TIME=45.994141:LEN=0.050000:MODS=*100 -20% Tiny: TIME=46.244141:LEN=0.050000:MODS=*100 -20% Tiny: TIME=46.494141:LEN=0.050000:MODS=*100 -20% Tiny: TIME=46.744141:LEN=0.050000:MODS=*100 -20% Tiny: TIME=46.994141:LEN=0.330000:MODS=*100 -20% Tiny: TIME=60.994141:LEN=0.750000:MODS=*100 50% Beat: TIME=61.744141:LEN=0.250000:MODS=*100 No Beat: TIME=61.994141:LEN=0.050000:MODS=*100 -20% Tiny: TIME=62.244141:LEN=0.050000:MODS=*100 -20% Tiny: TIME=62.494141:LEN=0.050000:MODS=*100 -20% Tiny: TIME=62.744141:LEN=0.050000:MODS=*100 -20% Tiny: TIME=62.994141:LEN=0.750000:MODS=*100 -20% Tiny: TIME=63.244141:LEN=0.050000:MODS=*20 22% Flip: TIME=63.494141:LEN=0.050000:MODS=*20 22% Flip: TIME=63.744141:LEN=0.050000:MODS=*20 22% Flip: TIME=63.994141:LEN=14.000000:MODS=15% Drunk, 10% Tiny: TIME=77.994141:LEN=1.750000:MODS=*0.25 No Tiny,*0.25 No Drunk,*100 -20% Beat: TIME=81.994141:LEN=1.250000:MODS=20% Zigzag: TIME=85.994141:LEN=1.250000:MODS=-20% Zigzag: TIME=89.994141:LEN=1.500000:MODS=20% Zigzag: TIME=95.994141:LEN=17.000000:MODS=20% Beat: TIME=112.994141:LEN=0.500000:MODS=*100 -100% Beat: TIME=113.744141:LEN=0.050000:MODS=*100 0% Beat: TIME=47.994141:LEN=12.500000:MODS=-20% Beat: TIME=13.994141:LEN=0.050000:MODS=*100 -20% Tiny: TIME=14.244141:LEN=0.050000:MODS=*100 -20% Tiny: TIME=14.494141:LEN=0.050000:MODS=*100 -20% Tiny: TIME=14.744141:LEN=0.050000:MODS=*100 -20% Tiny: TIME=14.994141:LEN=0.050000:MODS=*100 -20% Tiny: TIME=18.910807:LEN=1.000000:MODS=*100 20% ZigZag: TIME=22.910807:LEN=1.000000:MODS=*100 15% ZigZag: TIME=17.994141:LEN=5.000000:MODS=15% ZigZagPeriod: TIME=26.910809:LEN=1.000000:MODS=*100 20% ZigZag: TIME=93.994141:LEN=0.050000:MODS=*100 -20% Tiny: TIME=94.244141:LEN=0.050000:MODS=*100 -20% Tiny: TIME=94.494141:LEN=0.050000:MODS=*100 -20% Tiny: TIME=94.744141:LEN=0.050000:MODS=*100 -20% Tiny: TIME=94.994141:LEN=0.050000:MODS=*100 -20% Tiny: TIME=113.994141:LEN=5.000000:MODS=*100 -50% Beat: TIME=116.744141:LEN=5.000000:MODS=*100 100% BeatOffset: TIME=9.994141:LEN=0.050000:MODS=*100 -20% Tiny: TIME=10.244141:LEN=0.050000:MODS=*100 -20% Tiny: TIME=10.494141:LEN=0.050000:MODS=*100 -20% Tiny: TIME=10.744141:LEN=0.050000:MODS=*100 -20% Tiny: TIME=10.994141:LEN=0.050000:MODS=*100 -20% Tiny: TIME=115.994141:LEN=0.500000:MODS=*100 -10% Tiny: TIME=116.494141:LEN=0.500000:MODS=*100 -20% Tiny: TIME=116.994141:LEN=0.500000:MODS=*100 -30% Tiny: TIME=-2.005859:LEN=2.000000:MODS=*100 80% Dark1, *100 Tiny1,*100 50% ConfusionOffset1: TIME=-2.005859:LEN=2.250000:MODS=*100 80% Dark2, *100 90% Tiny2,*100 23% ConfusionOffset2: TIME=-2.005859:LEN=2.500000:MODS=*100 90% Dark3, *100 90% Tiny3,*100 -89% ConfusionOffset3: TIME=-2.005859:LEN=2.700000:MODS=*100 90% Dark4, *100 90% Tiny4,*100 22% ConfusionOffset4: TIME=-0.005859:LEN=1.000000:MODS=*6 No Tiny1,*6 No Dark1,*6 0% ConfusionOffset1: TIME=0.244141:LEN=1.000000:MODS=*6 No Tiny2, *6 No Dark2, *6 No ConfusionOffset2: TIME=0.494141:LEN=1.000000:MODS=*6 No Tiny3, *6 No Dark3, *6 No ConfusionOffset3: TIME=0.660808:LEN=1.000000:MODS=*6 No Dark4, *6 No Tiny4, *6 No ConfusionOffset4: TIME=117.494141:LEN=0.050000:MODS=*100 -50% Tiny:
;
#DISPLAYBPM:120.000000;
#NOTES:
// measure 0
0000
0000
0000
0000
,  // measure 1
0000
0000
0000
0000
,  // measure 2
0000
0000
0000
0000
,  // measure 3
1000
1000
0001
0000
0001
0100
0010
1000
,  // measure 4
0001
1000
1000
0000
1000
0100
0010
0001
,  // measure 5
1000
0001
0001
0000
0001
0100
0010
1000
,  // measure 6
0001
0001
1000
1000
1001
0000
0110
0000
,  // measure 7
0010
1000
0100
0010
0001
0100
0010
0000
,  // measure 8
0100
0100
0010
0010
0110
0000
1001
0000
,  // measure 9
1000
0000
0010
1000
0000
0000
0001
0000
0000
0010
0000
0000
0001
0000
0000
1000
0000
0000
0001
0000
0000
0100
0000
0000
,  // measure 10
0010
1000
0001
0010
0002
0000
1003
0000
,  // measure 11
0001
0000
0010
0001
0000
0000
1000
0000
0000
0010
0000
0000
0100
0000
0000
0001
0000
0000
0010
0000
0000
0100
0000
0000
,  // measure 12
1000
0010
1000
0001
0200
0000
0310
0000
,  // measure 13
0010
0000
1000
0010
0000
0000
0100
0000
0000
0000
0000
0001
0000
0000
0000
0010
0000
0000
0100
0000
0000
1000
0000
0000
,  // measure 14
0001
0000
0010
0001
0000
0000
1000
0000
0000
0010
0000
0000
0200
0000
0000
0000
0000
0000
0301
0000
0000
0000
0000
0000
,  // measure 15
0001
0000
0010
0001
0000
0000
1000
0000
0000
0000
0000
0010
0000
0000
0000
0100
0000
0000
0001
0000
0000
1000
0000
0000
,  // measure 16
1001
0011
0110
1100
,  // measure 17
1000
0000
0001
1000
0000
0000
0010
0000
0000
0100
0000
0000
0101
0000
0000
0000
0000
0000
1010
0000
0000
0000
0000
0000
,  // measure 18
1000
0000
0001
1000
0000
0000
0100
0000
0000
0010
0000
0000
0011
0000
0000
0000
0000
0000
0001
0000
0000
1000
0000
0000
,  // measure 19
0001
0000
0010
0001
0000
0000
1000
0000
0000
0001
0000
0000
1000
0000
0010
1000
0000
0000
0001
0000
0000
1000
0000
0000
,  // measure 20
0002
0023
0230
2300
,  // measure 21
3001
0000
0100
0001
0000
0000
0100
0000
0000
0010
0000
0000
2000
0000
0000
0000
0000
0000
3100
0000
0000
0000
0000
0000
,  // measure 22
1000
0000
0010
1000
0000
0000
0100
0000
0000
0010
0000
0000
0002
0000
0000
0000
0000
0000
0103
0000
0000
0001
0000
0000
,  // measure 23
0010
0010
0100
0100
1000
0010
0100
0001
,  // measure 24
1000
1000
0001
0001
1001
0000
1010
0000
,  // measure 25
0010
0000
1000
0010
0000
0000
0100
0000
0000
0001
0000
0000
2000
0000
0000
0000
0000
0000
3100
0000
0000
0000
0000
0000
,  // measure 26
0100
0000
1000
0100
0000
0000
0010
0000
0000
0001
0000
0000
0200
0000
0000
0000
0000
0000
0301
0000
0000
1000
0000
0000
,  // measure 27
0100
0000
0010
0100
0000
0000
1000
0000
0000
0010
0000
0000
0200
0000
0000
0000
0000
0000
0302
0000
0000
0000
0000
0000
,  // measure 28
1003
0100
0010
0100
0001
0100
1000
0000
,  // measure 29
0001
0000
0010
0001
0000
0000
1000
0000
0000
0000
0000
0000
1000
0000
0010
1000
0000
0000
0001
0000
0000
0000
0000
0000
,  // measure 30
0001
0000
0100
0001
0000
0000
1000
0000
0000
0100
0000
0000
0020
0000
0000
0000
0000
0000
0031
0000
0000
0000
0000
0000
,  // measure 31
0001
0000
0100
0001
0000
0000
1000
0000
0000
0100
0000
0000
1100
0000
0000
0000
0000
0000
0011
0000
0000
0000
0000
0000
,  // measure 32
0001
0001
1000
1000
2002
0000
0000
3003
,  // measure 33
1000
0100
1000
0001
0100
0001
0010
0100
,  // measure 34
2000
3020
2030
3000
,  // measure 35
0001
0100
0001
1000
0100
1000
0010
0100
,  // measure 36
0002
0023
0032
0003
,  // measure 37
1000
0010
1000
0001
0010
1000
0010
0001
,  // measure 38
0200
0000
0320
0000
2030
0000
3001
0010
,  // measure 39
1000
0010
0001
0100
0010
1000
0100
0010
,  // measure 40
0011
0101
1100
1010
,  // measure 41
1000
0000
0010
1000
0000
0000
0001
0000
0000
0010
0000
0000
0001
0000
0000
1000
0000
0000
0010
0000
0000
1000
0000
0000
,  // measure 42
1100
0011
2002
3003
,  // measure 43
0001
0000
0010
0001
0000
0000
1000
0000
0000
0010
0000
0000
1000
0000
0000
0001
0000
0000
0010
0000
0000
0001
0000
0000
,  // measure 44
0101
1010
2002
3003
,  // measure 45
1000
0000
0100
0010
0000
0000
0001
0000
0000
1000
0000
0000
0010
0000
0000
0100
0000
0000
0001
0000
0000
0010
0000
0000
,  // measure 46
0110
1001
0110
1001
,  // measure 47
0001
0000
0100
0010
0000
0000
1000
0000
0000
0001
0000
0010
0100
0000
0000
1000
0000
0000
0010
0000
0000
0100
0000
0000
,  // measure 48
0001
0001
1000
1000
1001
0000
0011
0000
,  // measure 49
0010
0000
0001
0010
0000
0000
0001
0000
0000
1000
0000
0000
0020
0000
0000
0000
0000
0000
0130
0000
0000
0000
0000
0000
,  // measure 50
0100
0000
0001
0100
0000
0000
0010
0000
0000
1000
0000
0000
0002
0000
0000
0000
0000
0000
1003
0000
0000
0001
0000
0000
,  // measure 51
0010
0000
0100
0010
0000
0000
0001
0000
0000
0100
0000
0000
0020
0000
0000
0000
0000
0000
2030
0000
0000
0000
0000
0000
,  // measure 52
3001
0010
0100
0010
1000
0010
0001
0000
,  // measure 53
1000
0000
0010
1000
0000
0000
0001
0000
0000
0000
0000
0000
0001
0000
0010
0001
0000
0000
1000
0000
0000
0000
0000
0000
,  // measure 54
1000
0000
0100
0010
0000
0000
0001
0000
0000
0100
0000
0000
0020
0000
0000
0000
0000
0000
0130
0000
0000
0000
0000
0000
,  // measure 55
0100
0000
0001
0100
0000
0000
0010
0000
0000
1000
0000
0000
1100
0000
0000
0000
0000
0000
0011
0000
0000
0000
0000
0000
,  // measure 56
0010
0001
1000
0001
0100
0010
1000
0100
,  // measure 57
1000
0000
0010
1000
0000
0000
0001
0000
0000
0100
0000
0000
0101
0000
0000
0000
0000
0000
1010
0000
0000
0000
0000
0000
,  // measure 58
1000
0000
0001
1000
0000
0000
0010
0000
0000
0100
0000
0010
0100
0000
0000
0001
0000
0000
1000
0000
0000
0100
0000
0000
,  // measure 59
1100
0000
0011
0000
0100
0010
1001
0000
;

//---------------dance-single - OrangeRight----------------
#NOTEDATA:;
#CHARTNAME:OrangeRight;
#CHARTHASH:1843479085;
#STEPSTYPE:dance-single;
#BANNER:;
#DESCRIPTION:OrangeRight;
#CHARTSTYLE:;
#DIFFICULTY:Challenge;
#METER:14;
#METERF:0.000000;
#LASTSECONDHINT:117.500000;
#RADARVALUES:0.678243,0.753120,0.369732,0.294105,0.609218,565.000000,521.000000,44.000000,35.000000,21.000000,0.000000,0.000000,0.000000,0.000000,0.678243,0.753120,0.369732,0.294105,0.609218,565.000000,521.000000,44.000000,35.000000,21.000000,0.000000,0.000000,0.000000,0.000000;
#CREDIT:OrangeRight;
#OFFSET:2.000000;
#BPMS:0.000000=120.000000
,24.000000=240.000000
,26.000000=120.000000
,32.000000=240.000000
,34.000000=120.000000
,96.000000=240.000000
,98.000000=120.000000
,128.000000=240.000000
,132.000000=120.000000
,192.000000=240.000000
,194.000000=120.000000
;
#STOPS:24.000000=0.125000
,24.500000=0.125000
,25.000000=0.125000
,25.500000=0.125000
,32.000000=0.125000
,32.500000=0.125000
,33.000000=0.125000
,33.500000=0.125000
,96.000000=0.125000
,96.500000=0.125000
,97.000000=0.125000
,97.500000=0.125000
,128.000000=0.125000
,128.500000=0.125000
,129.000000=0.125000
,129.500000=0.125000
,130.000000=0.125000
,130.500000=0.125000
,131.000000=0.125000
,131.500000=0.125000
,192.000000=0.125000
,192.500000=0.125000
,193.000000=0.125000
,193.500000=0.125000
;
#DELAYS:;
#WARPS:;
#TIMESIGNATURES:0.000000=4=4
;
#TICKCOUNTS:0.000000=4
;
#COMBOS:0.000000=1
;
#SPEEDS:0.000000=1.000000=0.000000=0
,130.000000=0.800000=2.000000=0
,160.000000=1.000000=4.000000=0
;
#SCROLLS:0.000000=1.000000
;
#FAKES:;
#LABELS:0.000000=Song Start
;
#ATTACKS: TIME=29.994141: LEN=1.500000: MODS=*100 50% Beat: TIME=30.244141: LEN=1.000000: MODS=*100 100% BeatOffset: TIME=31.244141: LEN=5.000000: MODS=*100 0 BeatOffset: TIME=45.994141: LEN=0.050000: MODS=*100 -20% Tiny: TIME=46.244141: LEN=0.050000: MODS=*100 -20% Tiny: TIME=46.494141: LEN=0.050000: MODS=*100 -20% Tiny: TIME=46.744141: LEN=0.050000: MODS=*100 -20% Tiny: TIME=46.994141: LEN=0.330000: MODS=*100 -20% Tiny: TIME=60.994141: LEN=0.750000: MODS=*100 Beat: TIME=61.744141: LEN=0.250000: MODS=*100 No Beat: TIME=61.994141: LEN=0.050000: MODS=*100 -20% Tiny: TIME=62.244141: LEN=0.050000: MODS=*100 -20% Tiny: TIME=62.494141: LEN=0.050000: MODS=*100 -20% Tiny: TIME=62.744141: LEN=0.050000: MODS=*100 -20% Tiny: TIME=62.994141: LEN=0.750000: MODS=*100 -20% Tiny: TIME=63.244141: LEN=0.050000: MODS=*20 22% Flip: TIME=63.494141: LEN=0.050000: MODS=*20 22% Flip: TIME=63.744141: LEN=0.050000: MODS=*20 22% Flip: TIME=63.994141: LEN=14.000000: MODS=30% Drunk, 20% Tiny: TIME=77.994141: LEN=1.600000: MODS=*0.25 No Tiny,*0.25 No Drunk,*100 40% Beat: TIME=81.994141: LEN=1.250000: MODS=20% Zigzag: TIME=85.994141: LEN=1.250000: MODS=-20% Zigzag: TIME=89.994141: LEN=1.500000: MODS=20% Zigzag: TIME=95.994141: LEN=17.000000: MODS=40% Beat: TIME=112.994141: LEN=0.500000: MODS=*100 -100% Beat: TIME=113.744141: LEN=0.050000: MODS=*100 0% Beat: TIME=47.994141: LEN=12.500000: MODS=-40% Beat: TIME=13.994141: LEN=0.050000: MODS=*100 -20% Tiny: TIME=14.244141: LEN=0.050000: MODS=*100 -20% Tiny: TIME=14.494141: LEN=0.050000: MODS=*100 -20% Tiny: TIME=14.744141: LEN=0.050000: MODS=*100 -20% Tiny: TIME=14.994141: LEN=0.050000: MODS=*100 -20% Tiny: TIME=18.910807: LEN=1.000000: MODS=*100 20% ZigZag: TIME=22.910807: LEN=1.000000: MODS=*100 15% ZigZag: TIME=17.994141: LEN=5.000000: MODS=15% ZigZagPeriod: TIME=26.910809: LEN=1.000000: MODS=*100 20% ZigZag: TIME=93.994141: LEN=0.050000: MODS=*100 -20% Tiny: TIME=94.244141: LEN=0.050000: MODS=*100 -20% Tiny: TIME=94.494141: LEN=0.050000: MODS=*100 -20% Tiny: TIME=94.744141: LEN=0.050000: MODS=*100 -20% Tiny: TIME=94.994141: LEN=0.050000: MODS=*100 -20% Tiny: TIME=113.994141: LEN=5.000000: MODS=*100 50% Beat: TIME=116.744141: LEN=5.000000: MODS=*100 100% BeatOffset: TIME=9.994141: LEN=0.050000: MODS=*100 -20% Tiny: TIME=10.244141: LEN=0.050000: MODS=*100 -20% Tiny: TIME=10.494141: LEN=0.050000: MODS=*100 -20% Tiny: TIME=10.744141: LEN=0.050000: MODS=*100 -20% Tiny: TIME=10.994141: LEN=0.050000: MODS=*100 -20% Tiny: TIME=115.994141: LEN=0.500000: MODS=*100 -10% Tiny: TIME=116.494141: LEN=0.500000: MODS=*100 -20% Tiny: TIME=116.994141: LEN=0.500000: MODS=*100 -30% Tiny: TIME=15.494141: LEN=0.050000: MODS=*100 20% Tiny: TIME=-2.005859: LEN=2.000000: MODS=*100 80% Dark1, *100 Tiny1,*100 50% ConfusionOffset1: TIME=-2.005859: LEN=2.250000: MODS=*100 80% Dark2, *100 90% Tiny2,*100 23% ConfusionOffset2: TIME=-2.005859: LEN=2.500000: MODS=*100 90% Dark3, *100 90% Tiny3,*100 -89% ConfusionOffset3: TIME=-2.005859: LEN=2.700000: MODS=*100 90% Dark4, *100 90% Tiny4,*100 22% ConfusionOffset4: TIME=-0.005859: LEN=1.000000: MODS=*6 No Tiny1,*6 No Dark1,*6 0% ConfusionOffset1: TIME=0.244141: LEN=1.000000: MODS=*6 No Tiny2, *6 No Dark2, *6 No ConfusionOffset2: TIME=0.494141: LEN=1.000000: MODS=*6 No Tiny3, *6 No Dark3, *6 No ConfusionOffset3: TIME=0.660808: LEN=1.000000: MODS=*6 No Dark4, *6 No Tiny4, *6 No ConfusionOffset4: TIME=117.494141: LEN=0.050000: MODS=*100 -50% Tiny: TIME=45.994141: LEN=1.000000: MODS=*100 60% Beat, *100 BeatMult: TIME=93.994141: LEN=1.000000: MODS=*100 60% Beat, *100 BeatMult:
;
#DISPLAYBPM:120.000000;
#NOTES:
0000
0000
0000
0000
,
0000
0000
0000
0000
,
0000
0000
0000
0000
,
1000
0000
0000
0000
0100
0000
1000
0000
0000
0000
0100
0000
1000
0000
0000
0000
0001
0000
0000
0000
0000
0000
0000
0000
0001
0000
0000
0000
0000
0000
0100
0000
0000
00M0
0000
0000
0100
0000
0000
0000
0000
0000
1000
0000
0000
0000
0000
0000
,
0001
0000
0000
0000
0000
0000
0010
0000
0000
0000
0001
0000
0010
0000
0000
0000
0001
0000
0010
0000
0000
0000
0001
0000
1000
0000
0000
0000
0000
0000
0100
0000
0000
00M0
0000
0000
0100
0000
0000
0000
0000
0000
0001
0000
0000
0000
0000
0000
,
1000
0000
0000
0000
0000
0000
0010
0000
0000
0000
1000
0000
0010
0000
0000
0000
1000
0000
0010
0000
0000
0000
1000
0000
0001
0000
0000
0000
0000
0000
0010
0000
0000
0M00
0000
0000
0010
0000
0000
0000
0000
0000
1000
0000
0000
0000
0000
0000
,
1010
0000
0000
1010
0000
0000
0011
0000
0000
0011
0000
0000
1001
0000
0000
0000
0001
0100
0010
0000
0000
0000
0000
0000
,
1000
0000
0000
0000
0000
0000
0010
0000
0000
0000
0000
0000
0100
0000
0000
0000
0001
0000
0000
0000
0000
0000
0001
0000
0010
0000
0000
0M00
0000
0000
0010
0000
0000
0000
1000
0000
0000
0000
0000
0000
1000
0000
0100
0000
0000
0000
0000
0000
,
1100
1100
0101
0101
0110
0000
1001
0000
,
1000
0000
0010
1000
0000
0010
1000
0000
0010
1000
0000
0010
1000
0000
0100
0000
0000
0010
0000
0000
0001
0000
0000
0100
,
0000
0000
0001
1000
0000
0000
0100
0000
0000
0010
0000
0002
0000
0000
0000
1000
0000
0000
0000
0000
0000
0103
0000
0001
,
0000
0000
0010
0001
0000
0010
0001
0000
0010
0001
0000
0010
0001
0000
0100
0000
0000
0010
0000
0000
1000
0000
0000
0001
,
0000
0000
0010
0100
0000
0100
1000
0000
0000
0010
0000
2000
0000
0000
0000
0001
0000
0000
0000
0000
0000
3100
0000
1000
,
0000
0000
0001
0100
0000
0100
0001
0000
1000
0000
0000
0100
0000
0000
1000
0010
0000
0000
0100
0000
0000
0001
0000
0000
,
0001
0000
1000
0100
0000
0100
1000
0000
0000
0001
0000
0020
0000
0000
0000
0100
0000
0000
0000
0000
0000
0130
0000
0010
,
0000
0000
0001
0100
0000
0100
0010
0000
0000
1000
0000
0001
0000
0000
1000
0100
0000
0000
0010
0000
0000
0001
0000
0000
,
0011
0101
1100
1010
,
1000
0000
1000
0100
0000
0000
0010
0000
0000
0001
0000
0000
1000
0000
0000
0000
0010
0100
0001
0000
0000
1000
0000
0000
,
0001
0000
0001
0010
0000
0000
0100
0000
0000
1000
0000
0000
0001
0000
0000
0100
0000
0010
0000
0000
0010
1000
0000
0000
,
0001
0000
0010
0001
0000
0000
1000
0000
0000
0100
0000
0000
1000
0000
0010
1000
0000
0000
0001
0000
0000
0100
0000
0000
,
2000
0000
0000
0000
0000
0000
3200
0000
0000
0000
0000
0000
0302
0000
0000
0000
0000
0000
0013
0000
0000
0001
0000
1000
,
0010
0M00
0010
0001
0000
0000
1000
0000
0000
0001
0000
0000
0200
0000
0000
0010
0000
0000
0310
0000
0000
0100
0000
0001
,
0010
0M00
0010
1000
0000
0000
0100
0000
0000
0010
0000
0000
0002
0000
0000
1000
0000
0000
1003
0000
0000
0001
0000
1000
,
0100
0000
1000
0100
0000
1000
0001
0000
0100
0001
0000
0100
0010
0000
1000
0100
0000
0000
0010
0000
0000
0001
0000
0000
,
0011
0000
0000
0011
0000
0000
1010
0000
0000
1010
0000
0000
1001
0000
0000
0001
1000
0001
1000
0000
0000
0001
0000
1000
,
0010
0M00
0010
0001
0000
0000
1000
0000
0000
0010
0000
0000
0001
0000
0000
0010
0000
0000
1000
0000
0000
0001
0000
0000
,
0010
0000
0010
0100
0000
0000
1000
0000
0000
0010
0000
0000
2000
0000
0000
0001
0000
0000
3001
0000
0000
1000
0000
0001
,
0010
0M00
0010
1000
0000
0000
0001
0000
0000
0100
0000
0000
1000
0000
0000
0100
0000
0000
0001
0000
0000
1000
0000
0000
,
0001
0000
0000
0100
0000
0000
0010
0000
0000
1000
0000
0000
0002
0000
0000
1000
0000
0000
1003
0000
0000
0001
0000
1000
,
0100
00M0
0100
0001
0000
0000
1000
0000
0000
1000
0000
0001
0010
0M00
0010
1000
0000
0000
0001
0000
0000
1000
0000
0100
,
0010
000M
0010
1000
0000
0000
0001
0000
0000
0010
0000
0000
0012
0000
0000
0000
0000
0000
1003
0000
0000
0001
0000
0100
,
0010
0000
1000
0100
0000
0000
0010
0000
0000
0001
0000
0000
0011
0000
0000
0000
0000
0000
1010
0000
0000
0000
0000
0000
,
1001
1001
0110
0110
2002
0000
0000
3003
,
0001
0000
0010
0001
0000
0000
0100
0000
0000
0001
0000
1000
0001
0000
0000
0100
0000
0000
1000
0000
0000
0100
0000
0000
,
0002
0000
0023
0000
2030
0000
3010
0001
,
1000
0000
0010
1000
0000
0000
0100
0000
0000
1000
0000
0001
1000
0000
0000
0100
0000
0000
0001
0000
0000
0100
0000
0000
,
2000
0000
3020
0000
0032
0000
0013
1000
,
0100
0000
0010
0001
0000
0000
1000
0000
0000
0001
0000
0100
0010
0000
0000
1000
0000
0000
0001
0000
0000
0010
0000
0000
,
2000
0000
0000
0000
0000
0000
3020
0000
0000
0000
0000
0000
0032
0000
0000
0000
0000
0000
0103
0000
0000
0010
0000
1000
,
0001
0000
0001
1000
0000
0000
0010
0000
0000
0100
0000
0001
1000
0000
0000
0100
0000
0000
0010
0000
0000
0001
0000
0000
,
0011
0001
0101
0100
0110
0010
1010
1000
,
0001
0000
0000
0000
0010
0000
0100
0000
0000
M000
0000
0000
0100
0000
0000
0000
0000
0000
0001
0000
0000
0000
0010
0000
0100
0000
0000
0000
0000
0000
1000
0000
0000
0000
0000
0000
0010
0000
0000
0000
0000
0000
0100
0000
0000
0000
0000
0000
,
0002
0100
2003
0100
3002
0010
1003
0001
,
1000
0000
0000
0000
0010
0000
0100
0000
0000
000M
0000
0000
0100
0000
0000
0000
0000
0000
1000
0000
0000
0000
0010
0000
0100
0000
0000
0000
0000
0000
0001
0000
0000
0000
0000
0000
0010
0000
0000
0000
0000
0000
0100
0000
0000
0000
0000
0000
,
2000
0010
3002
0010
2003
0100
3001
1000
,
0001
0000
0000
0000
1000
0000
0010
0000
0000
0M00
0000
0000
0010
0000
0000
0000
0000
0000
0001
0000
0000
0000
1000
0000
0010
0000
0000
0000
0000
0000
0100
0000
0000
0000
0000
0000
0001
0000
0000
0000
0000
0000
1000
0000
0000
0000
0000
0000
,
0002
0010
2003
0100
3002
0100
2003
0010
,
3001
0000
0000
0000
1000
0000
0100
0000
0000
00M0
0000
0000
0100
0000
0000
0000
0000
0000
0001
0000
0000
0000
1000
0000
0100
0000
0000
0000
0000
0000
0010
0000
0000
0000
0000
0000
0001
0000
0000
0000
0000
0000
0100
0000
0000
0000
0000
0000
,
0101
0000
0000
0101
0000
0000
1100
0000
0000
1100
0000
0000
0110
0000
0000
0100
0010
0100
0010
0000
0000
0001
0000
1000
,
0010
0M00
0010
0001
0000
0000
1000
0000
0000
0010
0000
0000
0001
0000
0000
0010
0000
0000
1000
0000
0000
0001
0000
0000
,
0100
0000
0100
0010
0000
0000
1000
0000
0000
0100
0000
0000
2000
0000
0000
0001
0000
0000
3001
0000
0000
1000
0000
0001
,
0010
0M00
0010
1000
0000
0000
0010
0000
0000
0100
0000
0000
0001
0000
0000
0010
0000
0000
1000
0000
0000
0010
0000
0000
,
0001
0000
0000
0100
0000
0000
0010
0000
0000
1000
0000
0000
0002
0000
0000
1000
0000
0000
1003
0000
0000
0001
0000
1000
,
0100
00M0
0100
0001
0000
0000
1000
0000
0000
1000
0000
0001
0010
0M00
0010
1000
0000
0000
0001
0000
0000
0001
0000
0100
,
0010
M000
0010
0001
0000
0000
1000
0000
0000
0010
0000
0000
2010
0000
0000
0000
0000
0000
3001
0000
0000
1000
0000
0100
,
0010
0000
0001
0100
0000
0000
0010
0000
0000
1000
0000
0000
0100
0000
0000
0001
0000
0000
0100
0000
0000
1000
0000
0000
,
0001
0000
0000
0000
0000
0000
0010
0000
0000
0000
0000
0000
0100
0000
0000
0000
1000
0000
0000
0000
0000
0000
1000
0000
0010
0000
0000
0M00
0000
0000
0010
0000
0000
0000
0001
0000
0000
0000
0000
0000
0001
0000
0100
0000
0000
0000
0001
0000
,
1000
0000
0001
0010
0000
0000
0100
0000
0000
1000
0000
0000
1100
0000
0000
0000
0000
0000
0101
0000
0000
0000
0000
0000
,
0001
0000
0010
0100
0000
0000
1000
0000
0000
0001
0000
0100
0010
0000
0000
1000
0000
0000
0100
0000
0000
0010
0000
0000
,
0011
0000
1100
0000
1010
0100
1001
0000
;
