#VERSION:0.83;
#TITLE:jelly^girl;
#SUBTITLE:;
#ARTIST:dj kaya;
#TITLETRANSLIT:;
#SUBTITLETRANSLIT:;
#ARTISTTRANSLIT:;
#GENRE:;
#CREDIT:;
#MUSIC:jelly girl.ogg;
#BANNER:jelly_girl-banner.png;
#BACKGROUND:null.jpg;
#CDTITLE:;
#SAMPLESTART:69.390;
#SAMPLELENGTH:21.333;
#SELECTABLE:YES;
#OFFSET:-0.058;
#BPMS:0.000=180.000
,336.000=90.000
;
#STOPS:;
#SPEEDS:0.000=1.000=0.000=0;
#SCROLLS:0.000=1.000;
#TICKCOUNTS:0.000=4;
#TIMESIGNATURES:0.000=4=4;
#LABELS:0.000=Song Start;
#COMBOS:0.000=1;
#ORIGIN:;
#PREVIEWVID:;
#JACKET:jelly girl-jacket.png;
#CDIMAGE:jelly-icon.png;
#DISCIMAGE:background.png;
#BGCHANGES:0.000=jelly-gif2.avi=0.600=0=0=1=Centered====,
62.000=medusa outline.png=2.000=0=0=1=Visualization2File=jellies.avi=FadeDown==,
129.000=jellies.avi=1.000=0=0=1=Checkerboard2x2=jellyfish-bg1.png=CrossFade_Fastest=#00FFFF=#00FFFF,
160.000=jellyfish-bg2.png=1.000=0=0=1=Checkerboard2File2x2=jellies.avi=CrossFade_Fastest=#00FFFF=#00FFFF,
176.000=jellies.avi=1.000=0=0=1=Checkerboard2File2x2=jellyfish-bg3.png=CrossFade_Fastest=#00FFFF=#00FFFF,
184.000=jellyfish-bg1.png=1.000=0=0=1=File1FlashOverlay====,
185.500=jellyfish-bg2.png=1.000=0=0=1=File1FlashOverlay====,
187.000=jellyfish-bg1.png=1.000=0=0=1=File1FlashOverlay====,
188.500=jellyfish-bg2.png=1.000=0=0=1=File1FlashOverlay====,
192.000=medusa outline.png=1.000=0=0=1=Visualization2File=null.jpg=CrossFade_Fastest==,
208.000=white reverse flash=1.000=0=0=1=File2Flash=medusa.png===,
216.000=medusa.png=1.000=0=0=1=Visualization2File=jellies.avi=FadeUp==#00FFFF,
268.000=white flash=1.000=1=0=1===CrossFade==,
272.000=jellyfish-bg3.png=1.000=0=0=1=Visualization2File=jellies.avi=FadeUp==#00FFFF,
304.000=jellyfish-bg2.png=1.000=0=0=1=Visualization2File=jellies.avi=CrossFade_Fastest==#00FFFF,
312.000=jellyfish-bg1.png=1.000=0=0=1=Visualization2File=jellies.avi=CrossFade_Fastest==,
320.000=jellyfish-bg3.png=1.000=1=0=1=Visualization2File=jellies.avi=CrossFade==#00FFFF,
328.000=background.png=1.000=1=0=1===CrossFade==,
332.000=medusa.png=1.000=0=0=1=Visualization2File=background.png===,
333.000=background.png=1.000=0=0=1,
334.000=medusa.png=1.000=0=0=1=Visualization2File=background.png===,
335.000=background.png=1.000=0=0=1,
336.000=jelly girl-jacket.png=1.000=0=0=1=Visualization2File==CrossFade_Faster==,
370.000=jelly girl-jacket.png=1.000=0=0=1,
99999.000=-nosongbg-=1.000=0=0=0=StretchNoLoop====
;
#FGCHANGES:;

//--------------- dance-single - jelly?girl ----------------
#NOTEDATA:;
#STEPSTYPE:dance-single;
#DESCRIPTION:jelly?girl;
#DIFFICULTY:Easy;
#METER:9;
#RADARVALUES:0,0,0,0,0;
#NOTES:
0000
0000
0000
0000
,
0000
0000
0000
0000
,
0000
0000
0000
0000
,
0000
0000
0000
0000
,
0000
0000
0000
0000
,
0000
0000
0000
0000
,
0000
0000
0000
0000
,
0000
0000
0000
0000
,
1000
1000
1000
0000
,
0001
0001
0001
0000
,
0010
0010
0010
0000
,
0100
0100
0100
0000
,
1000
0001
1000
0001
,
1000
0010
0100
0000
,
0001
1000
0001
0010
,
0100
0100
0100
0110
,
0010
0000
0001
0000
0000
1000
0100
0000
,
0010
0000
0001
0000
0000
1000
0100
0000
,
1000
0000
0010
0000
0000
0100
0001
0000
,
1000
0000
0010
0000
0000
0100
0001
0000
,
0001
0000
0010
0000
0000
0100
1000
0000
,
0001
0000
0010
0000
0000
0100
1000
0000
,
0100
0000
1000
0000
0000
0001
0010
0000
,
0100
0100
0100
0100
,
1000
0000
0100
0000
0000
0100
0000
0000
,
0100
0000
0000
0100
0000
0000
0100
0000
,
0001
0000
0100
0000
0000
0100
0000
0000
,
0100
0000
0000
0100
0000
0000
0100
0000
,
0010
0001
1000
0010
,
0100
0001
0100
0010
,
1000
1000
0001
0001
,
2002
0000
0000
0000
,
3003
0100
0000
0000
,
0000
0000
0000
0000
,
0000
0000
0000
0000
,
0000
0000
0000
0000
,
1000
0000
0001
0000
,
0010
0001
0100
2000
,
0000
0000
0000
0000
,
3100
0010
1000
0001
,
0010
0000
0100
1000
0100
0000
0000
0000
,
0010
0000
0100
1000
0100
0000
0000
0000
,
1000
0000
0001
1000
0001
0000
0000
0000
,
1000
0000
0001
1000
0001
0000
0000
0000
,
1000
0100
0010
0001
,
1000
0100
0010
0001
,
1000
0000
0000
0010
0000
0000
0100
0000
,
0000
0001
0000
0000
2002
0000
0000
0000
,
3003
0000
0000
0000
,
0000
0000
0000
0000
,
1000
1000
1000
1000
,
0001
0001
0001
0001
,
0110
0000
0000
0000
,
0000
0000
0000
0000
,
1000
0000
0010
0000
1000
0000
0100
0010
,
0100
0010
0001
1001
,
0001
0000
0100
0000
0010
0000
1000
0010
,
1000
0010
0100
0000
,
0001
0000
0010
0000
0100
0000
0010
0100
,
0010
0100
1000
0000
,
0001
1001
0001
0000
,
1000
1001
1000
0000
,
0010
0110
0100
0000
,
0001
1001
0001
0000
,
0010
0001
1000
0010
,
0100
0001
1000
0000
,
0100
1000
0010
0100
,
0001
0010
0100
0000
,
1000
0000
0100
0000
0000
0100
0000
0000
,
0100
0000
0000
0100
0000
0000
0100
0000
,
0001
0000
0100
0000
0000
0100
0000
0000
,
0100
0000
0000
0100
0000
0000
0100
0000
,
1000
0000
0100
0000
0000
0100
0000
0000
,
0100
0000
0000
0100
0000
0000
0100
0000
,
0001
0000
0100
0000
0000
0100
0000
0000
,
0100
0000
0000
0100
0000
0000
0100
0000
,
1000
0000
1100
0000
0000
1100
0000
0000
,
1100
0000
0000
1100
0000
0000
1100
0000
,
0001
0000
0101
0000
0000
0101
0000
0000
,
0101
0000
0000
0101
0000
0000
0101
0000
,
1000
0000
1100
0000
0000
1100
0000
0000
,
1100
0000
0000
1100
0000
0000
1100
0000
,
0000
0001
1000
0001
,
1001
1001
1001
1001
,
2002
0000
0000
0000
,
3003
0000
0000
0000
;

//--------------- dance-single - jelly-_-girl ----------------
#NOTEDATA:;
#STEPSTYPE:dance-single;
#DESCRIPTION:jelly-_-girl;
#DIFFICULTY:Medium;
#METER:13;
#RADARVALUES:0.427507,0.540137,0.177336,0.140391,0.044334,405,381,24,19,0,0,0,0,0,0.427507,0.540137,0.177336,0.140391,0.044334,405,381,24,19,0,0,0,0,0;
#CHARTNAME:;
#CHARTSTYLE:;
#CREDIT:;
#NOTES:
0000
0000
0000
0000
,
0000
0000
0000
0000
,
0000
0000
0000
0000
,
0000
0000
0000
0000
,
0000
0000
0000
0000
,
0000
0000
0000
0000
,
0000
0000
0000
0000
,
0000
0000
0000
0000
,
1000
0000
0001
0000
0100
0010
0100
0000
,
0001
0000
1000
0000
0100
0010
0100
0000
,
1000
0000
0001
0000
0010
0100
0010
0000
,
0001
0000
1000
0000
0010
0100
0010
0000
,
1000
0100
1000
0000
1001
0000
1100
0000
,
0001
0100
0001
0000
1001
0000
0101
0000
,
0100
0001
1000
0000
0100
1000
0001
0000
,
0010
0100
0010
0100
0010
0100
0010
0000
,
0001
0000
1000
0000
0010
0100
0001
0000
,
1000
0000
0001
0000
0010
0100
1000
0000
,
0001
0000
1000
0000
0010
0100
0001
0000
,
1000
0010
0100
0001
0010
0100
1000
0000
,
0001
0000
0100
0000
0010
1000
0001
0000
,
1000
0000
0100
0000
0010
0001
1000
0000
,
0001
0000
0100
0000
0010
1000
0001
0000
,
1010
1010
0101
0101
,
2000
0000
3100
0000
0010
0100
0000
1000
,
0100
0000
0010
0100
0000
1000
0100
1000
,
0002
0000
0103
0000
0010
0100
0000
0001
,
0100
0000
0010
0100
0000
0001
0100
0001
,
1000
0000
0001
0000
0100
0001
0100
0000
,
0001
0000
1000
0000
0100
1000
0100
0000
,
0010
0001
1000
0000
0010
1000
0001
0000
,
1000
0100
0010
0001
0010
0100
1000
0000
,
0000
0000
0002
0000
0000
0000
0000
0023
,
0000
0000
0000
0000
0000
0000
0000
0230
,
0000
0000
0000
0000
0000
0000
0000
2300
,
0000
0000
0000
3002
0000
0000
0000
0000
,
0203
0000
0000
0000
0000
0000
0000
0320
,
0000
0000
0000
0000
0000
0000
0000
2030
,
0000
0000
0000
3020
0000
0000
0000
0230
,
0000
0000
0000
0302
0000
0000
0000
0003
,
1000
0100
0010
0001
0010
0100
1000
0000
,
0001
0100
0010
1000
0010
0100
0001
0000
,
1000
0100
0010
0001
0010
0100
1000
0000
,
0001
0100
0010
1000
0010
0100
0001
0000
,
0010
0001
0100
0010
1000
0100
1000
0000
,
0010
1000
0100
0010
0001
0100
0001
0000
,
0011
0000
0000
1100
0000
0000
1010
0000
,
0000
0101
0000
0000
1000
0001
1000
0002
,
2000
0000
0000
0000
,
0000
0000
0000
0000
,
0000
0000
0000
0000
,
0000
0000
0000
3003
,
0110
0000
0000
0000
,
0000
0000
0000
0000
,
1000
0000
0000
0000
0010
0000
1000
0000
0100
0000
0000
0100
0000
0000
0100
0000
,
0010
0000
0000
0000
0100
0000
1000
0000
0010
0000
0000
0100
0000
0000
0001
0000
,
1000
0000
0001
0000
0010
0000
0001
0000
0100
0000
0000
0100
0000
0000
0100
0000
,
0010
0000
0000
0000
0100
0000
0001
0000
0010
0000
0000
0100
0000
0000
1000
0000
,
0001
0000
1000
0001
0001
0010
0001
1000
,
0100
0000
1000
0001
0011
0000
0110
0000
,
2002
0000
3003
0000
0001
0000
0010
0000
0100
0000
0000
0100
0000
0000
1000
0000
,
0001
0000
0000
0000
1000
0000
0010
0000
0100
0000
0000
0100
0000
0000
0001
0000
,
1000
0000
0000
0000
0010
0000
1000
0000
0100
0000
0000
0100
0010
0000
0001
0000
,
0001
0000
0000
0000
0100
0000
0001
0000
0010
0000
0000
0010
0000
0000
0100
0000
,
1000
0000
0000
0000
1001
0000
0000
0000
1000
0000
0000
1000
0100
0000
1000
0000
,
0010
0000
0100
0000
1001
0000
0000
0000
0001
0000
0000
0001
0010
0000
0001
0000
,
0100
0000
0000
0000
0110
0000
0000
0000
0010
0000
0000
0010
1000
0000
0100
0000
,
0010
0001
0100
0010
1000
0001
1000
0000
,
0001
0000
0100
0000
0010
0100
0000
0001
,
0100
0000
0010
0100
0000
0001
0100
0001
,
1000
0000
0100
0000
0010
0100
0000
1000
,
0100
0000
0010
0100
0000
1000
0100
1000
,
0001
0000
0100
0000
1000
0100
0000
0001
,
0100
0000
1000
0100
0000
0001
0100
0010
,
1000
0000
0100
0000
0001
0100
0000
1000
,
0100
0000
0001
0100
0000
1000
0100
0010
,
0001
0000
0100
0001
1000
0100
1000
0001
,
0100
0001
1000
0100
1000
0001
0100
0001
,
1000
0000
0100
0010
0001
0100
0001
1000
,
0100
1000
0010
0100
0001
1000
0100
1000
,
0010
0000
0100
0001
0010
0100
1000
0010
,
0100
0001
0010
0100
1000
0010
0100
0001
,
0000
0000
1000
0001
1000
0000
0001
0000
0010
0000
0100
0000
0010
0000
0000
0000
,
0011
1100
0011
1100
,
2002
0000
0000
0000
,
0000
0000
0000
0000
,
3003
0000
0000
0000
;

//--------------- dance-single - jelly('u')girl ----------------
#NOTEDATA:;
#STEPSTYPE:dance-single;
#DESCRIPTION:jelly('u')girl;
#DIFFICULTY:Hard;
#METER:17;
#RADARVALUES:0.754735,0.953183,0.125613,0.635455,0.661317,715,698,17,86,0,0,0,0,0,0.754735,0.953183,0.125613,0.635455,0.661317,715,698,17,86,0,0,0,0,0;
#CHARTNAME:;
#CHARTSTYLE:;
#CREDIT:;
#NOTES:
0000
0000
0000
0000
,
0000
0000
0000
0000
,
0000
0000
0000
0000
,
0000
0000
0000
0000
,
0000
0000
0000
0000
,
0000
0000
0000
0000
,
0000
0000
0000
0000
,
0000
0000
0000
0000
,
0000
1000
0010
1000
0000
1000
0001
1000
,
0000
1000
0100
1000
0000
1000
0100
0010
,
0000
0001
0010
0001
0000
0001
1000
0001
,
0000
0001
0100
0001
0000
0001
0100
0010
,
1000
0000
0001
0000
0010
0000
0100
0000
1000
0000
0010
1000
0001
0000
0100
0000
,
0020
1000
0130
0110
,
0100
0000
0010
0000
1000
0000
0001
0000
0010
0100
0010
0100
0010
0100
0010
0100
,
1000
0000
1000
0000
0001
0000
0001
0000
1000
0001
1000
0000
1001
0000
0000
0000
,
1000
0100
1000
0100
1000
0000
0010
0000
1000
0000
0001
0000
0100
0000
0010
0000
,
1000
0001
1000
0001
1000
0000
0001
0000
0010
0000
0100
0000
1000
0000
0001
0000
,
0010
0001
0010
0001
0010
0000
0100
0000
1000
0000
0001
0000
0100
0000
0010
0000
,
1000
0010
1000
0010
0100
0000
0001
0010
0001
0010
0100
0000
2000
0000
0000
0000
,
3001
0100
0001
0100
0001
0000
1000
0000
0001
0000
1000
0000
0010
0000
0100
0000
,
0001
1000
0001
1000
0001
0000
1000
0000
0100
0000
0010
0000
0001
0000
1000
0000
,
0010
1000
0010
1000
0010
0000
0100
0000
0001
0000
1000
0000
0100
0000
0010
0000
,
0002
0000
0000
0000
1000
0000
0000
0000
0103
0010
1000
0000
0001
0010
0100
1000
,
0010
0000
0000
0000
0200
0300
0000
0000
0001
1000
0200
0300
0000
0000
1000
0001
,
0200
0300
0000
0000
0001
1000
0200
0300
0000
0000
1000
0001
0200
0300
0001
0000
,
1000
0000
0001
0000
0200
0000
0301
0000
0001
1000
0200
0000
1300
0000
1000
0001
,
0200
0000
0301
0000
0001
1000
0200
0000
1300
0000
1000
0001
0200
0000
0310
0000
,
1000
0000
0001
0000
0100
0000
0010
0100
0010
0100
0001
0000
1000
0000
0001
0000
,
0020
0001
0130
0110
,
0001
0010
0100
1000
0001
0100
0010
1000
,
0001
0010
0001
1000
0001
0010
0001
1000
0001
0100
0010
1000
0001
0000
0010
0000
,
0000
0000
2100
0001
3000
1000
0010
0100
,
0001
0100
0001
0100
0010
0100
0010
1000
0001
0000
0010
0000
0100
0000
1000
0000
,
0000
0000
0100
0000
1000
0000
0010
0000
0100
0000
0000
0001
0000
0000
1000
0000
,
0010
0000
0100
0000
0001
0000
0010
0000
0100
0000
1000
0001
1000
0100
0010
0001
,
1000
0000
0000
0010
0000
0000
1000
0000
0001
0000
0000
0100
0000
0100
0001
0000
,
0010
0000
0100
0000
1000
0000
0001
0000
0010
0000
0001
0000
0100
0001
0100
0001
,
0100
0001
0100
0001
0100
0001
0100
0001
0100
0001
0100
0001
0000
0000
0000
0000
,
1000
0000
0001
0000
1000
0100
0010
0000
0001
0000
1000
0010
0100
0000
0001
0000
,
1000
0010
1000
0000
0020
0000
0100
0000
0230
0000
0010
0000
0301
0000
0000
0000
,
0001
0010
0001
0000
0020
0000
0100
0000
0230
0000
0010
0000
1300
0000
0000
0000
,
1000
0100
1000
0000
0200
0000
0010
0000
0320
0000
0100
0000
0031
0000
0000
0000
,
0001
0100
0001
0000
0200
0000
0010
0000
0320
0000
0100
0000
1030
0000
0000
0000
,
1000
0010
1000
0010
0200
0000
0001
0000
0301
0000
0020
0000
0100
0000
0130
0000
,
1000
0100
1000
0100
0020
0000
0001
0000
0031
0000
0200
0000
0010
0000
0310
0000
,
1000
0010
1000
0010
0100
0000
0001
0010
0001
0010
0100
0000
1000
0010
1000
0010
,
0100
0000
0001
0010
0001
0010
0100
1000
0001
0100
0010
1000
0100
0010
0001
2000
,
0002
0000
0000
0000
,
0000
0000
0000
0000
0000
0000
0000
3003
,
0001
0010
0001
0010
0100
1000
0100
1000
,
0001
0100
0001
0100
0010
1000
0010
1000
0100
0010
0100
0010
0001
1000
0001
1000
,
0001
0000
0000
0000
,
0000
0000
0000
0000
,
1000
0000
0001
0010
0200
0000
0010
0000
1300
0000
0000
0001
1000
0000
0010
1000
,
0001
0000
0000
0000
1000
0000
1000
0001
0020
0000
0000
0100
0000
0000
0031
0000
,
1000
0000
0001
0000
0200
0000
0010
0000
0301
0000
0100
0001
1000
0000
0001
0100
,
0010
0000
1000
0000
0200
0000
0010
0000
1300
0000
0100
1000
0001
0000
0010
0000
,
0001
0000
1000
0001
0020
0000
0100
0000
0031
0000
0001
0000
1000
0000
0100
0000
,
0010
0000
0000
0000
0000
0000
0001
0000
0000
1000
0000
0000
0020
0000
0000
0000
0000
0000
0100
0000
0000
0000
0000
0000
1030
0000
0000
0000
0001
0000
0000
0000
1000
0000
0000
0000
0001
0000
0000
0000
0000
0000
0000
0000
0000
0000
0000
0000
,
1001
0000
0000
0001
2000
0000
0100
0000
3001
0000
1000
0100
0010
0000
0001
1000
,
0001
0000
1000
0000
0002
0000
0100
0000
1003
0000
0001
0100
0010
0000
1000
0000
,
0000
0000
1000
0001
2000
0000
0010
0000
3001
0000
1000
0010
0100
0000
0001
1000
,
0001
0000
1000
0000
0002
0000
0010
0000
1003
0000
0001
0010
0100
0000
1000
0000
,
0000
0000
0001
0000
0002
0000
0100
0000
1003
0000
0001
1000
0010
0000
0100
0001
,
1000
0000
0001
0000
2000
0000
0100
0000
3001
0000
1000
0001
0010
0000
0100
0000
,
1000
0000
0001
1000
0002
0000
0010
0000
1003
0000
0001
0000
0100
0000
0010
0000
,
0000
0000
0100
0010
0100
0000
0010
0000
1001
0000
0000
0000
0110
0000
0000
1000
,
0010
0000
0010
0000
0200
0301
1000
0001
1000
0000
0200
1300
0001
1000
0001
0000
,
0200
0301
1000
0001
1000
0000
0200
1300
0001
1000
0001
0000
0200
0300
0010
1000
,
0001
0000
0000
0000
0200
0301
0100
0001
1000
0000
0200
1300
0100
1000
0001
0000
,
0200
0301
0100
0001
1000
0000
0200
1300
0100
1000
0001
0000
0100
0000
0010
1000
,
0001
0000
0000
0000
0200
0310
1000
0001
1000
0000
0200
0310
0001
1000
0001
0000
,
0200
0310
1000
0001
1000
0000
0200
0310
0001
1000
0001
0000
0200
0300
0010
0000
,
1000
0000
0001
0000
0200
0301
1000
0001
0010
0000
0200
1300
0001
1000
0010
0000
,
0200
0301
1000
0001
0010
0000
0200
1300
0001
1000
0010
0100
0001
1000
0100
0010
,
0002
0000
0003
0000
1200
0300
1000
0001
1000
0010
0200
0301
1000
0001
0010
0000
,
1200
0300
1000
0001
1000
0010
0200
0301
1000
0001
0010
0000
0200
0300
1000
0000
,
0001
0000
0000
0000
0201
0300
0001
1000
0001
0010
0200
1300
0001
1000
0010
0000
,
0201
0300
0001
1000
0001
0010
0200
1300
0001
1000
0010
0000
0200
0300
0001
0000
,
1000
0000
0000
0000
0200
1300
0010
0100
0001
0000
0200
0301
0010
0100
1000
0000
,
0200
1300
0010
0100
0001
0000
0200
0301
0010
0100
1000
0000
0200
0300
0110
0000
,
0000
0000
1000
0001
1000
0000
0010
0000
0100
0000
0001
0000
1000
0000
0000
0000
,
2200
3300
0010
0000
0202
0303
0010
0000
2200
3300
0010
0000
0202
0303
0010
0000
,
2002
0000
0000
0000
,
0000
0000
0000
0000
,
3003
0000
0000
0000
;

//--------------- dance-double - jelly(^^)girl ----------------
#NOTEDATA:;
#STEPSTYPE:dance-double;
#DESCRIPTION:jelly(^^)girl;
#DIFFICULTY:Challenge;
#METER:18;
#RADARVALUES:0,0,0,0,0;
#NOTES:
00000000
00000000
00000000
00000000
,
00000000
00000000
00000000
00000000
,
00000000
00000000
00000000
00000000
,
00000000
00000000
00000000
00000000
,
00000000
00000000
00000000
00000000
,
00000000
00000000
00000000
00000000
,
00000000
00000000
00000000
00000000
,
00000000
00000000
00000000
00000000
,
00000000
00010000
00001000
00010000
00000000
00001000
01000000
00001000
,
00000000
00010000
00001000
00010000
00000000
00000100
00010000
00000100
,
00000000
00010000
00001000
00010000
00000000
00001000
00100000
00001000
,
00000000
00010000
00001000
00010000
00000000
00000010
00010000
00000010
,
00001000
00000000
00000100
00000000
00000010
00000000
00000001
00000000
00000100
00000000
00000010
00001000
00000010
00000000
00001000
00000000
,
00000010
00000000
00010000
00000000
00001000
00000000
00010000
00000000
00000100
00000000
00010000
00001000
00010000
00000000
00001000
00000000
,
00100000
00100000
01000000
01000000
10000000
10000000
00010000
00010000
,
10000000
00000000
10000000
00000000
10000000
00000000
10000000
00000000
01000000
00100000
00010000
10000000
00010000
00000000
00000000
00000000
,
10000000
01000000
10000000
01000000
10000000
00000000
00100000
00000000
10000000
00000000
00010000
00000000
01000000
00000000
00001000
00000000
,
00010000
00001000
00010000
00001000
00010000
00000000
00000010
00000000
00001000
00000000
00000001
00000000
00000100
00000000
00000001
00000000
,
00000010
00000001
00000010
00000001
00000010
00000000
00000100
00000000
00001000
00000000
00000010
00000000
00010000
00000000
00001000
00000000
,
00010000
00001000
00010000
00001000
01000000
00000000
00001000
00010000
00001000
00010000
00000100
00000000
00000020
00000000
00000000
00000000
,
00000031
00000100
00000001
00000100
00000001
00000000
00001000
00000000
00000010
00000000
00010000
00000000
00001000
00000000
00100000
00000000
,
00001000
00010000
00001000
00010000
00001000
00000000
01000000
00000000
00100000
00000000
10000000
00000000
00010000
00000000
10000000
00000000
,
01000000
00100000
01000000
00100000
01000000
00000000
00100000
00000000
00010000
00000000
01000000
00000000
00001000
00000000
00010000
00000000
,
00011000
00000000
00000000
00000000
00101000
00000000
00000000
00000000
00010100
00000000
00000000
00000000
00010000
00001000
00010000
00001000
,
00010000
00000000
00000000
00000000
00000100
00010000
00001000
00010000
00001000
00000000
01000000
00001000
00010000
00001000
00010000
00000000
,
00000100
00010000
00001000
00010000
00001000
00000000
01000000
00001000
00010000
00001000
00010000
00000000
00000100
00010000
00001000
00010000
,
00001000
00000000
00000000
00000000
01000000
00001000
01000000
00001000
00010000
00000000
00000100
00010000
00000100
00010000
00001000
00000000
,
01000000
00001000
01000000
00001000
00010000
00000000
00000100
00010000
00000100
00010000
00001000
00000000
01000000
00001000
01000000
00001000
,
00010000
00000000
00001000
00000000
00010000
00000000
00000100
00000010
00000100
00001000
00000010
00000000
00010000
00000000
00001000
00000000
,
00100000
00000000
00001000
00000000
00100000
00000000
01000000
00100000
01000000
10000000
00010000
00000000
01000000
00000000
00001000
00000000
,
00010000
00000000
00000010
00000000
00000100
00000000
00000001
00001000
00000100
00000010
00000100
00000000
00001000
00000000
00000010
00000000
,
00010000
00001000
00010000
00000100
00001000
00000100
00010000
00001000
00010000
00000100
00001000
00000100
00000010
00000000
00000001
00000000
,
00000000
00000000
00000200
00000000
00000300
00001000
00010000
01000000
,
10000000
01000000
10000000
01000000
00100000
00010000
00100000
00010000
10000000
00000000
00100000
00000000
01000000
00000000
00010000
00000000
,
00000000
00000000
00100000
00000000
00001000
00000000
00010000
00000000
00000010
00000000
00000000
00000100
00000000
00000000
00000001
00000000
,
00000010
00000000
00000100
00000000
00010000
00000000
00000010
00000000
00000100
00000000
00000001
00001000
00000100
00001000
00000010
00000100
,
00000001
00000000
00000000
00001000
00000000
00000000
00000100
00000000
00010000
00000000
00000000
00001000
00000000
00001000
00100000
00000000
,
00010000
00000000
00100000
00000000
01000000
00000000
00010000
00000000
01000000
00000000
00100000
00000000
00001000
00010000
00001000
00010000
,
00001000
00010000
00001000
00010000
00001000
00010000
00001000
00010000
00001000
00010000
00001000
00010000
00000000
00000000
00000000
00000000
,
01000000
00000000
00100000
00000000
00001000
00010000
00001000
00000000
00000100
00000000
00000010
00000100
00000010
00000000
00001000
00000000
,
00000010
00000100
00001000
00000000
00010000
00000000
00100000
00000000
01000000
00000000
00100000
00000000
00010000
00000000
00000000
00000000
,
00100000
01000000
00010000
00000000
00001000
00000000
00000010
00000000
00000100
00000000
00000010
00000000
00001000
00000000
00000000
00000000
,
00000100
00000010
00001000
00000000
00010000
00000000
01000000
00000000
00100000
00000000
01000000
00000000
00010000
00000000
00000000
00000000
,
01000000
00100000
00010000
00000000
00001000
00000000
00000100
00000000
00000010
00000000
00000100
00000000
00001000
00000000
00000001
00000000
,
00000010
00000100
00001000
00000000
00010000
00000000
00100000
00000000
10000000
00000000
00010000
00000000
01000000
00000000
10000000
00000000
,
00100000
01000000
00010000
00000000
00001000
00000000
00000010
00000000
00000001
00000000
00001000
00000000
00000100
00000000
00000001
00000000
,
00000010
00000001
00000010
00000001
00000100
00000000
00000010
00001000
00000010
00001000
00000100
00000000
00010000
00001000
00010000
00001000
,
01000000
00000000
00100000
10000000
00100000
10000000
01000000
00000000
00100000
00010000
00100000
00010000
01000000
00100000
00010000
00002000
,
00020000
00000000
00000000
00000000
,
00000000
00000000
00000000
00000000
,
00000000
00000000
00000000
00033000
,
00010000
00001000
00010000
00001000
00010000
00001000
00010000
00001000
00010000
00001000
00010000
00001000
00010000
00001000
00010000
00001000
,
00010000
00000000
00000000
00000000
01000000
00000000
00100000
00000000
00001000
00000000
00010000
00001000
00000000
00010000
00001000
00000000
,
00000100
00000000
00000000
00000000
00000100
00000000
00000010
00000000
00010000
00000000
00001000
00010000
00000000
00001000
00010000
00000000
,
01000000
00000000
10000000
00010000
00100000
00000000
00010000
01000000
00001000
00000000
00010000
00001000
00010000
00000000
00000010
00010000
,
00001000
00000000
00001000
00000000
00000010
00000001
00000010
00000001
00000100
00000000
00000001
00001000
00000010
00000000
00000100
00000000
,
00000001
00000000
00000010
00000000
00000010
00000000
00000100
00010000
00001000
00000000
00010000
00001000
00000000
00010000
00001000
00000000
,
01000000
00000000
00010000
00000000
10000000
00000000
00100000
01000000
00010000
00000000
00100000
00001000
00000000
00100000
00001000
00000000
,
00010000
00000000
00000010
00001000
00000001
00000000
00001000
00000100
00000010
00000000
00000100
00010000
00001000
00000000
00010000
00001000
,
01000000
00000000
00000000
00000000
00000000
00000000
00001000
00000000
00000000
00000000
00000000
00000000
01000000
00000000
00000000
00010000
00000000
00000000
01000000
00000000
00000000
00100000
00000000
00000000
10000000
00000000
00000000
00000000
00010000
00000000
00000000
00000000
10000000
00000000
00000000
00000000
00010000
00000000
00000000
00000000
00000000
00000000
00000000
00000000
00000000
00000000
00000000
00000000
,
10010000
00000000
00000000
10000000
00010000
00000000
10000000
01000000
00100000
00000000
01000000
00010000
00000000
01000000
00010000
00000000
,
01000000
00000000
00100000
00000000
00001000
00010000
00001000
00000000
00010000
00000000
00000010
00010000
00000010
00000000
00001000
00000000
,
00000100
00000000
00000010
00000001
00001000
00000000
00000010
00001000
00000001
00000000
00000100
00000001
00000100
00000000
00000010
00001000
,
00000010
00000000
00000100
00000000
00000001
00000010
00000100
00001000
00000010
00000000
00000100
00000010
00000100
00000000
00001000
00000000
,
00010000
00000000
01000000
00000000
01000000
00100000
00010000
00000000
01000000
00000000
00010000
00100000
00001000
00000000
00010000
00000000
,
00001000
00000000
00000100
00000000
00000010
00001000
00000001
00000000
00000100
00000000
00000001
00000010
00000100
00000000
00001000
00000000
,
00010000
00000000
01000000
00100000
01000000
00000000
00100000
00000000
00010000
00000000
10000000
00100000
01000000
00000000
00001000
00000000
,
00010000
00000000
01000000
00100000
01000000
00000000
10000000
00000000
00100000
00000000
00010000
00000000
00001000
00000000
00000000
00000000
,
00010000
00000000
00001000
00000000
01000000
00001000
01000000
00001000
00010000
00000000
00000100
00010000
00000100
00010000
00001000
00000000
,
01000000
00001000
01000000
00001000
00010000
00000000
00000100
00010000
00000100
00010000
00001000
00000000
01000000
00001000
01000000
00001000
,
00010000
00000000
00001000
00000000
01000000
00001000
00010000
00001000
00010000
00000000
00000100
00010000
00001000
00010000
00001000
00000000
,
01000000
00001000
00010000
00001000
00010000
00000000
00000100
00010000
00001000
00010000
00001000
00000000
01000000
00001000
00010000
00001000
,
00010000
00000000
00001000
00000000
01000000
00010000
01000000
00001000
00010000
00000000
00000100
00001000
00000100
00010000
00001000
00000000
,
01000000
00010000
01000000
00001000
00010000
00000000
00000100
00001000
00000100
00010000
00001000
00000000
01000000
00010000
01000000
00001000
,
00010000
00000000
00001000
00000000
01000000
00010000
00100000
00001000
00010000
00000000
00000100
00001000
00000010
00010000
00001000
00000000
,
01000000
00010000
00100000
00001000
00010000
00000000
00000100
00001000
00000010
00010000
00001000
00000000
00010000
00001000
00010000
00001000
,
01000000
00000000
00000000
00000000
01000000
00100000
00010000
00001000
00010000
00100000
01000000
00100000
00010000
00001000
00010000
00100000
,
01000000
00100000
00010000
00001000
00010000
00100000
01000000
00100000
00010000
00001000
00010000
00100000
01000000
00000000
00001000
00000000
,
00010000
00000000
00000000
00000000
00000100
00000010
00001000
00010000
00001000
00000010
00000100
00000010
00001000
00010000
00001000
00000010
,
00000100
00000010
00001000
00010000
00001000
00000010
00000100
00000010
00001000
00010000
00001000
00000010
00000100
00000000
00001000
00000000
,
00010000
00000000
00000000
00000000
00000100
00000010
00001000
00010000
00001000
00010000
01000000
00100000
00001000
00010000
00001000
00010000
,
00000100
00000010
00001000
00010000
00001000
00010000
01000000
00100000
00001000
00010000
00001000
00010000
00000100
00000000
00000010
00000000
,
00000000
00000000
00000010
00000100
00000010
00000000
00001000
00000000
00010000
00000000
01000000
00000000
10000000
00000000
00000000
00000000
,
10100000
01010000
00001010
00000101
;
