#TITLE:gold;
#SUBTITLE:;
#ARTIST:2hollis;
#TITLETRANSLIT:;
#SUBTITLETRANSLIT:;
#ARTISTTRANSLIT:;
#GENRE:;
#CREDIT:Evergreen;
#MUSIC:gold.ogg;
#BANNER:gold-bn.png;
#BACKGROUND:gold-bg.png;
#CDTITLE:;
#SAMPLESTART:0.000;
#SAMPLELENGTH:0.000;
#SELECTABLE:YES;
#OFFSET:-0.026;
#BPMS:0.000=155.000;
#STOPS:;
#BGCHANGES:;
#FGCHANGES:;

//--------------- dance-single - Eversilver ----------------
#NOTES:
     dance-single:
     Eversilver:
     Hard:
     13:
     0,0,0,0,0:
0000
0000
0000
0000
,
0000
0000
0000
0000
,
0000
0000
0000
0000
,
0000
0000
0000
0000
,
1000
0100
0010
0100
2000
0000
3001
0000
,
1000
0010
0100
0010
2000
0000
3001
0000
,
0010
0100
1000
0001
2000
0000
3001
0000
,
0100
0010
0000
0000
1000
0001
0010
0100
,
1001
0000
0001
0000
0010
0100
1000
0000
,
1010
0000
0010
0000
0100
0001
0010
0001
,
0011
0000
0010
0000
0100
0000
1000
0100
,
1100
0000
1000
0000
0010
0000
0100
0010
,
1001
0000
1000
0000
0100
0010
0001
0000
,
0101
0000
0100
0000
0010
1000
0100
1000
,
1100
0000
0100
0000
0010
0000
0001
0010
,
0011
0000
0001
0000
0100
0000
0010
1000
,
1100
0000
0100
0000
0010
0001
1000
0010
,
0100
1000
0100
0001
0010
0000
0001
0100
,
0101
0000
0001
0000
0010
0100
1000
0000
,
0100
0001
0100
0010
0001
0000
1000
0010
,
1010
0000
0010
0000
0100
0001
1000
0100
,
0010
1000
0010
0001
0100
0000
0001
0010
,
0011
0000
0001
0000
0100
0010
1000
0000
,
0002
0000
0000
0000
0003
0000
1000
0001
,
0101
0000
0100
0000
0001
0010
0001
0000
,
1000
0000
0100
0000
1000
0010
1000
0000
,
0001
0000
1000
0000
0001
0010
0100
1000
,
0001
0100
0001
0010
0100
0000
1000
0000
,
1100
0000
0100
0000
1000
0010
1000
0000
,
0001
0000
0100
0000
0001
0010
0001
0000
,
1000
0000
0001
0000
1000
0000
0001
0010
,
0100
1000
0010
0100
0001
0000
0010
0000
,
0011
0000
0001
0000
1000
0010
0100
1000
,
0100
0000
0001
1000
0001
0000
0010
0100
,
1000
0000
0001
0000
1000
0010
0100
0001
,
0010
0100
0001
0100
0010
0000
0001
1000
,
1010
0000
0010
0000
0100
0001
0100
0001
,
1000
0100
0010
1000
0010
0100
1000
0001
,
1000
0000
0001
0000
0100
0001
1000
0100
,
0010
0100
0001
0100
1000
0010
0100
0001
,
1000
0000
0001
0000
,
1000
0000
0000
0000
0001
0010
0100
1000
,
0002
1000
0000
0000
,
0000
0000
0000
0000
,
0023
0000
0000
0000
,
0230
0000
0000
0000
,
2300
0000
0000
0000
,
0000
0000
0000
0000
,
3020
0000
0000
0000
,
0230
0000
0000
0000
0301
1000
0001
0100
,
0020
0000
0000
0000
0000
0230
0000
0000
,
0302
0000
0000
0000
0000
0000
0023
0230
,
0320
0000
0000
0000
0000
0230
0000
0000
,
2300
0000
3002
0000
,
2003
0000
0000
0000
0000
3020
0000
0000
,
0230
0000
0302
2003
,
3001
0100
0010
0100
0002
0000
1003
0000
,
0001
0010
0100
1000
0001
0100
0010
1000
,
1001
0001
0011
0000
0011
0010
0110
0000
,
0110
0100
1100
0000
1100
1000
1001
0000
,
1001
0001
0101
0000
0101
0100
0110
0000
,
1010
1000
1001
0000
1001
0001
0101
0000
,
0011
1000
1100
0000
1010
0001
0101
0000
,
1100
0001
0011
0000
0101
1000
1010
0000
,
0011
0100
1100
0000
1010
0100
0101
0000
,
1001
0100
1001
0000
0000
0000
1000
0001
,
1001
0000
1000
0000
0010
0100
0001
0000
1000
0000
0001
0000
0010
0000
0000
0000
,
0011
0000
0001
0000
0010
0100
1000
0000
0010
0000
1000
0000
0010
0000
0000
0000
,
1010
0000
1000
0000
0010
0100
0001
0000
0010
0000
0001
0000
1000
0000
0000
0000
,
1001
0000
0001
0000
0100
0000
0001
0000
1000
0010
1000
0000
0001
0010
0001
0000
,
1100
0000
1000
0000
0100
0010
0001
0000
1000
0000
0001
0000
0100
0000
0000
0000
,
0101
0000
0001
0000
0100
0010
1000
0000
0001
0000
1000
0000
0010
0000
0000
0000
,
1010
0000
1000
0000
0001
0010
0001
0000
0011
0000
0100
0000
1100
0000
0000
0000
,
1010
0000
0001
0000
1000
0100
1000
0000
0011
0000
1000
0000
1010
0000
0011
0000
,
1001
0000
0000
0000
0000
0000
0000
0000
0000
0000
0000
0000
0000
0000
0000
0000
0000
0000
0000
0M00
0000
0000
0000
0000
0000
0000
0000
0000
0000
0000
0000
0000
0000
0000
0000
0000
0000
0000
0000
0000
0000
0000
0000
0000
0000
0000
0000
0000
0M00
0000
0000
0000
0000
0000
0000
0000
0000
0000
0000
0000
0000
0000
0000
0000
0000
0000
0000
0000
0000
0000
0000
0000
0000
0000
0000
0000
0000
0000
0000
0000
0000
0000
0000
0000
0M00
0000
0000
0000
0000
0000
0000
0000
0000
0000
0000
0000
0000
0000
0000
0000
0000
0000
0000
0000
0000
0000
0000
0000
0000
0000
0000
0000
0000
0000
0000
0000
0000
0000
0000
0000
0M00
0000
0000
0000
0000
0000
0000
0000
0000
0000
0000
0000
0000
0000
0000
0000
0000
0000
0000
0000
0000
0000
0000
0000
0000
0000
0000
0000
0000
0000
0000
0000
0000
0000
0000
0000
0000
0000
0000
0000
0000
0000
0000
0000
0000
0000
0000
0000
0000
0000
0000
0000
0000
0000
0000
0000
0000
0000
0000
0000
0000
0000
0000
0000
0000
0000
0000
0000
0000
0000
0000
0000
,
0000
0000
0000
0000
0000
0000
0000
0000
0000
0000
0000
0000
0000
0000
0000
0000
0000
0000
0000
0000
0000
0000
0000
0000
0000
0000
0000
0000
0000
0000
0000
0000
0000
0000
0000
0000
0000
0000
0000
0000
0000
0000
0000
0000
0000
0000
0000
0000
0000
0000
0000
0000
0000
0000
0000
0000
0000
0000
0000
0000
0000
0000
0000
0000
0000
0000
0000
0000
0000
0000
0000
0000
0000
0000
0000
0000
0000
0000
0000
0000
0000
0000
0000
0000
0000
0000
0000
0000
0000
0000
0000
0000
0000
0000
0000
0000
0000
0000
0000
0000
0000
0000
0000
0000
0000
0000
0000
0000
0000
0000
0000
0000
0000
0000
0000
0000
0000
0000
0000
0000
0000
0000
0000
0000
0000
0000
0000
0000
0000
0000
0000
0000
00M0
0000
0000
0000
0000
0000
0000
0000
0000
0000
0000
0000
0000
0000
0000
0000
0000
0000
0000
0000
0000
0000
0000
0000
0000
0000
0000
0000
0000
0000
0000
00M0
0000
0000
0000
0000
0000
0000
0000
0000
0000
0000
0000
0000
0000
0000
0000
0000
0000
0000
0000
0000
0000
0000
0000
0000
0000
0000
0000
0000
,
00M0
0000
0000
0000
,
0000
0000
0000
0000
0000
0000
0000
0000
0000
0000
0000
0000
0000
0000
0000
0000
0000
0000
0000
0000
0000
0000
0000
0000
0000
0000
0000
0000
0000
0M00
0000
0000
0000
0000
0000
0000
0000
0000
0000
0000
0000
0000
0000
0000
0000
0000
0000
0000
0000
0000
0000
0000
0000
0000
0000
0000
0000
0000
0M00
0000
0000
0000
0000
0000
0000
0000
0000
0000
0000
0000
0000
0000
0000
0000
0000
0000
0000
0000
0000
0000
0000
0000
0000
0000
0000
0000
0M00
0000
0000
0000
0000
0000
0000
0000
0000
0000
0000
0000
0000
0000
0000
0000
0000
0000
0000
0000
0M00
0000
0000
0000
0000
0000
0000
0000
0000
0000
0000
0000
0000
0000
0000
0000
0000
0000
0000
0000
0000
0000
0000
0000
0000
0000
0000
0000
0000
0000
0000
0000
0000
0000
0000
0000
0000
0000
0M00
0000
0000
0000
0000
0000
0000
0000
0000
0000
0000
0000
0000
0000
0000
0000
0000
0000
0000
0000
0000
0000
0000
0000
0000
0000
0000
0000
0000
0000
0000
0000
0000
0000
0000
0000
0000
0000
0000
0000
0000
0000
0000
0000
0000
0000
0000
0000
,
0000
0000
0000
0000
0000
0000
0000
0000
0000
0000
0000
0000
0000
0000
0000
0000
0000
0000
0000
0000
0000
0000
0000
0000
0000
0000
0000
0000
0000
0000
0000
0000
0000
0000
0000
0000
0000
0000
0000
0000
0000
0000
0000
0000
0000
0000
0000
0000
0000
0000
0000
0000
0000
0000
0000
0000
0000
0000
0000
0000
0000
0000
0000
0000
0000
0000
0000
0000
0000
0000
0000
0000
0000
0000
0000
0000
0000
00M0
0000
0000
0000
0000
0000
0000
0000
0000
0000
0000
0000
0000
0000
00M0
0000
0000
0000
0000
,
0000
0000
0000
0000
0000
0000
0000
0000
0000
0000
0000
0000
0000
0000
0000
0000
0000
0000
0000
00M0
0000
0000
0000
0000
0000
0000
0000
0000
0000
0000
0000
0000
0000
0000
0000
0000
0000
0000
0000
0000
0000
0000
0000
0000
0000
0000
0000
0000
0000
0000
0000
0000
0000
0000
0000
0000
0000
0000
0000
0000
0000
0000
0000
0000
0000
0000
0000
0000
0000
0000
0000
0000
0000
0000
0000
0000
0000
0000
0000
0000
0000
0000
0000
0000
0000
0000
0000
0000
0000
0000
0000
0000
0000
0000
0000
0000
0000
0000
0000
0000
0000
0000
0000
0000
0000
0000
0000
0000
0000
0000
0000
0000
0000
0000
0000
0000
0000
0000
0000
0000
0000
0000
0000
0000
0000
0000
0000
0000
0000
0000
0000
0000
0000
0000
0000
0000
0000
0000
0000
0000
0000
0000
0000
0000
0000
0000
0000
0000
0000
0000
0000
0000
0000
0000
0000
0000
0000
0000
0000
0000
0000
0000
0000
0000
0000
0000
0000
0000
0000
0000
0000
0000
0000
0000
0000
0000
0000
0000
0000
0000
0000
0000
0000
0000
0000
0000
0000
0000
0000
0000
0000
0000
;

//--------------- dance-single - Evergold ----------------
#NOTES:
     dance-single:
     Evergold:
     Challenge:
     18:
     0,0,0,0,0:
0000
0000
0000
0000
,
0000
0000
0000
0000
,
0000
0000
0000
0000
,
0000
0000
0000
0000
,
1000
0100
0100
0001
0010
0000
0100
1000
,
0001
0100
0100
1000
0010
0000
0100
0001
,
1000
0010
0010
0001
0100
0000
0001
1000
,
0001
0010
0000
0000
0100
1000
0001
1000
,
0001
1000
0001
0010
0100
1000
0010
0100
0001
1000
0100
1000
0001
0100
0001
1000
,
0010
0100
0001
1000
0100
0010
0001
1000
0010
1000
0001
0010
0100
1000
0100
1000
,
0010
0100
0001
1000
0010
1000
0001
0100
0010
1000
0100
0010
0001
1000
0010
0100
,
0010
1000
0001
0010
0100
1000
0001
1000
0001
0000
0000
0000
0010
0000
0001
0000
,
1000
0001
1000
0010
0100
0001
0010
0100
1000
0001
0100
0001
1000
0100
1000
0001
,
0010
0100
1000
0001
0100
0010
1000
0001
0010
0001
1000
0010
0100
0001
0100
0001
,
0010
0100
1000
0001
0100
0001
1000
0100
0010
0001
0100
0010
1000
0001
0010
0100
,
0010
0001
1000
0010
0100
0001
1000
0001
1000
0000
0000
0000
0010
0000
0100
0000
,
0001
0010
0100
1000
0010
0100
0001
1000
0100
1000
0001
0100
0001
0010
0100
1000
,
0001
0010
0001
1000
0010
0100
0001
0010
0001
1000
0010
1000
0001
0000
1000
0000
,
0001
0100
0010
1000
0100
0010
0001
1000
0010
1000
0001
0010
0001
0100
0010
1000
,
0001
0100
0001
1000
0100
0010
0001
0100
0001
1000
0100
1000
0001
0000
1000
0000
,
0010
0100
0001
1000
0100
0010
0001
1000
0100
1000
0001
0010
0100
1000
0010
0100
,
0001
1000
0100
1000
0001
0100
0010
1000
0001
0010
0100
1000
0001
0000
1000
0000
,
0010
0100
0001
1000
0100
0010
0001
0010
0100
1000
0001
0100
0001
1000
0010
0100
,
0002
0000
0000
0000
0003
0000
0010
0100
,
1000
0010
0100
0001
1000
0100
0010
0001
1000
0010
0100
0001
0100
0010
1000
0001
,
0010
0100
1000
0010
0100
0001
1000
0100
0010
0001
1000
0001
0010
0100
1000
0001
,
0100
0010
1000
0001
1000
0010
0100
0001
0010
0001
1000
0100
0010
0001
0100
0010
,
1000
0001
0010
0100
1000
0000
0001
0000
,
1000
0100
0010
0001
1000
0010
0100
0001
1000
0100
0010
0001
0010
0100
1000
0001
,
0100
0010
1000
0100
0010
0001
1000
0010
0100
0001
1000
0001
0100
0010
1000
0001
,
0010
0100
1000
0001
1000
0100
0010
0001
1000
0000
0000
0000
0001
0000
0010
0000
,
0001
1000
0010
0100
0001
0000
1000
0000
,
0001
0010
0100
1000
0001
1000
0010
0100
0001
1000
0001
0010
0001
1000
0010
1000
,
0001
1000
0100
0010
0001
1000
0010
0100
0001
1000
0100
0010
0001
0010
0100
1000
,
0001
0100
0001
0010
0100
1000
0001
0100
0010
1000
0001
1000
0010
0100
0001
1000
,
0100
0010
0001
1000
0100
1000
0001
0100
0001
0000
0000
0000
0010
0000
0000
0000
,
0100
1000
0010
0100
0001
1000
0100
0010
0001
1000
0100
1000
0001
0100
0001
0010
,
0100
1000
0010
0100
0001
1000
0100
0010
0001
0010
0100
1000
0010
0100
0001
1000
,
0001
0010
0100
1000
0001
1000
0010
0100
0001
1000
0100
1000
0001
0010
0100
1000
,
0010
0100
0010
1000
0001
0100
0001
1000
0100
0000
0010
0000
0001
1000
0001
0000
,
1000
0000
0010
0100
0001
0010
0100
0000
,
1000
0010
0100
0000
0001
1000
0100
0010
,
0001
0000
1000
0000
0000
0000
0000
0001
,
0100
0010
1000
0001
0010
0000
0100
1000
,
0001
0000
0100
0000
0001
0000
1000
0100
,
0010
0100
1000
0001
0010
0000
0100
1000
,
0001
0000
0000
0000
,
1000
0010
1000
0001
0100
0000
0001
0010
,
0100
0000
0000
0000
,
0000
0000
0000
0010
0100
1000
0010
0100
,
0001
1000
0010
0100
0001
0010
0100
1000
0001
0100
0001
0010
0001
1000
0010
1000
,
0100
1000
0010
0100
0001
1000
0100
0010
0001
1000
0001
0100
0001
0010
0100
1000
,
0001
0010
0100
1000
0010
0100
0001
1000
0100
1000
0010
1000
0001
0010
0001
0100
,
0001
0010
0100
1000
0001
0100
0010
1000
0001
1000
0100
1000
0010
0100
0001
1000
,
0100
0010
0001
1000
0010
0100
0001
1000
0100
1000
0010
0100
0001
1000
0001
0010
,
0100
1000
0001
0100
0010
0100
0001
0010
0001
0100
0010
1000
0001
1000
0010
0100
,
0001
1000
0100
0010
0001
0010
0100
1000
0010
0100
0001
0010
0001
0100
0010
1000
,
0010
0100
0001
0010
0001
0100
0010
1000
0100
0000
1000
0000
0001
0000
1000
0000
,
0011
0100
0001
1000
0011
0100
0001
1000
0011
0100
0001
1000
0001
0000
1000
0001
,
1010
0100
1000
0001
1010
0100
1000
0001
1010
0100
1000
0001
1000
0000
0001
1000
,
0101
0010
0001
1000
0101
0010
0001
1000
0101
0010
0001
1000
0001
0000
1000
0001
,
1100
0010
1000
0001
1100
0010
1000
0001
1100
0010
1000
0001
1000
0000
0001
0010
,
0101
1000
0010
1000
0101
1000
0010
1000
0101
1000
0010
1000
0101
0000
1000
0001
,
1100
0001
0010
0001
1100
0001
0010
0001
1100
0001
0010
0001
1100
0000
0001
1000
,
0011
1000
0100
1000
0011
1000
0100
1000
0011
1000
0100
1000
0011
0000
1000
0001
,
1010
0001
0100
0001
1010
0001
0100
0001
0000
0000
0000
0000
1000
0000
0010
0000
,
1100
0001
0100
0001
0010
0010
1000
0001
1100
0001
0100
0001
0010
0010
1000
0001
,
1100
0001
0100
0001
0010
0010
1000
0001
1100
0001
1000
0100
0010
0001
1000
0000
,
0101
1000
0100
1000
0010
0010
0001
1000
0101
1000
0100
1000
0010
0010
0001
1000
,
0101
1000
0100
1000
0010
0010
0001
1000
0101
1000
0001
0000
1100
0001
1000
0000
,
0011
1000
0010
1000
0100
0100
0001
1000
0011
1000
0010
1000
0100
0100
0001
1000
,
0011
1000
0010
1000
0100
0100
0001
1000
0011
1000
0001
0010
0100
1000
0001
0000
,
1010
0001
0010
0001
0100
0100
1000
0001
1010
0001
0010
0001
0100
0100
1000
0001
,
1010
0001
0010
0001
0100
0100
1000
0001
1010
0001
1000
0010
0100
0001
1000
0000
,
0001
0000
0000
0000
0000
0000
0000
0000
0000
0000
0000
0000
0000
0000
0000
0000
0000
0000
0000
0M00
0000
0000
0000
0000
0000
0000
0000
0000
0000
0000
0000
0000
0000
0000
0000
0000
0000
0000
0000
0000
0000
0000
0000
0000
0000
0000
0000
0000
0M00
0000
0000
0000
0000
0000
0000
0000
0000
0000
0000
0000
0000
0000
0000
0000
0000
0000
0000
0000
0000
0000
0000
0000
0000
0000
0000
0000
0000
0000
0000
0000
0000
0000
0000
0000
0M00
0000
0000
0000
0000
0000
0000
0000
0000
0000
0000
0000
0000
0000
0000
0000
0000
0000
0000
0000
0000
0000
0000
0000
0000
0000
0000
0000
0000
0000
0000
0000
0000
0000
0000
0000
0M00
0000
0000
0000
0000
0000
0000
0000
0000
0000
0000
0000
0000
0000
0000
0000
0000
0000
0000
0000
0000
0000
0000
0000
0000
0000
0000
0000
0000
0000
0000
0000
0000
0000
0000
0000
0000
0000
0000
0000
0000
0000
0000
0000
0000
0000
0000
0000
0000
0000
0000
0000
0000
0000
0000
0000
0000
0000
0000
0000
0000
0000
0000
0000
0000
0000
0000
0000
0000
0000
0000
0000
,
0000
0000
0000
0000
0000
0000
0000
0000
0000
0000
0000
0000
0000
0000
0000
0000
0000
0000
0000
0000
0000
0000
0000
0000
0000
0000
0000
0000
0000
0000
0000
0000
0000
0000
0000
0000
0000
0000
0000
0000
0000
0000
0000
0000
0000
0000
0000
0000
0000
0000
0000
0000
0000
0000
0000
0000
0000
0000
0000
0000
0000
0000
0000
0000
0000
0000
0000
0000
0000
0000
0000
0000
0000
0000
0000
0000
0000
0000
0000
0000
0000
0000
0000
0000
0000
0000
0000
0000
0000
0000
0000
0000
0000
0000
0000
0000
0000
0000
0000
0000
0000
0000
0000
0000
0000
0000
0000
0000
0000
0000
0000
0000
0000
0000
0000
0000
0000
0000
0000
0000
0000
0000
0000
0000
0000
0000
0000
0000
0000
0000
0000
0000
00M0
0000
0000
0000
0000
0000
0000
0000
0000
0000
0000
0000
0000
0000
0000
0000
0000
0000
0000
0000
0000
0000
0000
0000
0000
0000
0000
0000
0000
0000
0000
00M0
0000
0000
0000
0000
0000
0000
0000
0000
0000
0000
0000
0000
0000
0000
0000
0000
0000
0000
0000
0000
0000
0000
0000
0000
0000
0000
0000
0000
,
00M0
0000
0000
0000
,
0000
0000
0000
0000
0000
0000
0000
0000
0000
0000
0000
0000
0000
0000
0000
0000
0000
0000
0000
0000
0000
0000
0000
0000
0000
0000
0000
0000
0000
0M00
0000
0000
0000
0000
0000
0000
0000
0000
0000
0000
0000
0000
0000
0000
0000
0000
0000
0000
0000
0000
0000
0000
0000
0000
0000
0000
0000
0000
0M00
0000
0000
0000
0000
0000
0000
0000
0000
0000
0000
0000
0000
0000
0000
0000
0000
0000
0000
0000
0000
0000
0000
0000
0000
0000
0000
0000
0M00
0000
0000
0000
0000
0000
0000
0000
0000
0000
0000
0000
0000
0000
0000
0000
0000
0000
0000
0000
0M00
0000
0000
0000
0000
0000
0000
0000
0000
0000
0000
0000
0000
0000
0000
0000
0000
0000
0000
0000
0000
0000
0000
0000
0000
0000
0000
0000
0000
0000
0000
0000
0000
0000
0000
0000
0000
0000
0M00
0000
0000
0000
0000
0000
0000
0000
0000
0000
0000
0000
0000
0000
0000
0000
0000
0000
0000
0000
0000
0000
0000
0000
0000
0000
0000
0000
0000
0000
0000
0000
0000
0000
0000
0000
0000
0000
0000
0000
0000
0000
0000
0000
0000
0000
0000
0000
,
0000
0000
0000
0000
0000
0000
0000
0000
0000
0000
0000
0000
0000
0000
0000
0000
0000
0000
0000
0000
0000
0000
0000
0000
0000
0000
0000
0000
0000
0000
0000
0000
0000
0000
0000
0000
0000
0000
0000
0000
0000
0000
0000
0000
0000
0000
0000
0000
0000
0000
0000
0000
0000
0000
0000
0000
0000
0000
0000
0000
0000
0000
0000
0000
0000
0000
0000
0000
0000
0000
0000
0000
0000
0000
0000
0000
0000
00M0
0000
0000
0000
0000
0000
0000
0000
0000
0000
0000
0000
0000
0000
00M0
0000
0000
0000
0000
,
0000
0000
0000
0000
0000
0000
0000
0000
0000
0000
0000
0000
0000
0000
0000
0000
0000
0000
0000
00M0
0000
0000
0000
0000
0000
0000
0000
0000
0000
0000
0000
0000
0000
0000
0000
0000
0000
0000
0000
0000
0000
0000
0000
0000
0000
0000
0000
0000
0000
0000
0000
0000
0000
0000
0000
0000
0000
0000
0000
0000
0000
0000
0000
0000
0000
0000
0000
0000
0000
0000
0000
0000
0000
0000
0000
0000
0000
0000
0000
0000
0000
0000
0000
0000
0000
0000
0000
0000
0000
0000
0000
0000
0000
0000
0000
0000
0000
0000
0000
0000
0000
0000
0000
0000
0000
0000
0000
0000
0000
0000
0000
0000
0000
0000
0000
0000
0000
0000
0000
0000
0000
0000
0000
0000
0000
0000
0000
0000
0000
0000
0000
0000
0000
0000
0000
0000
0000
0000
0000
0000
0000
0000
0000
0000
0000
0000
0000
0000
0000
0000
0000
0000
0000
0000
0000
0000
0000
0000
0000
0000
0000
0000
0000
0000
0000
0000
0000
0000
0000
0000
0000
0000
0000
0000
0000
0000
0000
0000
0000
0000
0000
0000
0000
0000
0000
0000
0000
0000
0000
0000
0000
0000
;

//--------------- dance-single - matt gold ----------------
#NOTES:
     dance-single:
     matt gold:
     Edit:
     1:
     0,0,0,0,0:
0000
0000
0000
0000
,
0000
0000
0000
0000
,
0000
0000
0000
0000
,
0000
0000
0000
0000
,
1000
0100
0100
0001
0010
0000
0100
1000
,
0001
0100
0100
1000
0010
0000
0100
0001
,
1000
0010
0010
0001
0100
0000
0001
1000
,
0001
0010
0000
0000
0100
1000
0001
1000
,
0001
1000
0001
0010
0100
1000
0010
0100
0001
1000
0100
1000
0001
0100
0001
1000
,
0010
0100
0001
1000
0100
0010
0001
1000
0010
1000
0001
0010
0100
1000
0100
1000
,
0010
0100
0001
1000
0010
1000
0001
0100
0010
1000
0100
0010
0001
1000
0010
0100
,
0010
1000
0001
0010
0100
1000
0001
1000
0001
0000
0000
0000
0010
0000
0001
0000
,
1000
0001
1000
0010
0100
0001
0010
0100
1000
0001
0100
0001
1000
0100
1000
0001
,
0010
0100
1000
0001
0100
0010
1000
0001
0010
0001
1000
0010
0100
0001
0100
0001
,
0010
0100
1000
0001
0100
0001
1000
0100
0010
0001
0100
0010
1000
0001
0010
0100
,
0010
0001
1000
0010
0100
0001
1000
0001
1000
0000
0000
0000
0010
0000
0100
0000
,
0001
0010
0100
1000
0010
0100
0001
1000
0100
1000
0001
0100
0001
0010
0100
1000
,
0001
0010
0001
1000
0010
0100
0001
0010
0001
1000
0010
1000
0001
0000
1000
0000
,
0001
0100
0010
1000
0100
0010
0001
1000
0010
1000
0001
0010
0001
0100
0010
1000
,
0001
0100
0001
1000
0100
0010
0001
0100
0001
1000
0100
1000
0001
0000
1000
0000
,
0010
0100
0001
1000
0100
0010
0001
1000
0100
1000
0001
0010
0100
1000
0010
0100
,
0001
1000
0100
1000
0001
0100
0010
1000
0001
0010
0100
1000
0001
0000
1000
0000
,
0010
0100
0001
1000
0100
0010
0001
0010
0100
1000
0001
0100
0001
1000
0010
0100
,
0002
0000
0000
0000
0003
0000
0010
0100
,
1000
0010
0100
0001
1000
0100
0010
0001
1000
0010
0100
0001
0100
0010
1000
0001
,
0010
0100
1000
0010
0100
0001
1000
0100
0010
0001
1000
0001
0010
0100
1000
0001
,
0100
0010
1000
0001
1000
0010
0100
0001
0010
0001
1000
0100
0010
0001
0100
0010
,
1000
0001
0010
0100
1000
0000
0001
0000
,
1000
0100
0010
0001
1000
0010
0100
0001
1000
0100
0010
0001
0010
0100
1000
0001
,
0100
0010
1000
0100
0010
0001
1000
0010
0100
0001
1000
0001
0100
0010
1000
0001
,
0010
0100
1000
0001
1000
0100
0010
0001
1000
0000
0000
0000
0001
0000
0010
0000
,
0001
1000
0010
0100
0001
0000
1000
0000
,
0001
0010
0100
1000
0001
1000
0010
0100
0001
1000
0001
0010
0001
1000
0010
1000
,
0001
1000
0100
0010
0001
1000
0010
0100
0001
1000
0100
0010
0001
0010
0100
1000
,
0001
0100
0001
0010
0100
1000
0001
0100
0010
1000
0001
1000
0010
0100
0001
1000
,
0100
0010
0001
1000
0100
1000
0001
0100
0001
0000
0000
0000
0010
0000
0000
0000
,
0100
1000
0010
0100
0001
1000
0100
0010
0001
1000
0100
1000
0001
0100
0001
0010
,
0100
1000
0010
0100
0001
1000
0100
0010
0001
0010
0100
1000
0010
0100
0001
1000
,
0001
0010
0100
1000
0001
1000
0010
0100
0001
1000
0100
1000
0001
0010
0100
1000
,
0010
0100
0010
1000
0001
0100
0001
1000
0100
0000
0010
0000
0001
1000
0001
0000
,
1000
0000
0010
0100
0001
0010
0100
0000
,
1000
0010
0100
0000
0001
1000
0100
0010
,
0001
0000
1000
0000
0000
0000
0000
0001
,
0100
0010
1000
0001
0010
0000
0100
1000
,
0001
0000
0100
0000
0001
0000
1000
0100
,
0010
0100
1000
0001
0010
0000
0100
1000
,
0001
0000
0000
0000
,
1000
0010
1000
0001
0100
0000
0001
0010
,
0100
0000
0000
0000
,
0000
0000
0000
0010
0100
1000
0010
0100
,
0001
1000
0010
0100
0001
0010
0100
1000
0001
0100
0001
0010
0001
1000
0010
1000
,
0100
1000
0010
0100
0001
1000
0100
0010
0001
1000
0001
0100
0001
0010
0100
1000
,
0001
0010
0100
1000
0010
0100
0001
1000
0100
1000
0010
1000
0001
0010
0001
0100
,
0001
0010
0100
1000
0001
0100
0010
1000
0001
1000
0100
1000
0010
0100
0001
1000
,
0100
0010
0001
1000
0010
0100
0001
1000
0100
1000
0010
0100
0001
1000
0001
0010
,
0100
1000
0001
0100
0010
0100
0001
0010
0001
0100
0010
1000
0001
1000
0010
0100
,
0001
1000
0100
0010
0001
0010
0100
1000
0010
0100
0001
0010
0001
0100
0010
1000
,
0010
0100
0001
0010
0001
0100
0010
1000
0100
0000
1000
0000
0001
0000
1000
0000
,
0011
0100
0100
1000
0011
1000
1000
0100
0011
0100
0100
1000
0011
1000
1000
0100
,
0011
0100
0100
1000
0011
1000
1000
0100
0011
0100
0010
1000
0001
0010
0001
0001
,
1010
0100
0100
0001
1010
0001
0001
0100
1010
0100
0100
0001
1010
0001
0001
0100
,
1010
0100
0100
0001
1010
0001
0001
0100
1010
0100
0010
0001
1000
0010
1000
1000
,
0101
0010
0010
1000
0101
1000
1000
0010
0101
0010
0010
1000
0101
1000
1000
0010
,
0101
0010
0010
1000
0101
1000
1000
0010
0101
0010
0100
1000
0001
0100
0001
0001
,
1100
0010
0010
0001
1100
0001
0001
0010
1100
0010
0010
0001
1100
0001
0001
0010
,
1100
0010
0010
0001
1100
0001
1000
0001
0000
0000
0000
0000
1000
0000
0001
0000
,
1100
0010
0010
0001
1010
0100
0100
0001
1100
0010
0010
0001
1010
0100
0100
0001
,
1100
0010
0010
0001
1010
0100
0100
0001
1100
0010
0010
0001
1000
0010
1000
1000
,
0011
0100
0100
1000
0101
0010
0010
1000
0011
0100
0100
1000
0101
0010
0010
1000
,
0011
0100
0100
1000
0101
0010
0010
1000
0011
1000
0011
0000
1010
0001
1010
0000
,
0101
0010
0010
1000
0011
0100
0100
1000
0101
0010
0010
1000
0011
0100
0100
1000
,
0011
0100
0100
1000
0101
0010
0010
1000
0011
0100
0100
1000
0001
0010
0001
0001
,
1100
0010
0010
0001
1010
0100
0100
0001
1100
0010
0010
0001
1010
0100
0100
0001
,
1010
0100
0100
0001
1100
0010
0010
0001
1010
0100
0100
0001
1000
0000
0001
0000
,
1000
0000
0000
0000
0000
0000
0000
0000
0000
0000
0000
0000
0000
0000
0000
0000
0000
0000
0000
0M00
0000
0000
0000
0000
0000
0000
0000
0000
0000
0000
0000
0000
0000
0000
0000
0000
0000
0000
0000
0000
0000
0000
0000
0000
0000
0000
0000
0000
0M00
0000
0000
0000
0000
0000
0000
0000
0000
0000
0000
0000
0000
0000
0000
0000
0000
0000
0000
0000
0000
0000
0000
0000
0000
0000
0000
0000
0000
0000
0000
0000
0000
0000
0000
0000
0M00
0000
0000
0000
0000
0000
0000
0000
0000
0000
0000
0000
0000
0000
0000
0000
0000
0000
0000
0000
0000
0000
0000
0000
0000
0000
0000
0000
0000
0000
0000
0000
0000
0000
0000
0000
0M00
0000
0000
0000
0000
0000
0000
0000
0000
0000
0000
0000
0000
0000
0000
0000
0000
0000
0000
0000
0000
0000
0000
0000
0000
0000
0000
0000
0000
0000
0000
0000
0000
0000
0000
0000
0000
0000
0000
0000
0000
0000
0000
0000
0000
0000
0000
0000
0000
0000
0000
0000
0000
0000
0000
0000
0000
0000
0000
0000
0000
0000
0000
0000
0000
0000
0000
0000
0000
0000
0000
0000
,
0000
0000
0000
0000
0000
0000
0000
0000
0000
0000
0000
0000
0000
0000
0000
0000
0000
0000
0000
0000
0000
0000
0000
0000
0000
0000
0000
0000
0000
0000
0000
0000
0000
0000
0000
0000
0000
0000
0000
0000
0000
0000
0000
0000
0000
0000
0000
0000
0000
0000
0000
0000
0000
0000
0000
0000
0000
0000
0000
0000
0000
0000
0000
0000
0000
0000
0000
0000
0000
0000
0000
0000
0000
0000
0000
0000
0000
0000
0000
0000
0000
0000
0000
0000
0000
0000
0000
0000
0000
0000
0000
0000
0000
0000
0000
0000
0000
0000
0000
0000
0000
0000
0000
0000
0000
0000
0000
0000
0000
0000
0000
0000
0000
0000
0000
0000
0000
0000
0000
0000
0000
0000
0000
0000
0000
0000
0000
0000
0000
0000
0000
0000
00M0
0000
0000
0000
0000
0000
0000
0000
0000
0000
0000
0000
0000
0000
0000
0000
0000
0000
0000
0000
0000
0000
0000
0000
0000
0000
0000
0000
0000
0000
0000
00M0
0000
0000
0000
0000
0000
0000
0000
0000
0000
0000
0000
0000
0000
0000
0000
0000
0000
0000
0000
0000
0000
0000
0000
0000
0000
0000
0000
0000
,
00M0
0000
0000
0000
,
0000
0000
0000
0000
0000
0000
0000
0000
0000
0000
0000
0000
0000
0000
0000
0000
0000
0000
0000
0000
0000
0000
0000
0000
0000
0000
0000
0000
0000
0M00
0000
0000
0000
0000
0000
0000
0000
0000
0000
0000
0000
0000
0000
0000
0000
0000
0000
0000
0000
0000
0000
0000
0000
0000
0000
0000
0000
0000
0M00
0000
0000
0000
0000
0000
0000
0000
0000
0000
0000
0000
0000
0000
0000
0000
0000
0000
0000
0000
0000
0000
0000
0000
0000
0000
0000
0000
0M00
0000
0000
0000
0000
0000
0000
0000
0000
0000
0000
0000
0000
0000
0000
0000
0000
0000
0000
0000
0M00
0000
0000
0000
0000
0000
0000
0000
0000
0000
0000
0000
0000
0000
0000
0000
0000
0000
0000
0000
0000
0000
0000
0000
0000
0000
0000
0000
0000
0000
0000
0000
0000
0000
0000
0000
0000
0000
0M00
0000
0000
0000
0000
0000
0000
0000
0000
0000
0000
0000
0000
0000
0000
0000
0000
0000
0000
0000
0000
0000
0000
0000
0000
0000
0000
0000
0000
0000
0000
0000
0000
0000
0000
0000
0000
0000
0000
0000
0000
0000
0000
0000
0000
0000
0000
0000
,
0000
0000
0000
0000
0000
0000
0000
0000
0000
0000
0000
0000
0000
0000
0000
0000
0000
0000
0000
0000
0000
0000
0000
0000
0000
0000
0000
0000
0000
0000
0000
0000
0000
0000
0000
0000
0000
0000
0000
0000
0000
0000
0000
0000
0000
0000
0000
0000
0000
0000
0000
0000
0000
0000
0000
0000
0000
0000
0000
0000
0000
0000
0000
0000
0000
0000
0000
0000
0000
0000
0000
0000
0000
0000
0000
0000
0000
00M0
0000
0000
0000
0000
0000
0000
0000
0000
0000
0000
0000
0000
0000
00M0
0000
0000
0000
0000
,
0000
0000
0000
0000
0000
0000
0000
0000
0000
0000
0000
0000
0000
0000
0000
0000
0000
0000
0000
00M0
0000
0000
0000
0000
0000
0000
0000
0000
0000
0000
0000
0000
0000
0000
0000
0000
0000
0000
0000
0000
0000
0000
0000
0000
0000
0000
0000
0000
0000
0000
0000
0000
0000
0000
0000
0000
0000
0000
0000
0000
0000
0000
0000
0000
0000
0000
0000
0000
0000
0000
0000
0000
0000
0000
0000
0000
0000
0000
0000
0000
0000
0000
0000
0000
0000
0000
0000
0000
0000
0000
0000
0000
0000
0000
0000
0000
0000
0000
0000
0000
0000
0000
0000
0000
0000
0000
0000
0000
0000
0000
0000
0000
0000
0000
0000
0000
0000
0000
0000
0000
0000
0000
0000
0000
0000
0000
0000
0000
0000
0000
0000
0000
0000
0000
0000
0000
0000
0000
0000
0000
0000
0000
0000
0000
0000
0000
0000
0000
0000
0000
0000
0000
0000
0000
0000
0000
0000
0000
0000
0000
0000
0000
0000
0000
0000
0000
0000
0000
0000
0000
0000
0000
0000
0000
0000
0000
0000
0000
0000
0000
0000
0000
0000
0000
0000
0000
0000
0000
0000
0000
0000
0000
;
