#VERSION:0.83;
#TITLE:éclair au chocolat;
#SUBTITLE:;
#ARTIST:kamome sano;
#TITLETRANSLIT:;
#SUBTITLETRANSLIT:;
#ARTISTTRANSLIT:;
#GENRE:;
#CREDIT:;
#MUSIC:eclair au chocolat.ogg;
#BANNER:eclair au chocolat.png;
#BACKGROUND:eclair au chocolat-bg.png;
#CDTITLE:;
#SAMPLESTART:21.709;
#SAMPLELENGTH:10.549;
#SELECTABLE:YES;
#OFFSET:-0.606;
#BPMS:0.000=182.000;
#STOPS:;
#TIMESIGNATURES:286.000=2=4,
288.000=4=4
;
#DISPLAYBPM:182.000;
#JACKET:eclair au chocolat-jacket.png;
#BGCHANGES:;
#FGCHANGES:;

//--------------- dance-single - ----------------
#NOTEDATA:;
#STEPSTYPE:dance-single;
#DESCRIPTION:;
#DIFFICULTY:Beginner;
#METER:2;
#RADARVALUES:0,0,0,0,0;
#CREDIT:Kikoia;
#NOTES:
0000
0000
0000
0000
,
0000
0000
0000
0000
,
0000
0000
0000
0000
,
0000
0000
0000
0000
,
0000
0000
0000
0000
,
0000
0000
0000
0000
,
0000
0000
0000
0000
,
0000
0000
0000
0000
,
0001
0000
0000
0000
,
0000
0000
0000
0000
,
1000
0000
0000
0000
,
0000
0000
0000
0000
,
0100
0000
0000
0000
,
0000
0000
0000
0000
,
0010
0000
0000
0000
,
0000
0000
0000
0000
,
0001
0000
0000
0000
,
0000
0000
0000
0000
,
1000
0000
0000
0000
,
0000
0000
0000
0000
,
0010
0000
0000
0000
,
0000
0000
0000
0000
,
0100
0000
0000
0000
,
0000
0000
0000
0000
,
0001
0000
0000
0000
,
0001
0000
0000
0000
,
1000
0000
0000
0000
,
1000
0000
0000
0000
,
0100
0000
0000
0000
,
0100
0000
0000
0000
,
0010
0000
0000
0000
,
0010
0000
0000
0000
,
1001
0000
0000
0000
,
0000
0000
0000
0000
,
0000
0000
0000
0000
,
0000
0000
0000
0000
,
0000
0000
0000
0000
,
0000
0000
0000
0000
,
0000
0000
0000
0000
,
0000
0000
0000
0000
,
0001
0000
0000
0000
,
0001
0000
0000
0000
,
1000
0000
0000
0000
,
1000
0000
0000
0000
,
0001
0000
0000
0000
,
0200
0000
0300
0000
,
0001
0000
0000
0000
,
0001
0000
0000
0000
,
0010
0000
0000
0000
,
0010
0000
0000
0000
,
0100
0000
0000
0000
,
0100
0000
0000
0000
,
1000
0000
0000
0000
,
1000
0000
0000
0000
,
0001
0000
0000
0000
,
0001
0000
0000
0000
,
0100
0000
0000
0000
,
0000
0000
0000
0000
,
0010
0000
0000
0000
,
0000
0000
0000
0000
,
1000
0000
0000
0000
,
0000
0000
1001
1001
,
0000
0000
0000
0000
,
0000
0000
0000
0000
,
2002
0000
0000
0000
,
0000
0000
0000
0000
,
3003
0000
0000
0000
,
0000
0000
0000
0000
,
0001
0000
0000
0000
,
0000
0000
0000
0000
,
0010
0000
0000
0000
,
0100
0000
0000
0000
,
0000
1001
0000
0000
,
0000
0000
0000
0000
,
0001
0000
0000
0000
,
0100
0000
0000
0000
,
0010
0000
0000
0000
,
0010
0000
0000
0000
,
1000
0000
0000
0000
,
1000
0000
0000
0000
,
0000
0000
0000
2002
0000
0000
0000
0000
,
0000
0000
0000
0000
,
0000
0000
0000
3003
;

//--------------- dance-single - ----------------
#NOTEDATA:;
#STEPSTYPE:dance-single;
#DESCRIPTION:;
#DIFFICULTY:Easy;
#METER:4;
#RADARVALUES:0,0,0,0,0;
#CREDIT:Kikoia;
#NOTES:
0000
0000
0000
0000
,
0000
0000
0000
0000
,
0000
0000
0000
0000
,
0000
0000
0000
0000
,
0000
0000
0000
0000
,
0000
0000
0000
0000
,
0000
0000
0000
0000
,
0000
0000
0000
0000
,
0001
0000
1000
0000
,
0001
0001
0001
0000
,
1000
0000
0001
0000
,
1000
1000
1000
0000
,
0010
0000
0100
0000
,
0010
0010
0010
0000
,
0100
0100
0100
0000
,
0001
1000
0001
1000
,
1001
0000
0000
0000
,
0000
0000
0000
0000
,
1000
0000
0100
0000
,
0010
0000
0001
0000
,
1000
0000
0010
0000
,
0100
0000
0001
0000
,
1000
0000
0010
0000
,
1000
0000
0001
0000
,
0001
0000
0010
0000
,
0100
0000
1000
0000
,
0010
0000
0100
0000
,
0001
0000
1000
0000
,
0100
0000
1000
0000
,
0001
0000
0100
0000
,
0001
0001
0001
0000
,
1000
1000
1000
0000
,
1001
0000
0000
0000
,
0000
0000
0000
0000
,
0000
0000
0000
0000
,
0000
0000
0000
0000
,
1000
0001
1000
0000
,
0001
1000
0001
0000
,
1000
0001
1000
0000
,
0001
1000
0001
0000
,
0100
0000
0100
0000
,
0010
0000
0010
0000
,
0100
0000
0100
0000
,
0001
0000
0001
0000
,
1000
0000
1000
0000
,
0100
0000
0000
0000
,
0100
0000
0100
0000
,
1000
0000
1000
0000
,
0001
0000
0100
0000
,
0010
0010
0010
0000
,
1000
0000
0100
0000
,
0010
0010
0010
0000
,
1000
0000
0010
0000
,
0100
0100
0100
0000
,
0001
0000
0010
0000
,
0100
0100
0100
0000
,
1000
0000
0001
0000
,
1001
0000
0000
0000
,
0001
0000
1000
0000
,
0110
0000
0000
0000
,
0010
0000
0100
0000
,
0000
0000
1001
1001
,
0000
0000
0000
0000
,
0000
0000
0000
0000
,
0000
0000
0000
0000
,
0000
0000
0000
0000
,
0001
0000
0000
0000
,
0010
0000
0000
0000
,
0100
0000
0100
0000
,
1000
0000
1000
0000
,
0010
0000
0100
0000
,
0001
0000
0000
0000
1000
0000
0000
1000
,
0000
1001
0000
0001
,
0000
0010
0000
0100
,
0000
1000
0000
0010
,
0000
0100
0000
0001
,
0000
1000
0000
0100
,
0000
0010
0000
0001
,
1000
1000
1000
0000
,
0001
0001
0001
0001
,
0000
0000
0000
2002
0000
0000
0000
0000
,
0000
0000
0000
0000
,
0000
0000
0000
3003
;

//--------------- dance-single - ----------------
#NOTEDATA:;
#STEPSTYPE:dance-single;
#DESCRIPTION:;
#DIFFICULTY:Medium;
#METER:10;
#RADARVALUES:0,0,0,0,0;
#CREDIT:Kikoia;
#NOTES:
0000
0000
0000
0000
,
0000
0000
0000
0000
,
0000
0000
0000
0000
,
0000
0000
0000
0000
,
0000
0000
0000
0000
,
0000
0000
0000
0000
,
0000
0000
0000
0000
,
0000
0000
0000
0000
,
1000
1000
0001
1000
,
0001
0001
1000
0001
,
0100
0100
0010
0100
,
0001
0010
0011
0000
,
0001
1000
0001
0001
,
1000
0001
1000
1000
,
0001
0100
0001
0000
1000
0100
1000
0000
,
0002
0023
2030
3200
,
0302
0000
0000
0000
,
0000
0000
0000
0000
0003
1000
1001
0000
,
1000
0010
1000
0000
0001
0010
0001
0000
,
2000
3020
0230
0302
,
0013
0000
0010
0000
0001
0100
0010
2000
,
0000
3001
2000
0000
3200
0000
0320
0000
,
0031
0100
1000
0100
,
0001
0010
1000
0010
,
0001
0000
1000
0010
0000
0100
0001
0100
,
0000
0001
1000
0001
0000
1000
0100
1000
,
0200
0000
0000
0010
0310
0000
0000
0000
,
0002
0023
0230
2300
,
3010
0000
0010
0000
1000
0100
0010
0002
,
0000
1003
0002
0000
0203
0000
0320
0000
,
1030
0100
0001
0100
,
1000
0010
0001
0010
,
1000
0000
0000
0000
,
0000
0000
0000
0000
,
0001
0000
0000
0100
0000
0000
0100
0000
,
0000
0001
0000
0000
0001
0000
1000
0000
,
1000
0000
0000
0100
0000
0000
0100
0000
,
0000
0100
0000
0000
1000
0000
1000
0000
,
0001
0000
0000
0010
0000
0000
0100
0000
,
0000
1000
0000
0000
0010
0000
1000
0000
,
0001
0000
0001
0000
1000
0000
0100
0010
,
0000
0010
0001
0000
1000
0000
0010
0000
,
1000
0000
1000
0000
0001
0000
0100
0010
,
0000
0010
1000
0000
0100
0000
0100
0000
,
1000
1000
0010
0100
,
0002
0000
0000
0000
,
0013
0000
0010
0000
0100
0000
1000
0001
,
0000
0001
1000
0000
0110
0000
1001
0000
,
0001
0100
0001
0100
0010
0100
0010
0000
,
1000
0100
1000
0100
0010
0000
0001
0000
,
1000
0010
1000
0010
0100
0001
0100
0000
,
0001
1000
0001
1000
0100
0000
1000
0000
,
0001
0010
0001
0010
0001
1000
0001
0000
,
0100
0010
0100
0010
1000
0000
1000
0000
,
0001
0001
0100
0100
,
0001
0000
1000
0000
0001
1000
0002
0000
,
1003
0000
0100
0000
1000
0010
1000
0000
,
0002
0010
1000
0103
,
0001
0000
0010
0000
0001
0100
0001
0000
,
2000
0010
0001
3100
,
1000
0000
0100
0000
0010
0001
0010
0000
,
0001
1000
0110
1001
,
0001
0000
0100
0000
0010
1000
0001
1000
,
0001
0000
1000
0100
0010
0000
0001
0100
,
0020
0000
0000
0000
,
0000
0000
0000
0000
0000
0000
0000
0000
0000
0000
0000
0000
0000
0000
0000
0000
0000
0000
0000
0000
0000
0000
0000
0000
0000
0000
0000
0000
0000
0000
0000
0000
0000
0000
0000
0000
0000
0000
0000
0000
0000
0000
0000
0000
0000
0000
0000
0000
0000
0000
0000
0000
0000
0000
0000
0000
0000
0000
0000
0000
0000
0000
0000
0000
0000
0000
0000
0000
0000
0000
0000
0000
0000
0030
0000
0000
0000
0000
0000
0000
0000
0000
0000
0000
0000
0000
0000
0000
0000
0000
0000
0000
0000
0000
0000
0000
,
2000
0000
0000
0000
,
3001
0000
0000
0000
,
0010
0000
0010
0000
,
0100
0000
0100
0000
,
1000
0001
1000
0001
,
1000
0000
0000
0000
0110
0000
0000
1001
,
0000
0000
1001
0000
1000
0100
1000
0100
,
0000
1000
0001
1000
0000
0001
0100
0001
,
0200
0000
0000
0010
0310
0000
2000
0000
,
3002
0023
0230
2300
,
3020
0000
0230
0000
0301
0100
0010
2000
,
0000
3001
2000
0000
3200
0000
0320
0000
,
0031
0100
1000
0100
,
0002
0023
2030
3200
,
0300
0000
0000
2002
0000
0000
0000
0000
,
0000
0000
0000
0000
,
0000
0000
0000
3003
;

//--------------- dance-single - ----------------
#NOTEDATA:;
#STEPSTYPE:dance-single;
#DESCRIPTION:;
#DIFFICULTY:Hard;
#METER:14;
#RADARVALUES:0,0,0,0,0;
#OFFSET:-0.606;
#BPMS:0.000=182.000
,64.000=91.000
,66.750=364.000
,67.500=182.000
,177.000=91.000
,179.000=182.000
,223.000=91.000
,225.000=182.000
,229.000=91.000
,231.000=182.000
,237.000=364.000
,239.000=182.000
,277.000=364.000
,278.063=182.000
;
#STOPS:66.750=0.206
,237.000=0.165
,238.000=0.165
,277.000=0.165
,277.500=0.165
,278.000=0.175
;
#SPEEDS:311.500=5.000=4.500=0;
#TIMESIGNATURES:64.000=5=4,
69.000=4=4,
237.000=2=4,
239.000=4=4
;
#DISPLAYBPM:91.000:182.000;
#CREDIT:Kikoia;
#NOTES:
0000
0000
0000
0000
,
0000
0000
0000
0000
,
0000
0000
0000
0000
,
0000
0000
0000
0000
,
0000
0000
0000
0000
,
0000
0000
0000
0000
,
0000
0000
0000
0000
,
0000
0000
0000
0000
,
0001
0100
0010
0100
0002
0000
0010
0000
,
1003
0100
0010
0100
2000
0000
0010
0000
,
3001
1000
0001
1000
0200
0000
0010
0000
,
1300
0001
1000
0001
0200
0000
0010
0000
,
0301
0010
0001
0000
1000
0100
1000
0000
,
0010
1000
0010
0000
0100
0001
0100
0000
,
0010
1000
0100
0000
0010
0001
0100
0000
,
0001
0100
1000
0100
0001
0100
1000
0100
,
0002
0000
0000
0000
0000
0000
0000
0000
0000
0000
0000
0003
0000
0000
1000
0000
,
2002
3003
0001
0010
0001
0010
0100
1000
,
0010
0100
0001
0002
1000
0000
0013
0010
,
0200
0000
0301
0100
2000
0000
3001
0100
,
1000
0200
0000
0301
0010
0001
1000
0001
,
0100
0100
0001
1000
0001
1000
0100
1000
,
0100
1000
0001
0010
0100
1000
0010
0100
,
0110
0000
1001
0001
1000
0020
0000
1030
,
0001
0020
0000
0031
1000
0200
0000
1300
,
1000
0001
0010
0100
0010
0100
1000
0010
,
0100
0001
0020
0000
0230
0000
1300
1000
,
0020
0000
0130
0001
0100
0001
1000
0100
,
0010
0002
0000
1003
0010
0001
0010
1000
,
0100
0100
1000
0010
1000
0010
0100
0001
,
0100
0001
0010
0100
1000
0010
0100
0001
,
1000
0001
2001
0000
0000
0100
0000
0000
,
0001
0000
0000
0010
0000
0000
3001
1000
,
0010
0100
0002
0000
0000
0100
0000
0000
,
1000
0000
0000
0010
0000
0000
1003
1000
,
0001
0010
0100
2000
0000
3100
0002
0000
,
0100
2003
0000
3100
0002
0000
0103
0000
,
1000
0001
0100
2000
0000
3100
0002
0000
,
0103
2000
0000
3100
0002
0000
1003
2002
,
3003
1000
0001
0100
0010
0100
0001
0010
,
0100
1000
0000
0001
0100
0010
1000
0100
,
1000
0001
1000
0010
0100
0010
1000
0001
,
0010
0000
0100
0000
0000
0000
1000
0001
1000
0000
0010
0000
1000
0000
1000
0000
,
0001
0001
0010
0100
0010
0001
1000
0010
,
0100
0000
0000
0000
0001
0000
0000
0000
2000
3000
0200
0300
2000
3000
2000
3000
0002
0003
0200
0300
0002
0003
0002
0003
1000
0000
0000
0000
0010
0000
0000
0000
,
0100
0000
0001
0000
0010
0000
1000
0000
0010
0000
0001
0000
0000
0000
1000
0100
,
1000
0000
0001
0100
0001
0000
1000
0000
1001
0000
0000
0000
1000
0000
0001
0100
,
0010
0000
1000
0000
0100
0000
0001
0000
0100
0000
0100
0000
1000
0000
0001
0010
,
0100
0000
1000
0000
0010
0100
0000
0100
0001
0000
1000
0000
0010
0000
1000
0000
,
0100
0010
0001
0000
0100
0000
0001
0000
0020
0000
0000
0000
0031
0000
0001
0000
,
1000
0000
1000
0000
0001
1000
0000
1000
0010
0000
0100
0000
0001
0000
0100
0000
,
1000
0000
0100
0001
0100
0000
0010
0000
1000
0000
0100
0000
0010
0000
0010
0000
,
0001
1000
0002
0000
0000
0000
2003
0000
0000
0000
3010
0000
0100
0000
0100
0000
,
0001
0000
1000
0000
0100
0010
0100
0000
1000
0000
0100
0000
0010
0000
0010
0000
,
0001
0001
1000
0010
0100
0001
0010
0100
,
0010
0000
0000
0000
0100
0000
0000
0000
1000
0000
0000
0000
0001
0000
0000
0000
0100
0000
0000
0000
0010
0000
0000
0000
2000
3002
0003
0002
2003
3000
2000
3000
,
0200
0300
0020
0030
0002
0003
2000
3000
0010
0000
0000
0000
0100
0000
0000
0000
0010
0000
0000
0000
0100
0000
0000
0000
0001
0000
0000
0000
1000
0000
0000
0000
,
0100
0000
0000
0000
0010
0000
0000
0000
0001
1000
0001
0000
0100
0001
0100
0000
0010
1000
0000
1000
0001
0000
0010
0000
0001
0000
0000
0000
0010
0000
0000
0000
,
0001
0010
0100
1000
0010
0200
0000
0310
,
1000
0000
0000
0000
0001
0000
0000
0000
2002
3003
0000
0000
0000
0000
0000
0000
2002
0000
3003
0000
0000
0000
0000
0000
1000
0000
0000
0000
0100
0000
0000
0000
,
0010
0001
0100
0010
1000
0002
0000
0013
,
1000
0010
0001
1000
0010
0010
0200
0000
,
0000
0000
0000
0000
,
0000
0000
0000
0000
0000
0000
0300
0000
0000
0001
0000
1000
,
0010
0000
0010
0100
0000
0100
0001
0000
0001
0020
0000
0000
,
2030
0000
3200
0000
0302
0000
1003
0001
,
0000
0001
0000
0001
0000
0001
0000
1000
,
0000
1000
0000
0100
0000
0100
1000
0010
,
0100
0001
0100
0000
0001
0000
0010
0000
0100
1000
0100
0000
1000
0000
0001
0100
,
0010
0000
0000
0000
0000
0000
0000
0000
0000
0000
0000
0000
0000
0000
0000
0000
0220
0330
0000
0000
0000
0000
0000
0000
0220
0330
0000
0000
0000
0000
0000
0000
2002
3003
0000
0000
0000
0000
0000
0000
0001
0000
0000
0000
1000
0000
0000
0000
0001
0000
0000
0000
0000
0000
0000
0000
0010
0000
0000
0000
0000
0000
0000
0000
,
0010
0001
1000
0200
0000
1300
0001
0200
,
0000
0301
0001
1000
0010
0100
0010
0100
,
0001
0010
0100
1000
0020
0000
0230
0000
,
0301
1000
0200
0000
0310
0001
0010
0001
,
1000
0001
0100
0020
0000
1030
0100
0001
,
0100
1000
0010
0010
0100
0001
0100
1000
,
0100
0001
0010
1000
0010
0001
1000
0010
,
1000
0001
0100
0010
0000
0000
0000
2002
,
0000
0000
0000
0000
,
0000
0000
0000
0000
,
0000
3003
0000
0000
;

//--------------- dance-single - ----------------
#NOTEDATA:;
#STEPSTYPE:dance-single;
#DESCRIPTION:;
#DIFFICULTY:Challenge;
#METER:17;
#RADARVALUES:0,0,0,0,0;
#OFFSET:-0.606;
#BPMS:0.000=182.000
,64.000=91.000
,66.750=364.000
,67.500=182.000
,177.000=91.000
,179.000=182.000
,223.000=91.000
,225.000=182.000
,229.000=91.000
,231.000=182.000
,237.000=364.000
,239.000=182.000
,277.000=364.000
,278.063=182.000
;
#STOPS:66.750=0.206
,237.000=0.165
,238.000=0.165
,277.000=0.165
,277.500=0.165
,278.000=0.175
;
#SPEEDS:311.500=5.000=4.500=0;
#TIMESIGNATURES:64.000=5=4,
69.000=4=4,
237.000=2=4,
239.000=4=4
;
#DISPLAYBPM:91.000:182.000;
#CREDIT:Kikoia;
#NOTES:
0000
0000
0000
0000
,
0000
0000
0000
0000
,
0000
0000
0000
0000
,
0000
0000
0000
0000
,
0000
0000
0000
0000
,
0000
0000
0000
0000
,
0000
0000
0000
0000
,
0000
0000
0000
0000
,
1000
0001
0010
0001
0100
0000
0001
1000
,
0001
0010
0001
0100
0001
1000
0100
0010
,
0001
1000
0010
1000
0100
0000
1000
0001
,
1000
0010
1000
0100
1000
0001
0100
0100
,
0001
0000
1000
0000
0010
0000
0100
0000
0001
1000
0100
0000
0010
0000
0001
0000
,
0100
0000
0010
0000
1000
0000
0100
0000
0010
0001
0100
0000
0010
0000
1000
0000
,
0100
1000
0010
0000
1000
0000
0001
0000
0100
0001
0010
0000
0001
0000
1000
0000
,
0001
0010
0100
1000
0001
0010
0100
1000
0001
0010
0100
1000
0001
0010
0100
1000
,
0020
0000
0000
0000
0000
0000
0000
0000
0000
0000
0000
0030
0000
0000
0100
0000
,
2002
3003
0001
0010
0100
1000
0001
0100
,
0010
0000
1000
0000
0100
0000
0100
0000
1000
0000
1000
0000
0010
0000
0100
0001
,
0020
0000
0130
1000
0010
1000
0100
0001
,
0100
2000
0000
3001
0100
1000
0100
0001
,
0010
0010
0001
0100
0010
0100
1000
0100
,
0001
0010
1000
0010
0001
1000
0100
0010
,
0001
0000
1000
0001
0010
0000
0001
0000
1000
0000
0010
0000
0010
0000
1000
0000
,
0001
0010
0010
0100
1000
0010
0010
0100
,
0001
1000
0001
1000
0100
0000
0010
0000
0002
0000
0100
0000
0103
0000
0010
0000
,
1000
0000
0100
0000
0001
0000
0100
0000
1000
0000
0001
0000
0010
0000
0001
1000
,
0020
0000
0130
0001
0010
0001
1000
0100
,
0010
0000
0002
0000
0000
0000
1003
0000
0010
0000
0100
0000
0001
1000
0001
0000
,
1000
0100
1000
0010
0001
0010
1000
0001
,
0010
1000
0010
0001
1000
0010
0100
1000
,
0100
0000
0001
1000
0002
0000
0100
0000
0000
0000
2003
0000
0100
0000
0000
0000
,
3002
0010
0000
2003
0010
0000
3002
0000
,
0023
0230
2300
0010
0000
3002
0010
0000
,
2003
0100
0000
3002
0100
0000
1003
0001
,
0100
0010
0100
0010
1000
0000
0001
1000
0001
0000
0100
0000
0001
0100
0001
0000
,
1000
0000
0100
1000
0100
0000
0010
0000
0001
0010
0001
0000
1000
0000
0010
0000
,
0100
0000
0001
0000
0010
0000
0001
1000
0001
0000
1000
0000
0100
1000
0100
0000
,
0010
0000
0001
0010
0001
0000
0100
0000
0220
0000
0330
0000
0001
0000
2002
0000
,
3003
1000
0001
0010
1000
0010
0001
0100
,
0010
1000
0000
0100
0010
0001
1000
0010
,
1000
0100
0010
0000
0001
0000
1000
0000
0010
0000
0001
0000
0010
0000
1000
0000
,
0001
0000
0010
0000
0000
0000
0001
0100
0001
1000
0100
0010
0001
1000
0010
0000
,
0100
0000
0010
1000
0001
0000
1000
0000
0100
0000
0001
0000
0100
0000
1000
0000
,
0001
0000
0000
0000
0010
0000
0000
0000
0200
0300
2000
3000
0020
0030
2000
3000
0002
0003
0200
0300
2000
3000
0200
0300
0001
0000
0000
0000
1000
0000
0000
0000
,
0010
0000
1000
0000
0100
0000
0010
0000
0001
0000
1000
0000
0000
0000
1000
0100
,
1000
0001
0100
0001
1000
0100
0010
0001
0100
0010
1000
0001
0010
0100
0010
0100
,
1000
0000
0001
1000
0010
0000
0100
0000
0010
0000
1000
0001
0010
0100
0010
0100
,
1000
0000
0010
0100
0001
1000
0000
0100
0010
0000
0001
0000
0100
0010
0100
0010
,
1000
0000
0100
0010
0100
0010
0001
0000
1000
0000
0010
0000
0100
0001
0100
0000
,
0001
1000
0001
0000
0010
0001
0010
0000
0100
0000
1000
0010
0100
0000
0001
1000
,
0100
0000
1000
0001
0100
0010
1000
0000
0001
0000
0010
0100
1000
0001
1000
0000
,
0010
0100
0010
0000
1000
0000
0100
0000
0010
0001
0010
0001
1000
0000
0010
0000
,
1000
0000
0100
0010
0001
0000
0001
0000
0100
0000
0010
0000
1000
0001
1000
0000
,
0001
0100
0001
0000
1000
0100
0010
0001
1000
0000
1000
0000
0001
0000
0100
0000
,
1000
0000
0000
0000
0100
0000
0001
0000
0010
0000
0000
0000
0100
0000
0000
0000
1000
0000
0000
0000
0001
0000
0000
0000
1000
0010
0000
0100
0001
0000
0010
0100
,
1000
0100
1000
0001
0100
0001
0100
0010
1000
0000
0000
0000
0100
0000
0000
0000
0001
0000
0000
0000
0100
0000
0000
0000
1000
0000
0000
0000
0010
0000
0000
0000
,
0100
0000
0000
0000
0000
0000
0000
0000
0000
0000
0000
0000
0001
0000
0000
0000
0000
0000
0000
0000
0000
0000
0000
0000
1000
0000
0000
0100
0000
0000
1000
0000
0000
0000
0000
0000
0001
0000
0010
0000
0100
0000
1000
0000
0000
0001
0000
0000
0100
0000
0000
0010
0000
0000
0000
0000
0000
0110
0000
0000
0000
0000
0000
0000
0000
0000
1001
0000
0000
0000
0000
0000
0001
0000
0000
0000
0000
0000
0000
0000
0000
0000
0000
0000
0010
0000
0000
0000
0000
0000
0000
0000
0000
0000
0000
0000
,
1000
0010
0001
0100
0010
1000
0100
1000
,
0001
0010
0220
0330
2002
3003
0001
1000
,
0010
0000
1000
0000
0100
0000
0010
0000
0001
0000
0100
0000
0010
1000
0010
1000
,
0001
0100
0001
0100
0001
0010
0100
1000
0010
0100
0001
0010
0200
0000
0000
0000
,
0000
0000
0000
0000
,
0000
0000
0000
0000
0000
0000
0000
0000
0000
1300
0010
1000
,
0010
0100
0010
0100
0001
1000
0100
0001
0100
2000
0000
0000
,
3001
0000
0100
0000
1000
0000
0100
0000
0001
0000
0010
0000
0200
0000
0000
0000
0000
0000
1300
0000
0000
0001
0000
0000
,
0000
0001
0000
0001
0000
0001
0000
0100
,
0000
0000
0100
0000
0000
0000
0010
0000
0000
0000
0010
0000
1000
0001
1000
0001
,
0010
0100
0010
0100
1000
0010
0100
0001
1000
0100
0010
0001
0100
0010
1000
0001
,
0010
0000
0000
0000
0000
0000
0000
0000
0000
0000
0000
0000
0000
0000
0000
0000
2002
3003
0000
0000
0000
0000
0000
0000
0220
0330
0000
0000
0000
0000
0000
0000
2002
3003
0000
0000
0000
0000
0000
0000
1000
0000
0000
0000
0001
0000
0000
0000
0010
0000
0000
0000
0000
0000
0000
0000
0100
0000
0000
0000
0000
0000
0000
0000
,
0001
0100
1000
0010
0001
0010
1000
0001
,
0010
0000
0100
0000
1000
0010
1000
0010
0100
0000
0001
0000
2000
0000
0010
0000
,
3010
1000
0001
0100
0010
0100
1000
0100
,
0001
0000
0010
0000
0100
0000
0001
0100
1000
0000
0001
0000
0010
0000
0001
0000
,
0100
0010
1000
0200
0000
1300
0001
0010
,
1000
0010
0001
0000
0100
0000
0001
0000
1000
0010
1000
0000
0001
0000
0010
0000
,
0100
1000
0100
0000
0010
0000
0001
0000
1000
0000
0010
0000
0001
0000
1000
0000
,
0100
0000
0001
1000
0100
0010
0001
0000
0000
0000
0000
0000
0000
0000
2002
0000
,
0000
0000
0000
0000
,
0000
0000
0000
0000
,
0000
3003
0000
0000
;
