#TITLE:You're Not Alone;
#SUBTITLE:;
#ARTIST:Owl City feat. Britt Nicole;
#TITLETRANSLIT:;
#SUBTITLETRANSLIT:;
#ARTISTTRANSLIT:;
#GENRE:WORLD MUSIC;
#CREDIT:;
#BANNER:You're Not Alone.png;
#BACKGROUND:You're Not Alone-bg.png;
#LYRICSPATH:;
#CDTITLE:;
#MUSIC:You're Not Alone.ogg;
#OFFSET:-0.134000;
#SAMPLESTART:44.784855;
#SAMPLELENGTH:14.245716;
#SELECTABLE:YES;
#BPMS:0.000000=84.000000
;
#STOPS:
;
#BGCHANGES:0.000=You're Not Alone.avi=1.000=1=0=0=StretchNoLoop==CrossFade==,
99999=-nosongbg-=1.000=0=0=0 // don't automatically add -songbackground-
;
#KEYSOUNDS:;
#ATTACKS:;

//---------------dance-single - ----------------
#NOTES:
     dance-single:
     :
     Beginner:
     2:
     0.086485,0.130602,0.013604,0.027209,0.000000,89.000000,87.000000,2.000000,4.000000,0.000000,0.000000,0.086485,0.130602,0.013604,0.027209,0.000000,89.000000,87.000000,2.000000,4.000000,0.000000,0.000000:
0000
0000
0000
0000
,
0000
0000
0000
0000
,
0000
0000
0000
0000
,
0000
0000
0000
0000
,
1000
0000
1000
0000
,
0001
0000
0001
0000
,
1000
0000
0001
0000
,
2000
0000
3000
0000
,
0001
0000
0010
0000
,
0100
0000
1000
0000
,
0001
0000
1000
1000
,
0000
0000
0000
0000
,
1000
0000
0010
0000
,
0100
0000
0001
0000
,
1000
0000
0001
0001
,
0000
0000
0000
0000
,
1000
0000
0100
0000
,
1000
0000
0100
0000
,
0010
0000
0001
0000
,
0010
0000
0001
0000
,
0100
0000
0010
0000
,
0100
0000
0010
0000
,
1000
0000
0001
0000
,
1000
0000
0001
0000
,
1000
1000
1000
0000
,
0010
0010
0010
0000
,
0100
0100
0100
0000
,
0001
0001
0001
0000
,
2000
0000
0000
0000
,
3000
0000
1000
0000
,
0002
0000
0000
0000
,
0003
0000
0001
0000
,
0100
0000
0100
0000
,
0100
0100
0100
0000
,
0020
0000
0000
0000
,
0000
0000
0030
0000
,
1000
0000
0001
0000
,
1000
0000
0001
0000
,
1000
0000
0001
0000
,
1001
0000
0000
0000
,
1000
0000
0010
0000
,
0100
0000
0001
0000
,
0010
0000
0100
0000
,
1000
0000
0010
0000
,
0100
0100
0100
0000
,
0001
0001
0001
0000
,
1000
1000
1000
0000
,
0010
0010
0010
0000
,
0110
0000
0000
0000
;

//---------------dance-single - ----------------
#NOTES:
     dance-single:
     :
     Easy:
     4:
     0.140902,0.190801,0.074824,0.129241,0.000000,145.000000,134.000000,11.000000,19.000000,0.000000,0.000000,0.140902,0.190801,0.074824,0.129241,0.000000,145.000000,134.000000,11.000000,19.000000,0.000000,0.000000:
0000
0000
0000
0000
,
0000
0000
0000
0000
,
0000
0000
0000
0000
,
0000
0000
0000
0000
,
1000
0000
0001
0000
,
1000
0000
0001
0000
,
1000
0000
0001
0000
,
1001
0000
0000
0000
,
1000
0010
1000
1000
,
0001
0010
0001
0001
,
1000
0010
0100
0001
,
0000
1000
2000
3000
,
0001
0100
0001
0001
,
1000
0100
1000
1000
,
0001
0010
0100
1000
,
0002
0000
0003
0000
,
1000
0010
0100
0010
,
1000
0100
0010
0100
,
1000
0001
1000
0100
,
0020
0000
0030
0000
,
0001
0010
0100
0010
,
0001
0100
0010
0100
,
0001
1000
0001
0100
,
0020
0000
0030
0000
,
1000
0100
1100
0000
,
0010
0001
0011
0000
,
0001
0100
0101
0000
,
0010
1000
1010
0000
,
0010
0100
0010
1000
,
0200
0300
0020
0030
,
0001
1000
0001
0010
,
0200
0300
0020
0030
,
0100
1100
0010
0011
,
0100
0010
0200
0300
,
2002
0000
0000
0000
,
0000
0000
3003
0000
,
0001
0100
0000
0100
,
0000
1000
0000
1000
,
0000
0010
0000
0010
,
0001
1000
2002
3003
,
0001
0100
1000
0100
,
0001
0010
0100
0010
,
0001
1000
0001
0100
,
0020
0000
0030
0110
,
0100
0001
1000
0010
,
0001
0010
1000
0100
,
0010
0100
1000
0001
,
1000
0010
0200
0300
,
0002
0000
0003
0000
,
2000
0000
3000
0000
,
2002
0000
0000
0000
,
3003
0000
0000
0000
;

//---------------dance-double - ----------------
#NOTES:
     dance-double:
     :
     Easy:
     4:
     0.133128,0.173455,0.047615,0.122439,0.000000,137.000000,130.000000,7.000000,18.000000,0.000000,0.000000,0.133128,0.173455,0.047615,0.122439,0.000000,137.000000,130.000000,7.000000,18.000000,0.000000,0.000000:
00000000
00000000
00000000
00000000
,
00000000
00000000
00000000
00000000
,
00000000
00000000
00000000
00000000
,
00000000
00000000
00000000
00000000
,
00001000
00000000
00010000
00000000
,
00001000
00000000
00010000
00000000
,
00001000
00000000
00010000
00000000
,
00011000
00000000
00000000
00000000
,
00001000
00100000
00001000
00000000
,
00010000
00000010
00010000
00000000
,
00001000
00100000
00010000
01000000
,
00000000
00001000
00002000
00003000
,
00010000
00000100
00010000
00000000
,
00001000
01000000
00001000
00000000
,
00010000
00000010
00001000
00000100
,
00020000
00000000
00030000
00000000
,
00001000
00010000
00100000
00010000
,
00001000
00100000
00010000
00100000
,
00001000
00010000
00100000
00010000
,
00002000
00000000
00003000
00000000
,
00010000
00001000
00000010
00001000
,
00010000
00000010
00001000
00000010
,
00010000
00001000
00000010
00001000
,
00020000
00000000
00030000
00000000
,
00001000
00100000
01100000
00000000
,
01000000
00010000
00011000
00000000
,
00010000
00000100
00000110
00000000
,
00000010
00001000
00011000
00000000
,
00010000
01000000
10000000
00100000
,
00020000
00000000
00002000
00033000
,
00001000
00000100
00000001
00000010
,
00002000
00000000
00020000
00033000
,
00001000
00000100
00001000
00010000
,
01000000
00010000
00002000
00000000
,
00020000
00000000
00000000
00000000
,
00000000
00000000
00033000
00000000
,
00010000
00100000
00000000
00100000
,
00000000
00001000
00000000
00001000
,
00000000
00000010
00000000
00000010
,
00010000
00001000
00022000
00033000
,
00010000
01000000
10000000
00100000
,
00010000
00001000
00100000
01000000
,
10000000
00100000
00010000
00001000
,
00000020
00000000
00000030
00000100
,
00000010
00000001
00000100
00001000
,
00010000
00000100
00000010
00000001
,
00000100
00001000
00010000
00100000
,
10000000
01000000
00200000
00300000
,
00020000
00000000
00030000
00000000
,
00002000
00000000
00003000
00000000
,
00002002
00000000
00000000
00000000
,
00003003
00000000
00000000
00000000
;

//---------------dance-single - ----------------
#NOTES:
     dance-single:
     :
     Medium:
     7:
     0.243906,0.277528,0.204065,0.299295,0.000000,251.000000,221.000000,30.000000,44.000000,0.000000,0.000000,0.243906,0.277528,0.204065,0.299295,0.000000,251.000000,221.000000,30.000000,44.000000,0.000000,0.000000:
0000
0000
0000
0000
,
0000
0000
0000
0000
,
0000
0000
0000
0000
,
0000
0000
0000
0000
,
1000
0001
1000
0001
,
0100
0010
0100
0010
,
1000
0100
0010
0001
,
2002
0000
0000
3003
,
1000
0010
1000
0000
0100
0000
1100
0000
,
0001
0100
0001
0000
0010
0000
0011
0000
,
1000
0001
1000
0000
0010
0000
0110
0000
,
0100
0001
0100
0020
0000
1000
1030
0000
,
1000
0100
1000
0000
0010
0000
1010
0000
,
0001
0010
0001
0000
0100
0000
0101
0000
,
1000
0001
1000
0000
0100
0000
0110
0000
,
0012
0000
1000
1003
0000
0000
0000
0000
,
1001
0000
1000
0010
0000
0100
0010
0000
,
1001
0000
0001
0100
0000
0010
0100
0000
,
0001
0010
0100
0000
1000
0100
0010
0000
,
0001
0100
0010
2000
0000
0001
3001
0000
,
0011
0000
0010
0100
0000
1000
0100
0000
,
1100
0000
0100
0010
0000
0001
0010
0000
,
0001
1000
0100
0000
1000
0001
0010
0000
,
0100
1000
0001
0020
0000
0100
0130
0000
,
2100
3020
0230
0302
,
0023
0000
2030
0000
3010
0001
0100
0000
,
0102
0023
0230
2300
,
3020
0000
0032
0000
0013
1000
0100
0000
,
0100
0010
0001
1000
0100
0010
0001
0100
,
0020
0000
1000
1000
1030
0000
1100
0000
,
0100
0010
0001
0000
0101
0000
1010
0000
,
2002
0000
3003
0001
0100
0010
0010
1000
,
0100
0001
0001
0000
0100
1000
1000
0000
,
0010
0001
0010
1000
1001
0000
0001
0010
,
0200
2300
3020
0032
,
0203
2300
3001
0000
,
0201
0010
0000
1000
,
0000
0010
0000
0301
,
1020
0100
0000
0001
,
2000
0000
0000
0000
3030
0000
1000
0100
,
0010
0001
0100
0000
0100
1000
0010
0000
,
0010
0001
0100
0010
1000
0001
0010
0000
,
0100
1000
0010
0000
0010
0001
0100
0000
,
0100
1000
0001
0200
0000
0010
0310
0000
,
0120
0000
2030
0000
3100
0010
0011
0000
,
0012
0000
2003
0000
3010
0100
0101
0000
,
0102
0000
0023
0000
0130
1000
1010
0000
,
1020
0000
0230
0000
0301
1000
1100
0000
,
2100
0000
0000
0000
0010
3020
0000
0000
,
0230
0000
0000
0000
0001
0302
0000
0000
,
2000
0000
0000
0000
,
3003
0000
0000
0000
;

//---------------dance-double - ----------------
#NOTES:
     dance-double:
     :
     Medium:
     8:
     0.237104,0.260183,0.149648,0.183658,0.000000,244.000000,222.000000,22.000000,27.000000,0.000000,0.000000,0.237104,0.260183,0.149648,0.183658,0.000000,244.000000,222.000000,22.000000,27.000000,0.000000,0.000000:
00000000
00000000
00000000
00000000
,
00000000
00000000
00000000
00000000
,
00000000
00000000
00000000
00000000
,
00000000
00000000
00000000
00000000
,
00011000
00001000
00100000
00010000
,
01000000
00001000
00010000
00000010
,
00001000
00000100
00010000
00001000
,
00022000
00000000
00000000
00033000
,
00010000
00001000
00000100
00000000
00000001
00000010
00001000
00000000
,
00010000
00001000
00000010
00000000
00000001
00000100
00001000
00000000
,
00010000
00001000
00000100
00000000
00000001
00000010
00000100
00000000
,
00000100
00000010
00001000
00020000
00000000
00001000
00031000
00000000
,
00001000
00010000
01000000
00000000
10000000
00100000
00010000
00000000
,
00001000
00010000
00100000
00000000
10000000
01000000
00010000
00000000
,
00001000
00010000
01000000
00000000
10000000
00100000
01000000
00000000
,
01000000
00100000
00020000
00002000
00000000
00000000
00033000
00000000
,
00011000
00001000
00000010
00000001
,
00001001
00000000
00001000
00000000
00000100
00000010
00000100
00000000
,
00010000
00001000
00000010
00000000
00001000
00010000
00100000
00000000
,
00010000
00001000
00000010
00000200
00000000
00010000
00010300
00000000
,
00011000
00010000
00100000
10000000
,
10010000
00000000
00010000
00000000
01000000
00100000
01000000
00000000
,
00001000
00010000
00100000
00000000
00010000
00001000
00000010
00000000
,
00001000
00010000
00100000
02000000
00000000
00001000
03001000
00000000
,
00011000
00100000
10000000
01000000
,
00011000
00000100
00000001
00000010
,
00011000
00000010
00000001
00000100
,
00011000
01000000
10000000
00100000
,
00010000
00001000
00000100
00000010
00010000
00001000
00000100
00000010
,
00002000
00000000
00000000
00000001
00003001
00000000
00000101
00000000
,
00000100
00001000
00010000
00000000
00011000
00000000
01010000
00000000
,
21000000
00000000
00000000
00100000
30100000
00000000
01100000
00000000
,
01000000
00010000
00100000
00000000
01000000
00010000
00001000
00000000
,
00000010
00000001
00001000
00000100
00000010
00000000
00000001
00000100
,
00002000
01000000
00023000
00000010
,
00032000
00203000
01300000
00000000
,
11000000
10000000
00000000
00100000
,
00000000
01000000
00000000
00010000
,
00011000
00001000
00000000
00000010
,
00000200
00000000
00000300
00000101
,
00000001
00000010
00001000
00000000
00001000
00010000
00100000
00000000
,
00100000
10000000
01000000
00100000
01000000
10000000
01000000
00000000
,
10000000
00100000
00010000
00000000
00010000
00001000
00000010
00000000
,
00000010
00000001
00000100
00000010
00000100
00000001
00000100
00000010
,
00002000
00000000
00003200
00000000
00000310
00001000
00011000
00000000
,
00020000
00000000
02030000
00000000
13000000
00100000
01100000
00000000
,
02000000
00000000
03020000
00000000
00130000
01000000
01010000
00000000
,
00020000
00000000
00032000
00000000
00003010
00000001
00000101
00000000
,
00000200
00000000
00000000
00000000
00000310
00002000
00000000
00000000
,
00023000
00000000
00000000
00000000
01030000
00002000
00000000
00000000
,
00020000
00000000
00000000
00000000
,
00033000
00000000
00000000
00000000
;

//---------------dance-single - ----------------
#NOTES:
     dance-single:
     :
     Hard:
     10:
     0.347882,0.416293,0.163252,0.258482,0.210867,358.000000,334.000000,24.000000,38.000000,0.000000,0.000000,0.347882,0.416293,0.163252,0.258482,0.210867,358.000000,334.000000,24.000000,38.000000,0.000000,0.000000:
// measure 0
0000
0000
0000
0000
,  // measure 1
0000
0000
0000
0000
,  // measure 2
0000
0000
0000
0000
,  // measure 3
0000
0000
0000
0000
,  // measure 4
0000
0000
0000
1000
0010
0000
1000
0000
0100
0000
0010
0000
0001
0000
0020
0000
,  // measure 5
0000
0030
0000
0001
0100
0010
1000
0020
,  // measure 6
0000
0030
0000
1000
0100
0010
0001
1000
,  // measure 7
2002
0000
0000
3003
,  // measure 8
0001
0000
0100
0000
0010
0000
0100
0001
0000
2000
0000
0000
3001
0000
0000
0000
,  // measure 9
1000
0000
0100
0000
0010
0000
0100
1000
0000
0002
0000
0000
1003
0000
0000
0000
,  // measure 10
0001
0000
0010
0000
0100
0000
1000
0010
1000
0000
0001
0000
0101
0000
0000
0000
,  // measure 11
0120
0000
1000
0000
0001
0000
1030
0100
,  // measure 12
0000
0000
0100
0000
0010
0000
0001
0100
0001
0000
1000
0000
1100
0000
0000
0000
,  // measure 13
0001
0000
0010
0000
0100
0000
1000
0010
1000
0000
0001
0000
0011
0000
0000
0000
,  // measure 14
1000
0000
0010
0000
0100
0000
0001
1000
0001
0000
0010
0000
0200
0000
0000
0000
,  // measure 15
2300
0000
0000
0000
0001
0000
3001
0000
0000
0000
0001
0000
0100
0000
0010
0100
,  // measure 16
0010
0000
1000
0000
0100
0000
0010
0100
0010
0000
0001
0000
0100
0000
0010
1000
,  // measure 17
0010
0000
1000
0000
0100
0000
0010
0001
0010
0000
0001
0000
1001
0000
0000
1000
,  // measure 18
0010
0000
0100
0000
0110
0000
0000
0001
0100
0000
0010
0100
0000
1000
0100
0000
,  // measure 19
0001
0000
0010
0000
0100
0000
2100
0000
0000
0000
0001
0000
3001
0000
0001
1000
,  // measure 20
0001
0000
0010
0000
0100
0000
1000
0001
1000
0000
0100
0000
0010
0000
0001
0100
,  // measure 21
0001
0000
0100
0000
0010
0000
1000
0100
1000
0000
0100
0000
0110
0000
0000
0010
,  // measure 22
0001
0000
1000
0000
1001
0000
0000
0100
1000
0000
0001
1000
0000
0010
1000
0000
,  // measure 23
0100
0000
0001
0000
0100
0000
1000
0000
0010
0000
0100
0000
0101
0000
0001
1000
,  // measure 24
0002
0000
0000
0203
0000
0000
0320
0000
0000
0000
1000
0000
1030
0000
0000
0000
,  // measure 25
2000
0000
0000
3200
0000
0000
0320
0000
0000
0000
0130
0000
1100
0000
1000
0001
,  // measure 26
2000
0000
0000
3200
0000
0000
0320
0000
0000
0000
0001
0000
0031
0000
0000
0000
,  // measure 27
0002
0000
0000
0203
0000
0000
0320
0000
0000
0000
0130
0000
0101
0000
0000
0000
,  // measure 28
0001
0000
0010
0000
1000
0000
0001
0000
0100
0000
1000
0000
0010
0000
0100
0010
,  // measure 29
0200
0000
1300
0100
0001
0000
0011
0010
,  // measure 30
0100
0000
1000
0000
0010
0000
0000
0010
0100
0000
0000
0100
0001
0000
0000
0001
,  // measure 31
2000
0000
0000
0000
0000
0000
3010
0100
0020
0000
0100
0000
0130
0000
0001
0000
,  // measure 32
0010
0000
0100
0000
1100
0000
0000
1000
0010
0000
0100
0001
0100
0000
0000
0001
,  // measure 33
0010
0000
0001
1000
0001
0000
1000
0200
0000
0000
0000
0310
0001
0000
0100
0000
,  // measure 34
0001
0010
0100
1000
0100
0010
0001
0100
,  // measure 35
1000
0100
0001
0100
1000
0000
0000
0000
,  // measure 36
0201
0010
0000
1000
,  // measure 37
0000
0010
0000
0301
,  // measure 38
1020
0100
0000
0001
,  // measure 39
1030
0000
0100
0000
0010
0000
0001
0100
0010
0000
1000
0100
0010
0000
0100
1000
,  // measure 40
0001
0000
0010
0000
0100
0000
0010
0001
1000
0000
0100
0000
0010
0000
0001
1000
,  // measure 41
0001
0000
0100
0000
0110
0000
0010
1000
0000
0010
0100
0000
0001
0000
0010
0100
,  // measure 42
0010
0000
0001
0000
1001
0000
1000
0010
1000
0000
0010
0100
0000
0010
0001
0000
,  // measure 43
0010
0000
0100
0010
0100
0000
1000
0000
0100
0000
0010
0000
1001
0000
1000
0001
,  // measure 44
0010
0000
0001
1000
0010
0000
0001
0000
0010
0000
1000
0000
0100
0000
0010
0000
,  // measure 45
0012
0000
0000
2003
0000
0000
3020
0000
0130
0000
0100
0001
1000
0000
0100
1000
,  // measure 46
0001
0100
1000
0100
0001
0010
0100
1000
,  // measure 47
1020
0000
0000
0230
0000
0000
0302
0000
1003
0000
0100
0000
0110
0000
0000
0000
,  // measure 48
1001
0000
0001
0000
0200
0000
0000
0000
0310
1000
0020
0000
0000
0000
0000
0000
,  // measure 49
0001
0000
0000
0000
0000
0000
0000
0000
1000
0000
2030
0000
0000
0000
3100
0010
,  // measure 50
0002
0000
0000
0000
,  // measure 51
0003
0000
0000
0000
;

//---------------dance-double - ----------------
#NOTES:
     dance-double:
     :
     Hard:
     13:
     0.405215,0.468329,0.142845,0.217669,0.312900,417.000000,396.000000,21.000000,32.000000,0.000000,0.000000,0.405215,0.468329,0.142845,0.217669,0.312900,417.000000,396.000000,21.000000,32.000000,0.000000,0.000000:
00000000
00000000
00000000
00000000
,
00000000
00000000
00000000
00000000
,
00000000
00000000
00000000
00000000
,
00000000
00000000
00000000
00000000
,
00010000
00001000
00000010
00000001
,
00000100
00001000
00010000
00100000
,
10000000
01000000
00010000
00001000
,
00000010
00000000
00000000
00000000
00000001
00000000
00001000
00000001
00002000
00000000
00000000
00000000
00000000
00000000
00003010
00000000
,
00000110
00000000
00000100
00000001
00000100
00000000
00000001
00000010
00000000
00000002
00000000
00000000
00001003
00000000
00000000
00000000
,
00001010
00000000
00000010
00010000
00000010
00000000
00010000
00001000
00000000
00200000
00000000
00000000
00310000
00000000
00000000
00000000
,
01010000
00000000
01000000
00100000
01000000
00000000
00100000
10000000
00100000
00000000
10000000
00000000
02000000
00000000
00000000
00000000
,
03100000
00000000
00100000
00010000
00100000
00000000
01000000
00000000
00010000
00000000
00001000
00000000
00011000
00000000
00000000
00000000
,
00010100
00000000
00000100
00001000
00000100
00000000
00000010
00000001
00000010
00000000
00000100
00000000
00000020
00000000
00000000
00000000
,
00000031
00000000
00000001
00000100
00000001
00000000
00001000
00000010
00001000
00000000
00000100
00000000
00020000
00000000
00000000
00000000
,
00031000
00000000
00001000
00100000
00001000
00000000
01000000
00010000
01000000
00000000
00100000
00000000
20000000
00000000
00000000
00000000
,
30010000
00000000
00010000
01000000
00010000
00000000
00200000
00000000
00000000
00000000
01300000
00000000
00010000
00000000
00001000
00010000
,
00011000
00000000
00001000
01000000
00001000
00000000
00010000
00000000
00100000
00000000
00010000
00000000
00002000
00000000
00103000
00000000
,
00001000
00000000
00010000
00000100
00010000
00000000
00001000
00000000
00000010
00000000
00001000
00000000
00020000
00000000
00030010
00000000
,
00010000
00000000
00001000
00000100
00001000
00000000
00010000
00000000
01000000
00000000
10000000
00100000
00000000
00010000
00100000
00000000
,
10000000
00000000
01000000
00100000
01000000
00000000
00010000
00000000
00000100
00000000
00001000
00000000
00000010
00000000
00010000
00001000
,
00011000
00000000
00010000
00000100
00010000
00000000
00001000
00000000
00000010
00000000
00001000
00000000
00020000
00000000
00030010
00000000
,
00010000
00000000
00001000
01000000
00001000
00000000
00010000
00000000
00100000
00000000
00010000
00000000
00002000
00000000
00103000
00000000
,
00001000
00000000
00010000
01000000
00010000
00000000
00001000
00000000
00000100
00000000
00000001
00000010
00000000
00001000
00000010
00000000
,
00000001
00000000
00000100
00000010
00000100
00000000
00001000
00000000
01000000
00000000
00010000
00000000
00100000
00000000
00001000
00010000
,
00001000
00000000
00100000
00010000
00000000
00010000
01000000
00000000
01000000
10000000
01000000
00000000
00010000
00000000
00100000
00000000
,
01000000
00000000
00010000
00001000
00000000
00001000
00000010
00000000
00000001
00000000
00000100
00000000
00000110
00000000
00000010
00001000
,
00000010
00000000
00000100
00000001
00000000
00000001
00000010
00000000
00000010
00000100
00000010
00000000
00001000
00000000
00010000
00000000
,
01000000
00000000
10000000
00100000
00000000
00100000
00010000
00000000
00001000
00000000
00100000
00000000
01100000
00000000
00000000
00000000
,
10000000
00000000
00100000
00010000
00100000
00000000
00010000
00000000
00001000
00000000
00000100
00000000
00000001
00000000
00000010
00000000
,
00001000
00000000
00010000
00100000
00010000
00000000
00001000
00000000
00000010
00000000
00000001
00000000
00001001
00000000
00001000
00000000
,
00000001
00000000
00000010
00001000
00000010
00000000
00001000
00000000
00010000
00000000
01000000
10000000
00100000
00000000
00100000
00010000
,
00001000
00000000
00010000
00000000
01000000
00000000
10000000
00100000
10000000
00000000
00010000
00000000
10010000
00000000
10000000
00000000
,
00100000
01000000
00100000
01000000
00100000
00000000
00010000
00000000
00001000
00010000
00001000
00010000
00001000
00000000
00000100
00000000
,
00000001
00000000
00000010
00000100
00001000
00000000
00001000
00000010
00020000
00000000
00000000
00031000
00100000
00000000
00010000
00000000
,
10000000
00100000
10000000
00100000
01000000
00010000
01000000
00010000
00100000
00001000
00010000
00000010
00001000
00000100
00000010
00000001
,
00000100
00000000
00000100
00001000
00010000
00000000
00010000
01000000
20000000
00000000
00000000
00000000
30000000
00000000
00000000
00000000
,
10100000
00200000
00300000
02000000
,
03000000
00020000
00030000
00002000
,
00003000
00000020
00000030
00000200
,
00000301
00000000
00000001
00000010
00000000
00000001
00001000
00000100
00010100
00000000
00010000
00001000
01001000
00000000
01000000
00010000
,
00110000
00000000
00100000
01000000
20000000
00000000
30100000
00000000
01000000
00000000
00010000
00000000
00110000
00000000
00100000
00000000
,
00001000
00000000
00010000
00000100
00002000
00000000
00003001
00000000
00000100
00000000
00000010
00000000
00001010
00000000
00001000
00000000
,
00000100
00000000
00000010
00001000
00020000
00000000
00130000
00000000
10000000
00000000
01000000
00000000
01100000
00000000
00100000
00000000
,
00010000
00000000
01000000
00001000
00020000
00000000
00030010
00000000
00001000
00000000
00000100
00000000
00000110
00000000
00000001
00000100
,
00001000
00000000
00001000
00010000
00100000
00000000
00100000
10000000
01000000
00000000
01000000
00100000
00010000
00000000
00010000
00001000
,
00000010
00000000
00001000
00000100
00000000
00001000
00000001
00000000
00000100
00000000
00001000
00000000
01001000
00000000
01000000
00010000
,
00100000
00000000
00100000
01000000
10000000
00000000
10000000
00100000
00010000
00000000
00010000
00001000
00000010
00000000
00000010
00000001
,
00001000
00000000
00001000
00000100
00000010
00001000
01000000
00000000
00010000
00000000
00100000
00000000
01100000
00000000
01000000
10000000
,
00200000
00000000
02300000
00000000
03020000
00000000
00000000
00000000
00031000
00000010
00002000
00000000
00000000
00000000
00000000
00000000
,
00003002
00000000
00000000
00000000
00000000
00000000
00000000
00000000
00000203
00000000
00002300
00000000
00000000
00000000
00000000
00010000
,
00020000
00000000
00000000
00000000
,
00033000
00000000
00000000
00000000
;
