#TITLE:You'll Be In My Heart;
#SUBTITLE:;
#ARTIST:Dave Rodgers;
#TITLETRANSLIT:;
#SUBTITLETRANSLIT:;
#ARTISTTRANSLIT:;
#GENRE:;
#CREDIT:;
#BANNER:banner.png;
#BACKGROUND:You'll Be In My Heart-bg.png;
#LYRICSPATH:;
#CDTITLE:;
#MUSIC:You'll Be In My Heart.ogg;
#OFFSET:1.379000;
#SAMPLESTART:49.919880;
#SAMPLELENGTH:14.419991;
#LASTBEATHINT:0.854545;
#SELECTABLE:YES;
#BPMS:0.000000=135.076004
;
#STOPS:
;
#BGCHANGES:;
#KEYSOUNDS:;
#ATTACKS:;

//---------------dance-single - ----------------
#NOTES:
     dance-single:
     :
     Beginner:
     2:
     0.117096,0.194672,0.034440,0.020664,0.000000,119.000000,114.000000,5.000000,3.000000,0.000000,0.000000,0.117096,0.194672,0.034440,0.020664,0.000000,119.000000,114.000000,5.000000,3.000000,0.000000,0.000000:
0000
0000
0000
0000
,
0000
0000
0000
0000
,
0000
0000
0000
0000
,
0000
0000
0000
0000
,
0000
0000
0000
0000
,
1000
0000
1000
0000
,
0001
0000
0000
0000
,
0001
0000
0001
0000
,
1001
0000
0000
0000
,
1000
0000
1000
0000
,
0010
0000
0010
0000
,
0100
0000
0100
0000
,
0001
0000
0001
0000
,
1000
0000
0000
0000
,
0001
0000
0000
0000
,
0100
0000
0000
0000
,
0010
0000
0000
0000
,
1000
0000
0000
0000
,
0100
0000
0000
0000
,
0010
0000
0001
0000
,
0001
0000
0000
0000
,
1000
0000
0000
0000
,
0010
0000
0000
0000
,
0100
0000
0000
0000
,
0001
0000
0000
0000
,
0010
0000
0000
0000
,
0100
0000
0000
0000
,
1000
0000
0001
0000
,
0001
0000
0000
0000
,
1000
0000
1000
0000
,
1000
0000
0000
0000
,
0001
0000
0001
0000
,
0001
0000
0000
0000
,
0100
0000
0100
0000
,
0010
0000
0010
0000
,
1001
0000
0000
0000
,
0000
0000
0000
0000
,
0001
0000
0001
0000
,
0010
0000
0010
0000
,
0100
0000
0100
0000
,
1000
0000
1000
0000
,
0001
0000
0000
0000
,
0100
0000
0000
0000
,
0010
0000
0000
0000
,
1000
0000
0000
0000
,
0100
0000
0200
0000
,
0000
0000
0300
0000
,
0010
0000
0020
0000
,
0000
0000
0030
0000
,
0001
0000
0001
0000
,
1000
0000
1000
0000
,
0010
0000
0010
0000
,
0100
0000
0100
0000
,
0001
0000
0002
0000
,
0000
0000
0003
0000
,
1000
0000
1000
0000
,
1001
0000
1001
0000
,
0001
0000
0001
0000
,
0001
0000
0000
0000
,
1000
0000
1000
0000
,
1000
0000
0000
0000
,
0010
0000
0010
0000
,
0100
0000
0100
0000
,
0010
0000
0000
0000
,
0100
0000
0000
0000
,
0001
0000
0001
0000
,
0001
0000
0000
0000
,
1000
0000
1000
0000
,
1000
0000
0000
0000
,
0001
0000
0010
0000
,
0100
0000
1000
0000
,
1001
0000
0000
0000
,
0001
0000
0000
0000
,
1000
0000
1000
0000
,
0010
0000
0010
0000
,
0100
0000
0100
0000
,
0001
0000
0001
0000
,
0010
0000
0010
0000
,
0001
0000
0001
0000
,
1000
0000
1000
0000
,
0100
0000
0100
0100
;

//---------------dance-single - ----------------
#NOTES:
     dance-single:
     :
     Easy:
     5:
     0.232224,0.278103,0.089544,0.275520,0.000000,236.000000,223.000000,13.000000,40.000000,0.000000,0.000000,0.232224,0.278103,0.089544,0.275520,0.000000,236.000000,223.000000,13.000000,40.000000,0.000000,0.000000:
0000
0000
0000
0000
,
0000
0000
0000
0000
,
0000
0000
0000
0000
,
0000
0000
0000
0000
,
0000
0000
0000
0000
,
1000
0000
1000
0000
,
0001
0000
0000
0000
,
0001
0000
0001
0000
,
0110
0000
1001
0000
,
1000
0100
1000
1000
,
0001
0100
0001
0000
,
1000
0010
1000
1000
,
0001
0010
0001
0000
,
1000
0001
0100
0010
,
0100
0010
1001
0000
,
0001
0010
0100
0000
,
0010
0100
1001
0000
,
1000
1000
0001
0001
,
0000
0100
0010
0000
,
0010
0100
0001
0010
,
0100
0000
1000
0000
,
0001
1000
0001
0000
,
1000
0010
0100
0000
,
0001
0010
0001
0010
,
0100
1000
0001
0000
,
1000
0010
0100
0100
,
0000
0010
0100
0000
,
0001
0010
0100
1000
,
0010
0000
1000
0000
,
0002
0203
0320
2030
,
3002
0003
0001
0000
,
2000
3200
0320
0032
,
2003
3000
1000
0000
,
0002
0100
1003
0000
,
2000
0100
0001
0100
,
3001
0000
0110
0000
,
0010
0000
1001
0000
,
0001
0100
0001
0000
,
1000
0100
1000
0000
,
0001
0010
0001
0000
,
1000
0010
1000
0000
,
0001
0001
0100
0000
,
0010
0010
1000
0000
,
0001
0010
0100
0000
,
0100
0010
0001
0000
,
1000
0000
0010
0000
,
0100
0000
0001
0000
,
1000
0000
0100
0000
,
0010
0000
0001
0000
,
1000
0010
0100
0000
,
0001
0010
0100
0000
,
1000
0001
0100
0000
,
0001
1000
0100
0000
,
0010
0000
0100
0000
,
1000
0000
0001
0000
,
0100
0000
0010
0000
,
0110
0000
1001
0000
,
0002
0023
0230
2300
,
3002
0003
0001
0000
,
2000
3020
0230
0302
,
2003
3000
1000
0000
,
2000
0100
3001
0000
,
0002
0010
1000
0010
,
1003
0000
1010
0000
,
0001
0000
0011
0000
,
2000
3200
0320
0032
,
2003
3000
1000
0000
,
0002
0203
0320
2030
,
3002
0003
0001
0000
,
2000
3200
0320
0032
,
0203
0300
0020
0030
,
0110
0000
1001
0000
,
0001
0000
1000
0000
,
0001
0010
0001
0010
,
0100
0100
1000
1000
,
0001
0100
0001
0100
,
0010
0010
1000
1000
,
0001
1000
0001
1000
,
0100
0100
0010
0010
,
0100
1000
0100
1000
,
0001
0001
0100
0110
;

//---------------dance-single - ----------------
#NOTES:
     dance-single:
     :
     Medium:
     8:
     0.292248,0.389344,0.103320,0.234192,0.006888,297.000000,282.000000,15.000000,34.000000,0.000000,0.000000,0.292248,0.389344,0.103320,0.234192,0.006888,297.000000,282.000000,15.000000,34.000000,0.000000,0.000000:
0000
0000
0000
0000
,
0000
0000
0000
0000
,
0000
0000
0000
0000
,
0000
0000
0000
0000
,
0000
0000
0000
0000
,
1000
0100
0010
0001
,
2000
0000
0000
3000
,
0001
0100
0010
1000
,
1010
0000
0101
0000
,
0001
0010
0100
1000
,
0010
0000
0100
0000
0010
1000
0001
0000
,
1000
0100
0010
0001
,
1000
0000
0010
0000
0100
0001
1000
0000
,
0001
1000
0010
0100
,
0010
1000
0000
0001
0000
0000
0000
0000
,
1000
0100
0010
0000
,
0100
1000
0000
0001
0000
0000
0000
0000
,
1000
0010
0100
0001
,
0000
1000
0001
1000
0000
0100
0000
0000
,
1000
0001
1000
0001
1000
0000
0010
0000
,
0100
0000
0100
0000
,
0001
0010
0001
0000
,
1000
0010
0000
0010
0000
0000
0000
0000
,
0100
0001
1000
0100
,
0010
0100
0000
0100
0000
0000
0000
0000
,
1000
0010
1000
0000
0010
0000
0100
0000
,
0000
0001
0100
0000
0100
0000
0000
0000
,
0001
0010
0001
0000
0010
0000
0100
0000
,
1000
0000
0000
0000
0001
0000
0000
0001
,
2000
3020
0230
0302
,
2000
0000
0000
0000
3003
0000
0000
1000
,
0002
0023
0230
2300
,
0002
0000
0000
0000
3003
0000
0000
0001
,
1000
0100
1000
0000
1100
0000
0000
0000
,
0001
0100
0001
0000
0101
0000
0110
0000
,
1001
0000
0001
0000
,
1000
0000
0100
0000
,
1000
0000
0010
0000
0100
0001
1000
0000
,
0001
0000
0100
0000
0010
1000
0001
0000
,
1000
0000
0100
0000
0010
0001
1000
0000
,
0001
0000
0010
0000
0100
1000
0001
0000
,
0100
0000
0000
0100
0000
0000
0010
0000
,
1000
0000
0000
1000
0000
0000
1001
0000
,
0001
0000
0000
0001
0000
0000
0010
0000
,
0100
0000
0000
0100
0000
0000
0110
0000
,
0001
0000
0000
1000
0000
0000
0010
0000
,
0100
0000
0000
0010
0000
0000
1000
0000
,
0001
0000
0000
0001
0000
0000
1000
0000
,
0100
0000
0000
0100
0000
0000
1001
0000
,
1000
0000
0010
0100
0000
0100
0001
0000
,
1000
0001
0000
0010
0000
0100
1000
0000
,
0001
1000
0010
0100
0000
0100
0001
0000
,
1000
0000
0100
1000
0000
1000
0001
0000
,
0100
0000
0000
0100
0000
0000
0110
0000
,
0010
0000
0000
0010
0000
0000
1001
0000
,
1000
0000
0000
1000
0000
0000
0011
0000
,
0001
0000
0000
0001
0000
0000
0001
0000
1000
0000
0000
1000
0000
0000
1000
0000
,
0002
0023
0230
2300
,
0002
0000
0000
0000
3003
0000
0000
1000
,
0002
0203
0320
2030
,
0002
0000
0000
0000
3003
0000
0000
1000
,
0001
0100
0000
0110
0000
0000
1000
0000
,
0001
0010
0000
0100
0010
0000
0001
0000
,
0100
0000
0000
0010
0000
0000
0100
0000
,
0001
0000
0000
1000
0000
0000
0001
0000
,
2000
3020
0230
0302
,
0020
0000
0000
0000
0033
0000
0000
0001
,
0200
0320
2030
3200
,
0020
0000
0330
1001
,
0001
1000
0000
0020
0000
0100
0130
0000
,
1001
0001
0100
0010
,
2000
0100
3001
0000
,
0002
0100
1003
0000
,
0001
0100
0010
1000
,
0100
0000
1000
0000
0010
0100
0001
0000
,
0010
0001
1000
0100
,
1000
0000
0001
0000
1000
0010
1000
0000
,
0001
0010
0100
1000
,
0010
0000
0100
0000
0001
1000
0001
0000
,
1000
0100
0010
0001
,
1000
0000
0010
0000
0100
0001
1000
0000
;

//---------------dance-single - ----------------
#NOTES:
     dance-single:
     :
     Hard:
     13:
     0.469368,0.472775,0.179088,0.199752,0.258300,477.000000,451.000000,26.000000,29.000000,0.000000,0.000000,0.469368,0.472775,0.179088,0.199752,0.258300,477.000000,451.000000,26.000000,29.000000,0.000000,0.000000:
0000
0000
0000
0000
,
0000
0000
0000
0000
,
0000
0000
0000
0000
,
0000
0000
0000
0000
,
0000
0000
0000
0000
,
1000
0000
0000
0100
0000
0000
0010
0000
0001
0000
0000
0100
0000
0000
0010
0000
,
2000
0000
0000
3000
,
0001
0000
0000
0100
0000
0000
0010
0000
1000
0000
0000
0100
0000
0000
0010
0000
,
0220
0330
2002
3003
,
0001
0000
1000
0000
0000
0100
0000
0000
1000
0000
0000
0001
0000
0000
0100
0010
,
0000
0000
0100
0000
0001
0000
0010
0000
0100
1000
0000
0010
0000
0000
1000
0000
,
0000
0000
0001
0000
0000
0100
0000
0000
0010
0000
0000
0100
0000
0000
0001
0000
,
0000
0000
1000
0000
0000
0100
0000
0000
1000
0000
0010
0000
1001
0000
0000
0000
,
0001
0100
0001
0100
1000
0100
1000
0100
,
0002
0010
0000
1003
0000
0000
1001
0000
,
1000
0010
0001
0010
1000
0000
0001
0000
,
2000
0100
0000
3001
0000
0000
1001
0000
,
0001
0010
0100
1000
0010
0100
0001
1000
,
0000
0001
1000
0010
0000
0100
0001
0000
,
1000
0000
0100
0000
0010
0000
0001
0000
0100
0000
0000
0010
0000
0000
0010
0000
,
0100
0001
0000
1000
0100
1000
0010
0000
,
0110
0001
1000
0100
0001
0000
0100
1000
,
0002
0010
0000
1003
0000
0000
1001
0000
,
1000
0010
0001
0010
1000
0100
0010
0001
,
2000
0100
0000
3001
0000
0000
0110
0000
,
0001
0100
0010
1000
0100
0010
0100
1000
,
0000
0001
0100
0010
0000
0010
0100
0000
,
0001
0000
0010
0000
0100
0000
1000
0000
0010
0000
0000
0100
0000
0000
0100
0000
,
0001
0000
1000
0100
0000
0100
1000
0001
,
1000
0000
0000
1000
0100
0000
0000
0100
0001
0000
0000
0001
0100
0000
0000
0100
,
1000
0000
0000
1010
0000
0001
0100
0100
,
0001
0000
0000
0001
0100
0000
0000
0100
1000
0000
0000
1000
0100
0000
0000
0100
,
0001
0000
0011
0000
1000
0100
0000
0100
,
0001
0200
0000
0310
0000
0000
1001
0000
,
0001
0200
0000
0010
0320
0000
0130
0000
,
0001
0010
0010
1000
0000
0010
0100
1000
,
0002
0000
0000
0010
0000
0000
1000
0000
0000
0100
0000
0000
1003
0000
0000
0000
,
0001
0000
0010
0000
0000
1000
0000
0000
0010
0000
0000
0001
0000
0000
1000
0001
,
0000
0000
0010
0000
0100
0000
1000
0000
0001
0100
0000
0010
0000
0000
0100
0000
,
0000
0000
0001
0000
0000
0010
0000
0000
0100
0000
0000
1000
0000
0000
0001
0000
,
0000
0000
0100
0000
0000
1000
0000
0000
0100
0000
0001
0000
1000
0000
0001
0000
,
1000
0100
0010
0002
0000
0003
0110
0001
,
1000
0000
0010
0100
0000
0000
0200
0000
0000
0000
0300
0000
1001
0000
0001
0000
,
0010
0000
0000
0100
0000
0000
0020
0000
0000
0000
0031
0000
0000
0000
0100
0000
,
0010
1000
0100
0020
0000
0030
1001
1000
,
0100
0000
0000
0100
1000
0000
0010
0000
0000
0000
0100
0000
0100
0000
0000
0000
,
0001
0000
0001
0010
0000
0010
0001
0000
,
1000
0010
0100
0002
0000
1000
1003
0000
,
0001
0000
0010
0100
0000
0100
1000
0001
,
0100
0000
0010
0100
0000
0000
0002
0000
0000
0000
1000
0000
1003
0000
0100
0000
,
0001
0100
0010
0002
0000
1000
1003
0100
,
1000
0010
0100
2000
0000
3100
0100
0010
,
1000
0100
0010
2000
0000
0000
3010
0000
,
0001
0000
0000
0001
0100
0000
0010
0000
0000
0000
0100
0000
0001
0000
0000
0000
,
1000
0000
0000
1000
0100
0000
0010
0000
0000
0000
0100
0000
1000
0000
0000
0000
,
0010
1000
0010
0100
0000
0001
0000
1000
,
0002
0000
0000
0010
0000
0000
0100
0000
2003
0000
0000
0010
0000
0000
0100
0000
,
3001
0000
0000
0001
0100
0000
0000
0100
1000
0000
0000
1000
0100
0000
0000
0100
,
0001
0000
0000
0110
0000
1001
1000
0001
,
1000
0000
0000
1000
0100
0000
0000
0100
0001
0000
0000
0001
0100
0000
0000
0100
,
1000
0000
0110
0000
0001
1000
0000
1001
,
1000
0010
0001
0010
0200
0000
0301
0000
,
0001
0010
1000
0010
0200
0000
1300
0000
,
0010
0100
0001
1000
,
1010
0000
0001
0011
0000
1000
1001
0000
,
0001
0000
0000
0001
0100
0000
0000
0100
1000
0000
0000
1000
0100
0000
0000
0100
,
0001
0000
0000
0110
0000
0001
0010
0100
,
1000
0100
1000
0100
0001
0100
0001
0100
,
1000
0000
0010
0000
0100
0100
0000
0001
,
1000
0100
0001
0200
0000
0010
0310
0000
,
1001
0000
0001
0100
0020
0000
0230
0000
,
0301
0001
1000
1000
,
0110
0000
0000
1000
0000
0000
0110
0000
0000
0001
0000
0000
0110
0000
0000
0000
,
0001
0000
1000
0000
0000
0100
0000
0000
1000
0000
0000
0010
0000
0000
0100
0001
,
0000
0000
1000
0000
0100
0000
1000
0000
0010
0100
0000
0010
0000
0100
0001
0000
,
0000
0000
0010
0000
0000
0100
0000
0000
0010
0000
0000
0001
0000
0000
0100
0010
,
0000
0000
0100
0000
0001
0000
1000
0000
0100
0010
0000
0001
0000
0000
1000
0000
,
0000
0000
0010
0000
0000
1000
0000
0000
0100
0000
0000
1000
0000
0000
0010
0100
,
0000
0000
0001
0000
0010
0000
0100
0000
0010
0000
0000
0001
0100
0000
0010
0000
,
0000
0000
0100
0000
0000
0001
0000
0000
1000
0000
0000
0000
0100
0000
0000
1000
,
0000
0000
0001
0000
0000
0100
0000
0010
1000
0010
1000
0001
0100
0000
0000
0000
;

//---------------dance-single - ----------------
#NOTES:
     dance-single:
     :
     Challenge:
     13:
     0.469368,0.472775,0.179088,0.172200,0.258300,477.000000,451.000000,26.000000,25.000000,18.000000,0.000000,0.469368,0.472775,0.179088,0.172200,0.258300,477.000000,451.000000,26.000000,25.000000,18.000000,0.000000:
0000
0000
0000
0000
,
0000
0000
0000
0000
,
0000
0000
0000
0000
,
0000
0000
0000
0000
,
0000
0000
0000
0000
,
1000
0000
0000
0100
0000
0000
0010
0000
0001
0000
0000
0100
0000
0000
0010
0000
,
2000
0000
0000
3000
,
0001
0000
0000
0100
0000
0000
0010
0000
1000
0000
0000
0100
0000
0000
0010
0000
,
0110
MMMM
1001
MMMM
,
0001
0000
1000
0000
0000
0100
0000
0000
1000
0000
0000
0001
0000
0000
0100
0010
,
0000
0000
0100
0000
0001
0000
0010
0000
0100
1000
0000
0010
0000
0000
1000
0000
,
0000
0000
0001
0000
0000
0100
0000
0000
0010
0000
0000
0100
0000
0000
0001
0000
,
0000
0000
1000
0000
0000
0100
0000
0000
1000
0000
0010
0000
1001
0000
0000
0000
,
0001
0100
0001
0100
1000
0100
1000
0100
,
0002
0010
0000
1003
0000
0000
1001
0000
,
1000
0010
0001
0010
1000
0000
0001
0000
,
2000
0100
0000
3001
0000
0000
1001
0000
,
0001
0010
0100
1000
0010
0100
0001
1000
,
0000
0001
1000
0010
0000
0100
0001
0000
,
1000
0000
0100
0000
0010
0000
0001
0000
0100
0000
0000
0010
0000
0000
0010
0000
,
0100
0001
0000
1000
0100
1000
0010
0000
,
0110
0001
1000
0100
0001
0000
0100
1000
,
0002
0010
0000
1003
0000
0000
1001
0000
,
1000
0010
0001
0010
1000
0100
0010
0001
,
2000
0100
0000
3001
0000
0000
0110
0000
,
0001
0100
0010
1000
0100
0010
0100
1000
,
0000
0001
0100
0010
0000
0010
0100
0000
,
0001
0000
0010
0000
0100
0000
1000
0000
0010
0000
0000
0100
0000
0000
0100
0000
,
0001
0000
1000
0100
0000
0100
1000
0001
,
1000
0000
0000
0001
0100
0000
000M
0100
1000
0000
0000
0001
0100
0000
000M
0100
,
1000
0000
0000
1010
0000
0001
0100
0100
,
0001
0000
0000
1000
0100
0000
M000
0100
0001
0000
0000
1000
0100
0000
M000
0100
,
0001
0000
0011
0000
1000
0100
0000
0100
,
0001
0200
0000
0310
0000
0000
1001
0000
,
0001
0200
0000
0010
0320
0000
0130
0000
,
0001
0010
0010
1000
0000
0010
0100
1000
,
0002
0000
0000
0010
0000
0000
1000
0000
0000
0100
0000
0000
1003
0000
0000
0000
,
0001
0000
0010
0000
0000
1000
0000
0000
0010
0000
0000
0001
0000
0000
1000
0001
,
0000
0000
0010
0000
0100
0000
1000
0000
0001
0100
0000
0010
0000
0000
0100
0000
,
0000
0000
0001
0000
0000
0010
0000
0000
0100
0000
0000
1000
0000
0000
0001
0000
,
0000
0000
0100
0000
0000
1000
0000
0000
0100
0000
0001
0000
1000
0000
0001
0000
,
1000
0100
0010
0002
0000
0003
0110
0001
,
1000
0000
0010
0100
0000
0000
0200
0000
0000
0000
0300
0000
1001
0000
0001
0000
,
0010
0000
0000
0100
0000
0000
0020
0000
0000
0000
0031
0000
0000
0000
0100
0000
,
0010
1000
0100
0020
0000
0030
1001
1000
,
0100
0000
0000
0100
1000
0000
0010
0000
0000
0000
0100
0000
0100
0000
0000
0000
,
0001
0000
0001
0010
0000
0010
0001
0000
,
1000
0010
0100
0002
0000
1000
1003
0000
,
0001
0000
0010
0100
0000
0100
1000
0001
,
0100
0000
0010
0100
0000
0000
0002
0000
0000
0000
1000
0000
1003
0000
0100
0000
,
0001
0100
0010
0002
0000
1000
1003
0100
,
1000
0010
0100
2000
0000
3100
0100
0010
,
1000
0100
0010
2000
0000
0000
3010
0000
,
0001
0000
0000
0001
0100
0000
0010
0000
0000
0000
0100
0000
0001
0000
0000
0000
,
1000
0000
0000
1000
0100
0000
0010
0000
0000
0000
0100
0000
1000
0000
0000
0000
,
0010
1000
0010
0100
0000
0001
0000
1000
,
0002
0000
0000
0010
0000
0000
0100
0000
2003
0000
0000
0010
0000
0000
0100
0000
,
3001
0000
0000
0100
1000
0000
0M00
1000
0001
0000
0000
0100
1000
0000
0M00
1000
,
0001
0000
0000
0110
0000
1001
1000
0001
,
1000
0000
0000
0100
0001
0000
0M00
0001
1000
0000
0000
0100
0001
0000
0M00
0001
,
1000
0000
0110
0000
0001
1000
0000
1001
,
1000
0010
0001
0010
0200
0000
0301
0000
,
0001
0010
1000
0010
0200
0000
1300
0000
,
0010
0100
0001
1000
,
1010
0000
0001
0011
0000
1000
1001
0000
,
0001
0000
0000
0100
1000
0000
0M00
1000
0001
0000
0000
0100
1000
0000
0M00
1000
,
0001
0000
0000
0110
0000
0001
0010
0100
,
1000
0100
1000
0100
0001
0100
0001
0100
,
1000
0000
0010
0000
0100
0100
0000
0001
,
1000
0100
0001
0200
0000
0010
0310
0000
,
1001
0000
0001
0100
0020
0000
0230
0000
,
0301
0001
1000
1000
,
0110
0000
0000
1000
0000
0000
0110
0000
0000
0001
0000
0000
0110
0000
0000
0000
,
0001
0000
1000
0000
0000
0100
0000
0000
1000
0000
0000
0010
0000
0000
0100
0001
,
0000
0000
1000
0000
0100
0000
1000
0000
0010
0100
0000
0010
0000
0100
0001
0000
,
0000
0000
0010
0000
0000
0100
0000
0000
0010
0000
0000
0001
0000
0000
0100
0010
,
0000
0000
0100
0000
0001
0000
1000
0000
0100
0010
0000
0001
0000
0000
1000
0000
,
0000
0000
0010
0000
0000
1000
0000
0000
0100
0000
0000
1000
0000
0000
0010
0100
,
0000
0000
0001
0000
0010
0000
0100
0000
0010
0000
0000
0001
0100
0000
0010
0000
,
0000
0000
0100
0000
0000
0001
0000
0000
1000
0000
0000
0000
0100
0000
0000
1000
,
0000
0000
0001
0000
0000
0100
0000
0010
1000
0010
1000
0001
0100
0000
0000
0000
;

//---------------dance-double - ----------------
#NOTES:
     dance-double:
     :
     Easy:
     5:
     0.226320,0.250293,0.075768,0.289296,0.000000,230.000000,219.000000,11.000000,42.000000,0.000000,0.000000,0.226320,0.250293,0.075768,0.289296,0.000000,230.000000,219.000000,11.000000,42.000000,0.000000,0.000000:
00000000
00000000
00000000
00000000
,
00000000
00000000
00000000
00000000
,
00000000
00000000
00000000
00000000
,
00000000
00000000
00000000
00000000
,
00000000
00000000
00000000
00000000
,
10000000
00000000
10000000
00000000
,
00010000
00000000
00000000
00000000
,
00001000
00000000
00001000
00000000
,
00001001
00000000
00000110
00000000
,
00000001
00000100
00000001
00000001
,
00001000
00000100
00000100
00000000
,
00010000
00001000
00100000
00100000
,
00010000
10000000
00010000
00000000
,
10000000
00100000
01000000
00010000
,
00100000
01000000
10010000
00000000
,
10000000
01000000
00100000
00000000
,
00001000
00010000
00001010
00000000
,
00000001
00000010
00000100
00001000
,
00000000
00000010
00010000
00000000
,
00001000
00100000
00010000
10000000
,
01000000
00000000
01000000
00000000
,
10000000
00100000
01000000
00000000
,
00001000
00010000
00000100
00000000
,
00000100
00001000
00000010
00000100
,
00000001
00000010
00000100
00000000
,
00000010
00000001
00001000
00000000
,
00000100
00010000
00001000
00000000
,
00100000
00010000
10000000
00100000
,
01000000
00000000
00010000
00000000
,
20000000
30200000
02300000
03002000
,
00023000
00030000
00010000
00000000
,
00002000
00203000
00320000
20030000
,
32000000
03000000
01000000
00000000
,
10000000
00100000
01000000
00000000
,
00001000
00010000
00000100
00000000
,
00001000
00000000
00001000
00000000
,
00000001
00000000
00000001
00000000
,
00000001
00000010
00000001
00000000
,
00001000
00000100
00001000
00000000
,
00000010
00010000
00001000
00000000
,
00100000
00010000
10000000
00000000
,
01000000
01000000
10000000
00000000
,
00100000
00100000
01000000
00000000
,
00001000
00001000
00010000
00000000
,
00000100
00000100
00001000
00000000
,
00000010
00000000
00000100
00000000
,
00000001
00000000
00001000
00000000
,
00000100
00000000
00010000
00000000
,
00001000
00000000
00100000
00000000
,
00010000
00010000
01000000
00000000
,
00100000
00100000
10000000
00000000
,
01000000
01000000
10000000
00000000
,
00010000
00010000
01000000
00000000
,
00001000
00000000
00010000
00000000
,
00000010
00000000
00000100
00000000
,
00000001
00000000
00001000
00000000
,
00000110
00000000
00001001
00000000
,
00000002
00000023
00000230
00020300
,
00032000
00003000
00001000
00000000
,
00020000
00030200
00002300
00003002
,
00000023
00000030
00000010
00000000
,
00000002
00000100
00001003
00000000
,
00002000
00003200
00020300
00032000
,
02003000
00000000
03100000
00000000
,
01100000
00000000
10010000
00000000
,
20000000
30200000
02300000
03002000
,
00023000
00030000
00010000
00000000
,
00002000
00203000
00320000
20030000
,
32000000
03000000
01000000
00000000
,
20000000
30200000
02300000
03002000
,
00023000
00030000
00000200
00000300
,
00000110
00000000
00001001
00000000
,
00000001
00000000
00001000
00000000
,
00000001
00000100
00000001
00000100
,
00000010
00001000
00000010
00000000
,
00010000
00001000
00010000
00001000
,
00100000
00010000
01000000
00000000
,
00100000
10000000
00100000
10000000
,
01000000
00100000
00010000
00000000
,
01000000
00001000
00010000
00000010
,
00000100
00000001
00000100
00001001
;

//---------------dance-double - ----------------
#NOTES:
     dance-double:
     :
     Medium:
     8:
     0.285360,0.389344,0.082656,0.261744,0.006888,290.000000,278.000000,12.000000,38.000000,0.000000,0.000000,0.285360,0.389344,0.082656,0.261744,0.006888,290.000000,278.000000,12.000000,38.000000,0.000000,0.000000:
// measure 0
00000000
00000000
00000000
00000000
,  // measure 1
00000000
00000000
00000000
00000000
,  // measure 2
00000000
00000000
00000000
00000000
,  // measure 3
00000000
00000000
00000000
00000000
,  // measure 4
00000000
00000000
00000000
00000000
,  // measure 5
10000000
00100000
01000000
00001000
,  // measure 6
00020000
00000000
00000000
00030000
,  // measure 7
00001000
00010000
00000100
00000010
,  // measure 8
00000011
00000000
00001100
00000000
,  // measure 9
00000001
00000100
00000010
00001000
,  // measure 10
00000100
00000000
00010000
00000000
00001000
00100000
00010000
00000000
,  // measure 11
10000000
00100000
01000000
00010000
,  // measure 12
10000000
00000000
01000000
00000000
10000000
00100000
01000000
00000000
,  // measure 13
00010000
10000000
01000000
00100000
,  // measure 14
00001000
00010000
00000000
00000100
00000000
00000000
00000000
00000000
,  // measure 15
00001000
00000010
00000100
00000000
,  // measure 16
00000001
00000010
00000000
00000100
00000000
00000000
00000000
00000000
,  // measure 17
00010000
00001000
00100000
00010000
,  // measure 18
00000000
01000000
00100000
01000000
00000000
00010000
00000000
00000000
,  // measure 19
10000000
01000000
10000000
01000000
00100000
00000000
00001000
00000000
,  // measure 20
00010000
00000000
00010000
00000000
,  // measure 21
00000100
00001000
00000010
00000000
,  // measure 22
00000100
00000001
00000000
00000001
00000000
00000000
00000000
00000000
,  // measure 23
00000010
00000100
00000010
00000001
,  // measure 24
00001000
00000100
00000000
00010000
00000000
00000000
00000000
00000000
,  // measure 25
00001000
01000000
00001000
00000000
00100000
00000000
01000000
00000000
,  // measure 26
00000000
10000000
01000000
00000000
01000000
00000000
00000000
00000000
,  // measure 27
00100000
00001000
00100000
00000000
00010000
00000000
01000000
00000000
,  // measure 28
00001000
00000000
00000000
00000000
00010000
00000000
00000000
00010000
,  // measure 29
00002000
00003200
00000302
00000203
,  // measure 30
00002300
00000000
00000000
00000000
00003000
00000000
00000000
00001000
,  // measure 31
00020000
02030000
23000000
32000000
,  // measure 32
03020000
00000000
00000000
00000000
00030000
00000000
00000000
00001000
,  // measure 33
00000100
00000001
00000010
00000000
00001001
00000000
00000000
00000000
,  // measure 34
00000001
00000010
00000100
00000000
00001100
00000000
00001010
00000000
,  // measure 35
00011000
00000000
00001000
00000000
,  // measure 36
01000000
00000000
00100000
00000000
,  // measure 37
10000000
00000000
00010000
00000000
10000000
01000000
00100000
00000000
,  // measure 38
00010000
00000000
01000000
00000000
00001000
00010000
00000100
00000000
,  // measure 39
00001000
00000000
00000010
00000000
00000100
00000001
00000010
00000000
,  // measure 40
00000100
00000000
00000010
00000000
00000001
00001000
00000001
00000000
,  // measure 41
00000010
00000000
00000000
00000010
00000000
00000000
00000100
00000000
,  // measure 42
00010000
00000000
00000000
00010000
00000000
00000000
00011000
00000000
,  // measure 43
01000000
00000000
00000000
01000000
00000000
00000000
00100000
00000000
,  // measure 44
10000000
00000000
00000000
10000000
00000000
00000000
10010000
00000000
,  // measure 45
10000000
00000000
00000000
01000000
00000000
00000000
00010000
00000000
,  // measure 46
00001000
00000000
00000000
00000100
00000000
00000000
00000001
00000000
,  // measure 47
00000001
00000000
00000000
00000010
00000000
00000000
00001000
00000000
,  // measure 48
00010000
00000000
00000000
00100000
00000000
00000000
10000000
00000000
,  // measure 49
00010000
00000000
10000000
00100000
00000000
00100000
01000000
00000000
,  // measure 50
00010000
10000000
00000000
01000000
00000000
00000000
00100000
00000000
,  // measure 51
00001000
00000000
00010000
00000010
00000000
00000010
00000000
00000100
,  // measure 52
00000001
00000000
00000001
00000010
00000000
00000000
00000100
00000000
,  // measure 53
00000010
00000000
00000000
00000001
00000000
00000000
00000100
00000000
,  // measure 54
00001000
00000000
00000000
00000100
00000000
00000000
00000010
00000000
,  // measure 55
00010000
00000000
00000000
00001000
00000000
00000000
00100000
00000000
,  // measure 56
01000000
00000000
00000000
01000000
00000000
00000000
01000000
00000000
00100000
00000000
00000000
00100000
00000000
00000000
00100000
00000000
,  // measure 57
00002000
00003200
00000302
00000203
,  // measure 58
00002300
00000000
00000000
00000000
00003000
00000000
00000000
00001000
,  // measure 59
00020000
02030000
23000000
32000000
,  // measure 60
03020000
00000000
00000000
00000000
00030000
00000000
00000000
00010000
,  // measure 61
00001000
00000100
00000010
00000000
00001001
00000000
00000000
00000000
,  // measure 62
00000001
00000010
00000100
00000000
00010000
00000000
00001000
00000000
,  // measure 63
01000000
00000000
01000000
00000000
,  // measure 64
00100000
00000000
01010000
01000000
,  // measure 65
00002000
00003200
00000302
00000203
,  // measure 66
00002300
00000000
00000000
00000000
00003000
00000000
00000000
00001000
,  // measure 67
00020000
02030000
23000000
32000000
,  // measure 68
03020000
00000000
00030000
00011000
,  // measure 69
00010000
00001000
00000000
00000200
00000000
00000010
00000310
00000000
,  // measure 70
00001001
00000001
00000010
00000100
,  // measure 71
00020000
00032000
00023000
00030000
,  // measure 72
00002000
00023000
00032000
00003000
,  // measure 73
00100000
00010000
01000000
00100000
,  // measure 74
10000000
00000000
01000000
00000000
10000000
00100000
01000000
00000000
,  // measure 75
00001000
00010000
00000010
00000100
,  // measure 76
00000001
00000000
00001000
00000000
00000100
00000010
00000100
00000000
,  // measure 77
00010000
00001000
01000000
00100000
,  // measure 78
10000000
00000000
01000000
00000000
00100000
00001000
00010000
00000000
,  // measure 79
00000010
00000100
00000001
00000010
,  // measure 80
00000100
00000000
00000010
00000000
00000001
00001000
00000100
00000000
;

//---------------dance-double - ----------------
#NOTES:
     dance-double:
     :
     Hard:
     14:
     0.470352,0.472775,0.192864,0.172200,0.258300,478.000000,450.000000,28.000000,25.000000,0.000000,0.000000,0.470352,0.472775,0.192864,0.172200,0.258300,478.000000,450.000000,28.000000,25.000000,0.000000,0.000000:
00000000
00000000
00000000
00000000
,
00000000
00000000
00000000
00000000
,
00000000
00000000
00000000
00000000
,
00000000
00000000
00000000
00000000
,
00000000
00000000
00000000
00000000
,
10000000
00000000
00000000
00100000
00000000
00000000
00010000
00000000
00001000
00000000
00000000
00000010
00000000
00000000
00000001
00000000
,
00002000
00000000
00000000
00003000
,
00000001
00000000
00000000
00000100
00000000
00000000
00001000
00000000
00010000
00000000
00000000
01000000
00000000
00000000
10000000
00000000
,
02200000
03300000
20020000
30030000
,
10000000
00000000
00100000
00000000
00000000
01000000
00000000
00000000
00001000
00000000
00000000
00010000
00000000
00000000
00000100
00000010
,
00000000
00000000
00000100
00000000
00010000
00000000
00001000
00000000
00000100
00000010
00000000
00000100
00000000
00000000
00000001
00000000
,
00000000
00000000
00000010
00000000
00000000
00000100
00000000
00000000
00010000
00000000
00000000
00001000
00000000
00000000
00100000
00000000
,
00000000
00000000
01000000
00000000
00000000
10000000
00000000
00000000
00100000
00000000
01000000
00000000
10010000
00000000
00000000
00000000
,
10000000
00100000
10000000
00100000
00010000
00001000
00010000
00001000
,
00000100
00000001
00000000
00000101
00000000
00000000
00001001
00000000
,
00000001
00000010
00000001
00000010
00001000
00000000
00010000
00000000
,
01000000
10000000
00000000
11000000
00000000
00000000
10010000
00000000
,
10000000
00100000
01000000
00001000
00010000
00000100
00001000
00000010
,
00000000
00000100
00000001
00000010
00000000
00000100
00001000
00000000
,
00000001
00000000
00001000
00000000
00000100
00000000
00010000
00000000
00001000
00000000
00000000
01000000
00000000
00000000
01000000
00000000
,
00100000
10000000
00000000
01000000
10000000
00100000
01000000
00000000
,
10010000
10000000
01000000
00010000
00001000
00000000
00010000
00001000
,
00000200
00000001
00000000
00000310
00000000
00000000
00001001
00000000
,
00000001
00000100
00001000
00000100
00000001
00000010
00001000
00010000
,
02000000
10000000
00000000
13000000
00000000
00000000
01100000
00000000
,
10000000
00100000
01000000
00010000
00100000
00001000
00010000
00000100
,
00000000
00001000
00000010
00000100
00000000
00000100
00000001
00000000
,
00000010
00000000
00000001
00000000
00001000
00000000
00000100
00000000
00010000
00000000
00000000
01000000
00000000
00000000
01000000
00000000
,
10000000
00000000
00010000
01000000
00000000
01000000
00010000
00010000
,
10000000
00000000
00000000
10000000
01000000
00000000
00000000
01000000
00010000
00000000
00000000
00010000
00001000
00000000
00000000
00001000
,
00000010
00000000
00000000
00000011
00000000
00000001
00000100
00000100
,
00000001
00000000
00000000
00000001
00000100
00000000
00000000
00000100
00001000
00000000
00000000
00001000
00010000
00000000
00000000
00010000
,
00100000
00000000
10100000
00000000
10000000
01000000
00000000
01000000
,
00010000
02000000
00000000
03100000
00000000
00000000
10010000
00000000
,
00010000
02000000
00000000
00001000
03002000
00000000
00013000
00000000
,
00000100
00000010
00000010
00000001
00000000
00001000
00000010
00000100
,
00000002
00000000
00000000
00000010
00000000
00000000
00001000
00000000
00000000
00000100
00000000
00000000
00001003
00000000
00000000
00000000
,
00000001
00000000
00000010
00000000
00000000
00001000
00000000
00000000
00000010
00000000
00000000
00000100
00000000
00000000
00010000
00001000
,
00000000
00000000
00100000
00000000
10000000
00000000
00100000
00000000
01000000
10000000
00000000
00010000
00000000
00000000
10000000
00000000
,
00000000
00000000
00100000
00000000
00000000
00010000
00000000
00000000
00100000
00000000
00000000
01000000
00000000
00000000
00001000
00000000
,
00000000
00000000
00010000
00000000
00000000
00000010
00000000
00000000
00000100
00000000
00000001
00000000
00001000
00000000
00001000
00000000
,
00000001
00000010
00000100
00002000
00000000
00003000
00011000
00001000
,
00100000
00000000
00010000
01000000
00000000
00000000
02000000
00000000
00000000
00000000
03000000
00000000
10010000
00000000
10000000
00000000
,
01000000
00000000
00000000
00010000
00000000
00000000
00002000
00000000
00000000
00000000
00003100
00000000
00000000
00000000
00000001
00000000
,
00000010
00000001
00000100
00000020
00000000
00000030
00001001
00001000
,
00000100
00000000
00000000
00000100
00010000
00000000
00001000
00000000
00000000
00000000
00100000
00000000
00100000
00000000
00000000
00000000
,
00010000
00000000
10000000
00100000
00000000
00100000
01000000
00000000
,
00010000
00100000
01000000
20000000
00000000
00010000
30010000
00000000
,
10000000
00000000
00100000
01000000
00000000
01000000
00001000
00010000
,
00000100
00000000
00000010
00000100
00000000
00000000
00002000
00000000
00000000
00000000
00000001
00000000
00003001
00000000
00000100
00000000
,
00001000
00000100
00000001
00000020
00000000
00000100
00000130
00010000
,
00001000
01000000
00100000
20000000
00000000
31000000
01000000
00100000
,
10000000
00100000
01000000
20000000
00000000
00000000
30010000
00000000
,
01000000
00000000
00000000
01000000
00001000
00000000
00010000
00000000
00000000
00000000
00000000
00000000
00010000
00000000
00000000
00000000
,
00000100
00000000
00000000
00000100
00010000
00000000
00001000
00000000
00000000
00000000
00000000
00000000
00001000
00000000
00000000
00000000
,
00010000
01000000
10000000
01000000
00000000
00100000
00010000
00010000
,
10000000
00000000
00000000
00100000
00000000
00000000
00010000
00000000
00001000
00000000
00000000
00000100
00000000
00000000
00000001
00000000
,
00000001
00000000
00000000
00000100
00001000
00000000
00000000
00010000
00000001
00000000
00000000
00000100
00001000
00000000
00000000
00010000
,
00000001
00000000
00000000
00011000
00000000
10010000
10000000
00010000
,
10000000
00000000
00000000
01000000
00010000
00000000
00000000
00001000
10000000
00000000
00000000
01000000
00010000
00000000
00000000
00001000
,
10000000
00000000
00011000
00000000
00000001
00001000
00000000
00001001
,
00000001
00000010
00001000
00000010
00000200
00000000
00010300
00000000
,
00001000
00100000
00010000
01000000
00200000
00000000
10300000
00000000
,
10000000
01000000
00010000
00001000
,
00011000
00000000
00001000
00000110
00000000
00000001
00001001
00000000
,
00000001
00000000
00000000
00000010
00001000
00000000
00000000
00010000
00000001
00000000
00000000
00000010
00001000
00000000
00000000
00010000
,
00000001
00000000
00000000
00011000
00000000
00001000
00100000
00010000
,
10000000
00100000
10000000
00100000
00010000
00001000
00010000
00001000
,
00000100
00000000
00000001
00000000
00000010
00000010
00000000
00000001
,
00000010
00001000
00010000
02000000
00000000
10000000
13000000
00000000
,
10010000
00000000
10000000
00100000
02000000
00000000
03002000
00000000
,
00013000
00010000
00001000
00001000
,
01100000
00000000
00000000
00001000
00000000
00000000
00011000
00000000
00000000
00010000
00000000
00000000
00000110
00000000
00000000
00000000
,
00000001
00000000
00000010
00000000
00000000
00000001
00000000
00000000
00001000
00000000
00000000
00000100
00000000
00000000
00010000
00001000
,
00000000
00000000
00100000
00000000
00010000
00000000
10000000
00000000
01000000
00100000
00000000
01000000
00000000
10000000
00100000
00000000
,
00000000
00000000
01000000
00000000
00000000
00001000
00000000
00000000
00010000
00000000
00000000
00000010
00000000
00000000
00000100
00000001
,
00000000
00000000
00000010
00000000
00000001
00000000
00001000
00000000
00000100
00001000
00000000
00000010
00000000
00000000
00010000
00000000
,
00000000
00000000
00001000
00000000
00000000
00100000
00000000
00000000
00010000
00000000
00000000
10000000
00000000
00000000
01000000
10000000
,
00000000
00000000
00100000
00000000
01000000
00000000
00001000
00000000
00010000
00000000
00000000
00000100
00001000
00000000
00000010
00000000
,
00000000
00000000
00000100
00000000
00000000
00000001
00000000
00000000
00001000
00000000
00000000
00000000
00000100
00000000
00000000
00010000
,
00000000
00000000
00001000
00000000
00000000
01000000
00000000
00100000
10000000
00010000
01000000
00001000
00010000
00000000
00000000
00000000
;
