#VERSION:0.83;
#TITLE:Wildest Dreams;
#SUBTITLE:(Dragonforce's Version);
#ARTIST:Dragonforce;
#TITLETRANSLIT:;
#SUBTITLETRANSLIT:;
#ARTISTTRANSLIT:;
#GENRE:;
#CREDIT:D0omsday;
#MUSIC:Wildest Dreams.ogg;
#BANNER:;
#BACKGROUND:;
#JACKET:;
#DISCIMAGE:;
#CDIMAGE:;
#SELECTABLE:YES;
#LYRICSPATH:;
#CDTITLE:;
#SAMPLESTART:37.425;
#SAMPLELENGTH:19.200;
#OFFSET:-0.309;
#BPMS:0.000=200.000;
#STOPS:;
#WARPS:;
#DELAYS:;
#SPEEDS:304.000=0.500=6.000=0,
320.000=1.000=16.000=0
;
#SCROLLS:;
#TICKCOUNTS:;
#TIMESIGNATURES:;
#LABELS:;
#COMBOS:;
#FAKES:;
#BGCHANGES:;
#FGCHANGES:;
#ATTACKS:;

//---------------dance-single - ---------------
#NOTEDATA:;
#CHARTNAME:;
#CHARTSTYLE:;
#CREDIT:D0omsday;
#STEPSTYPE:dance-single;
#DESCRIPTION:;
#DIFFICULTY:Medium;
#METER:11;
#METERF:11;
#RADARVALUES:0,0,0,0,0;
#NOTES:
// measure 0
0000
0000
0000
0000
,  // measure 1
0000
0000
0000
0000
,  // measure 2
1000
0000
0100
0000
0010
0000
0100
1000
,  // measure 3
0000
0001
0000
0100
0010
0000
1000
0000
,  // measure 4
0001
0000
0010
0100
0010
0000
0001
1000
,  // measure 5
0001
0000
0100
0000
0010
0000
1000
0001
,  // measure 6
1000
0000
0100
0000
1000
0000
0001
0100
,  // measure 7
0000
0010
0000
1000
0001
0000
0010
0000
,  // measure 8
0100
0000
0010
0001
0010
0000
0001
1000
,  // measure 9
0001
0000
0100
0000
0010
1000
0010
0000
,  // measure 10
0100
0100
0100
0100
,  // measure 11
2002
0000
0000
0000
3003
0000
0001
0010
,  // measure 12
0100
1100
1100
1100
,  // measure 13
2002
0000
0000
3003
,  // measure 14
0001
0010
0001
0100
,  // measure 15
1000
0100
0010
1000
,  // measure 16
0001
0010
0100
1000
,  // measure 17
0001
0000
1000
0000
0010
0000
1000
0001
,  // measure 18
0010
0100
1000
0010
,  // measure 19
0001
0010
0100
0001
,  // measure 20
0010
0001
1000
0100
,  // measure 21
1000
0000
0010
0000
0100
0001
0010
0000
,  // measure 22
0001
1000
0001
0000
0010
0000
0100
0000
,  // measure 23
1000
0010
1000
0000
0001
0000
0010
0000
,  // measure 24
0100
0010
0100
0000
1000
0000
0001
0000
,  // measure 25
0100
0010
0100
0000
0001
0000
0010
0000
,  // measure 26
0100
1000
0100
0000
0010
0000
0001
0000
,  // measure 27
1000
0010
1000
0000
0001
0000
0010
0000
,  // measure 28
0001
1000
0001
0000
1000
0001
1000
0000
,  // measure 29
0001
0001
0010
0010
,  // measure 30
0110
0110
1001
1001
,  // measure 31
0001
0100
0000
0001
0100
0000
0001
0100
,  // measure 32
0010
1000
0001
0010
,  // measure 33
0100
0100
0010
0001
,  // measure 34
0100
0000
0100
0000
0010
1000
0010
0000
,  // measure 35
1000
0100
0000
1000
0100
0000
1000
0100
,  // measure 36
0010
0001
1000
0010
,  // measure 37
0100
0100
0001
1000
,  // measure 38
0100
0010
0100
0000
1000
0001
1000
0000
,  // measure 39
0001
0000
0010
0000
1000
0000
0010
0001
,  // measure 40
1000
0000
0010
0000
0001
0000
0010
1000
,  // measure 41
0001
0010
0100
1000
,  // measure 42
0001
0100
0001
0000
0100
0000
0020
0000
,  // measure 43
1030
0000
0100
0000
0001
0000
0100
1000
,  // measure 44
0001
0000
0100
0000
1000
0000
0100
0001
,  // measure 45
1000
0100
0010
0001
,  // measure 46
1000
0000
0010
0100
0010
0000
1000
0000
,  // measure 47
0001
0010
0001
0000
0000
0000
0000
0000
,  // measure 48
1000
0010
1000
0000
0000
0000
0000
0000
,  // measure 49
0001
0100
0001
0000
0000
0000
0000
0000
,  // measure 50
2002
0000
0000
3003
1000
0000
0001
0000
,  // measure 51
0100
0010
0100
0000
0000
0000
0000
0000
,  // measure 52
0001
1000
0001
0000
0000
0000
0000
0000
,  // measure 53
0010
0100
0010
0000
0000
0000
0000
0000
,  // measure 54
0001
0100
0010
0000
1000
0100
0010
0000
,  // measure 55
0001
0000
0001
0000
1000
0010
1000
0000
,  // measure 56
0001
0010
0200
0000
,  // measure 57
1300
0010
0000
1000
0010
0000
0100
0000
,  // measure 58
0001
0010
0001
0000
1000
0000
0020
0000
,  // measure 59
0130
0001
0200
0000
0310
1000
0020
0000
,  // measure 60
1030
0000
1000
0000
0001
0010
0001
0000
,  // measure 61
0100
0000
0010
0000
1000
0001
1000
0000
,  // measure 62
0100
0000
0010
0000
0001
0000
1000
0010
,  // measure 63
2000
0000
0000
3100
0010
0000
0001
1000
,  // measure 64
0002
0000
0000
0000
0000
0000
0103
0000
0010
0000
0000
1000
0000
0000
0001
0000
,  // measure 65
0010
0000
0000
0100
0000
0000
1000
0000
0010
0000
0000
1000
0000
0000
0001
0000
,  // measure 66
0010
0000
0000
0100
0000
0000
1000
0000
0020
0000
0000
0000
0130
0000
0001
0000
,  // measure 67
0100
0000
0010
0000
1000
0001
0010
0000
,  // measure 68
0100
0010
0001
0000
2000
0000
0000
0000
,  // measure 69
3010
0000
1000
0100
1000
0000
0001
0100
,  // measure 70
0001
0000
0010
0000
0100
0010
0002
0000
,  // measure 71
1003
0000
0010
1000
0010
0000
0100
0000
,  // measure 72
0001
0010
0001
0010
0001
0010
0001
0010
,  // measure 73
0200
0000
2300
0000
,  // measure 74
3001
0001
0100
0100
,  // measure 75
1000
1000
0010
0010
,  // measure 76
0002
0000
0000
0000
,  // measure 77
0000
0000
0003
0000
,  // measure 78
0000
0000
0000
0000
,  // measure 79
0000
0000
0000
0000
,  // measure 80
2020
0000
0000
3030
,  // measure 81
2002
0000
0000
3003
,  // measure 82
0022
0000
0033
0110
,  // measure 83
0100
1000
0010
0100
,  // measure 84
0001
0000
0010
0000
1000
0000
0010
0001
,  // measure 85
1000
0000
0010
0000
0001
0000
0010
1000
,  // measure 86
0001
0000
0010
0000
0100
0000
1000
0001
,  // measure 87
1000
0000
0100
0010
0100
0000
1000
0000
,  // measure 88
0001
0000
0100
0000
1000
0000
0100
0001
,  // measure 89
1000
0000
0100
0000
0001
0000
0100
1000
,  // measure 90
0001
0000
0010
0100
0000
0010
0100
0000
,  // measure 91
1000
0010
0100
0001
,  // measure 92
1000
0000
0100
0000
0001
0000
0100
1000
,  // measure 93
0001
0000
0010
0000
1000
0000
0010
0001
,  // measure 94
1000
0000
0010
0000
0100
0001
0100
0000
,  // measure 95
0001
0010
0001
0000
0010
0000
0100
0000
,  // measure 96
1000
0000
0010
0000
0001
0000
0010
1000
,  // measure 97
0001
0000
0010
0000
1000
0000
0010
0001
,  // measure 98
2000
0000
0000
3020
0000
0000
0230
0000
,  // measure 99
0301
0000
0000
1001
0000
0000
0110
0000
,  // measure 100
0001
0000
0000
0000
,  // measure 101
0000
0000
1000
0001
1000
0000
1001
0000
,  // measure 102
0001
0100
0020
0000
0000
0000
0000
0000
,  // measure 103
0030
0000
0000
0000
;

//---------------dance-single - ---------------
#NOTEDATA:;
#CHARTNAME:;
#CHARTSTYLE:;
#CREDIT:D0omsday;
#STEPSTYPE:dance-single;
#DESCRIPTION:;
#DIFFICULTY:Hard;
#METER:13;
#METERF:13;
#RADARVALUES:0,0,0,0,0;
#NOTES:
// measure 0
0000
0000
0000
0000
,  // measure 1
0000
0000
0000
0000
,  // measure 2
1000
0000
0010
1000
0001
0000
0010
0100
,  // measure 3
0000
0001
0000
0100
0010
0000
0001
1000
,  // measure 4
0010
0100
0001
1000
0100
1000
0001
0010
,  // measure 5
0001
0100
0010
0100
1000
0100
0010
0100
,  // measure 6
0001
0000
0010
0001
1000
0000
0010
0100
,  // measure 7
0000
1000
0000
0100
0010
0000
1000
0001
,  // measure 8
0010
0100
0010
0001
0100
0010
1000
0100
,  // measure 9
0010
1000
0010
0100
0010
0001
1000
0010
,  // measure 10
0110
0110
0110
0110
,  // measure 11
2002
0000
0000
0000
3003
0000
0001
0010
,  // measure 12
0110
1100
1001
0101
,  // measure 13
0120
0000
0000
0000
,  // measure 14
1030
0000
0001
0010
0100
1000
0010
0000
,  // measure 15
0100
0000
0010
0000
1000
0000
0001
0100
,  // measure 16
0010
0100
0001
0000
0010
0000
0100
1000
,  // measure 17
0100
0010
0100
0000
1000
0001
0100
0000
,  // measure 18
0001
0010
0000
0001
1000
0000
0010
0100
,  // measure 19
0001
0000
1000
0000
0100
0000
0010
0100
,  // measure 20
1000
0000
0001
0100
0010
0100
0001
0000
,  // measure 21
1000
0100
0010
0001
1000
0010
0100
0000
,  // measure 22
0001
0001
0001
0000
1000
0000
0100
0000
,  // measure 23
0010
0010
0010
0000
0001
0000
1000
0000
,  // measure 24
0010
0010
0010
0000
0100
0000
0001
0000
,  // measure 25
1000
1000
1000
0000
0001
0000
0010
0000
,  // measure 26
0100
0100
0100
0000
0010
0000
0001
0000
,  // measure 27
0100
0100
0100
0000
0010
0000
1000
0001
,  // measure 28
1000
0000
0000
0100
0010
0100
0000
0000
,  // measure 29
0011
0011
1001
1001
,  // measure 30
1010
1010
0110
0110
,  // measure 31
0100
0001
0000
0001
0010
0000
0010
0100
,  // measure 32
1000
0000
0001
0000
0100
0000
0010
1000
,  // measure 33
0001
1000
0100
0000
0010
0000
0001
0100
,  // measure 34
0010
0100
0001
0000
0010
0000
0100
0000
,  // measure 35
1000
0001
0000
0001
0100
0000
0100
0010
,  // measure 36
1000
0000
0100
0000
1000
0000
0010
0100
,  // measure 37
0001
0010
0100
0000
0010
0000
0001
0100
,  // measure 38
0010
1000
0001
1000
0100
0010
0001
0000
,  // measure 39
1000
0010
0001
1000
0100
0001
1000
0000
,  // measure 40
0001
0010
1000
0001
0100
1000
0001
0000
,  // measure 41
1000
0000
0010
1000
0001
0000
0010
0001
,  // measure 42
0100
0000
0010
1000
0100
0000
0010
0000
,  // measure 43
0001
0010
1000
0001
0100
1000
0001
0000
,  // measure 44
1000
0010
0001
1000
0100
0001
1000
0000
,  // measure 45
0010
0100
0010
0000
1000
0100
0010
0000
,  // measure 46
0001
0100
0010
1000
0001
0000
0010
0000
,  // measure 47
0100
0010
0110
0000
0000
0000
0000
0000
,  // measure 48
1000
0001
1001
0000
0000
0000
0000
0000
,  // measure 49
0010
1000
1010
0000
0000
0000
0000
0000
,  // measure 50
0220
0000
0000
0330
0100
0000
0010
0000
,  // measure 51
1000
0001
1001
0000
0000
0000
0000
0000
,  // measure 52
0001
0010
0011
0000
0000
0000
0000
0000
,  // measure 53
0010
0100
0110
0000
0000
0000
0000
0000
,  // measure 54
0100
0000
1000
0100
0010
0001
0100
0000
,  // measure 55
0010
1000
0001
1000
0010
0100
0001
0010
,  // measure 56
0100
1000
0010
1000
0002
0000
0000
0000
,  // measure 57
0013
0100
0010
0001
0100
0010
1000
0100
,  // measure 58
0010
0100
1000
0001
0100
0010
2000
0000
,  // measure 59
3100
0010
0002
0000
1003
0010
0002
0000
,  // measure 60
1003
0100
0010
0100
0001
0010
0100
0010
,  // measure 61
0001
1000
0010
1000
0100
0010
0100
1000
,  // measure 62
0001
0100
0001
0010
0100
0010
0001
1000
,  // measure 63
0020
0000
0000
0000
0000
0130
0001
0000
1000
0000
0010
0000
1000
0000
0100
0000
,  // measure 64
0020
0000
0000
0000
0000
0000
0031
0000
1000
0000
0000
0010
0000
0000
0100
0000
,  // measure 65
0001
0000
0000
1000
0000
0000
0100
0000
0010
0000
0000
0100
0000
0000
1000
0000
,  // measure 66
0001
0000
0000
0100
0000
0000
0010
0000
0002
0000
0000
0000
0013
0000
0100
0000
,  // measure 67
0001
1000
0100
0010
0100
1000
0010
0100
,  // measure 68
0001
0100
0010
1000
0002
0000
0000
0000
,  // measure 69
0013
0100
0010
0001
1000
0010
1000
0001
,  // measure 70
0100
0001
0010
0100
1000
0001
2000
0000
,  // measure 71
3010
0100
0010
1000
0100
0010
0001
1000
,  // measure 72
0010
0100
0010
0001
0010
0100
0010
1000
,  // measure 73
0002
0000
0000
0013
0200
0000
0000
0300
,  // measure 74
1100
0110
1100
1001
,  // measure 75
0101
0110
1010
1001
,  // measure 76
0022
0000
0000
0000
,  // measure 77
0000
0000
0033
0000
,  // measure 78
0000
0000
0000
0000
,  // measure 79
0000
0000
0000
0000
,  // measure 80
2002
0000
0000
3003
,  // measure 81
2020
0000
0000
3030
,  // measure 82
0220
0000
0330
1001
,  // measure 83
1000
0100
0010
0001
1000
0010
0100
0001
,  // measure 84
1000
0100
0001
1000
0010
0001
1000
0000
,  // measure 85
0001
0100
1000
0001
0010
1000
0001
0000
,  // measure 86
0010
0000
0100
1000
0001
0000
0100
0001
,  // measure 87
1000
0000
0100
0000
0010
0001
1000
0000
,  // measure 88
0001
0010
1000
0001
0100
1000
0001
0000
,  // measure 89
1000
0010
0001
1000
0100
0001
1000
0000
,  // measure 90
0100
0010
0100
1000
0000
0001
0100
0000
,  // measure 91
0010
0100
0001
0010
0100
0010
0001
0000
,  // measure 92
1000
0010
0001
1000
0100
0001
0100
0000
,  // measure 93
1000
0100
0001
1000
0010
0001
0010
0000
,  // measure 94
0100
0000
0001
0010
0100
1000
0001
0000
,  // measure 95
1000
0010
0100
0010
1000
0100
0010
0000
,  // measure 96
0001
0100
1000
0001
0010
1000
0001
0000
,  // measure 97
1000
0100
0001
1000
0010
0001
1000
0000
,  // measure 98
0020
0000
0000
0230
0000
0000
0302
0000
,  // measure 99
0000
0013
0100
0010
0001
1000
0010
0100
,  // measure 100
0001
0000
0000
0000
,  // measure 101
0000
0000
1000
0001
1001
0000
0110
0000
,  // measure 102
0001
1000
0001
1000
0002
0000
0000
0000
0000
0000
0000
0000
0000
0000
0000
0000
,  // measure 103
0003
0000
0000
0000
;

//---------------dance-single - ---------------
#NOTEDATA:;
#CHARTNAME:;
#CHARTSTYLE:;
#CREDIT:D0omsday;
#STEPSTYPE:dance-single;
#DESCRIPTION:;
#DIFFICULTY:Challenge;
#METER:17;
#METERF:17;
#RADARVALUES:0,0,0,0,0;
#NOTES:
// measure 0
0000
0000
0000
0000
,  // measure 1
0000
0000
0000
0000
,  // measure 2
0001
0010
0100
0010
0001
0000
1000
0010
,  // measure 3
0100
0001
0010
0001
1000
0000
0100
0010
,  // measure 4
0001
1000
0010
0000
0100
0000
0001
0000
1000
0100
0010
0000
0100
0000
1000
0000
,  // measure 5
0001
0100
0010
0000
0100
0000
0001
0000
0010
0100
0010
0100
0010
0000
0001
0000
,  // measure 6
1000
0010
0100
0010
1000
0000
0001
0010
,  // measure 7
0100
1000
0010
1000
0001
0000
0100
0010
,  // measure 8
1000
0001
0010
0000
0100
0000
1000
0000
0001
0100
0010
0000
1000
0000
0100
0000
,  // measure 9
0010
0001
1000
0000
0010
1000
0001
0000
0100
0001
1000
0000
0100
1000
0001
0000
,  // measure 10
0100
0100
0010
0010
0100
0100
0010
0010
,  // measure 11
0220
0000
0000
0000
0330
0000
0001
1000
,  // measure 12
1001
1100
0110
0011
,  // measure 13
0201
0000
0000
0000
,  // measure 14
0310
0000
1000
0000
0001
0000
1000
0000
0100
0000
0010
0000
0001
0000
1000
0010
,  // measure 15
0100
0000
0001
0000
0010
0000
0001
0000
1000
0000
0100
0000
1000
0000
0001
1000
,  // measure 16
0010
0000
0100
0000
0001
0000
0010
0000
0100
0000
1000
0000
0010
0000
1000
0010
,  // measure 17
0100
0000
0001
0000
0010
0000
0001
0000
1000
0000
0100
0000
0010
0000
0100
1000
,  // measure 18
0001
0000
0100
0000
0001
0000
0010
0000
0100
0000
0010
0000
0001
0000
1000
0100
,  // measure 19
0010
0000
0001
0000
1000
0000
0010
0000
1000
0000
0100
0000
0010
0000
0001
1000
,  // measure 20
0010
0000
0100
0000
0001
0000
0010
0000
0100
0000
1000
0000
0100
0000
0010
0001
,  // measure 21
1000
0001
0100
0000
0010
0000
1000
0100
0010
0000
0100
0000
1000
0001
0100
0000
,  // measure 22
0010
1000
0010
1000
0010
0000
0000
0000
1000
0000
0001
0000
0010
0000
0100
0000
,  // measure 23
0010
0001
0010
0001
0010
0000
0000
0000
0001
0000
1000
0000
0010
0000
1000
0000
,  // measure 24
0100
0010
0100
0010
0100
0000
0000
0000
0010
0000
0001
0000
0100
0000
0010
0000
,  // measure 25
1000
0100
1000
0100
1000
0000
0000
0000
0001
0000
0010
0000
0001
0000
1000
0000
,  // measure 26
0010
0100
0010
0100
0010
0000
0000
0000
0100
0000
0001
0000
0010
0000
0100
0000
,  // measure 27
1000
0001
1000
0001
1000
0000
0000
0000
0010
0000
1000
0000
0100
0000
1000
0000
,  // measure 28
0001
0100
0001
0100
0001
0000
0010
0000
0100
0010
0100
0010
0100
0000
1000
0000
,  // measure 29
1001
1010
0101
0011
,  // measure 30
0110
1001
1010
0110
,  // measure 31
0001
0100
0010
0000
0100
0000
0001
0010
0100
0000
0010
0000
0001
0100
0010
0000
,  // measure 32
0100
0000
0001
1000
0100
0000
0010
0001
,  // measure 33
1000
0010
0100
0010
1000
0000
0100
1000
,  // measure 34
0001
0010
0001
0100
0010
0000
0100
0001
,  // measure 35
1000
0100
0010
0000
0100
0000
1000
0010
0100
0000
0010
0000
1000
0100
0010
0000
,  // measure 36
0100
0000
0010
0001
1000
0000
0010
0100
,  // measure 37
0001
0100
0010
1000
0100
0000
0010
0100
,  // measure 38
1000
0001
0100
0000
0010
0000
1000
0000
0100
0010
0100
0010
0100
0010
0100
0010
,  // measure 39
0001
0000
1000
0000
0010
0000
0001
0000
1000
0000
0100
0000
0001
0100
0010
0000
,  // measure 40
1000
0000
0001
0000
0010
0000
1000
0000
0001
0000
0100
0000
1000
0100
0010
0000
,  // measure 41
0001
1000
0010
1000
0001
0000
0100
0010
1000
0000
0100
0000
0010
0000
0100
1000
,  // measure 42
0001
0100
0001
0100
0001
0000
1000
0100
1000
0100
1000
0000
0010
0000
0000
0000
,  // measure 43
1000
0000
0001
0000
0100
0000
1000
0000
0001
0000
0010
0000
1000
0010
0100
0000
,  // measure 44
0001
0000
1000
0000
0100
0000
0001
0000
1000
0000
0010
0000
0001
0010
0100
0000
,  // measure 45
1000
0001
0100
0001
1000
0001
0100
0000
0001
1000
0010
1000
0001
1000
0010
0000
,  // measure 46
1000
0100
1000
0100
1000
0000
0100
0000
0220
0000
0330
0000
2002
0000
3003
0000
,  // measure 47
0101
0101
0101
0000
0000
0000
0000
0000
,  // measure 48
1001
1001
1001
0000
0000
0000
0000
0000
,  // measure 49
1100
1100
1100
0000
0000
0000
0000
0000
,  // measure 50
0220
0000
0000
0330
0100
0000
0010
0000
,  // measure 51
1001
1001
1001
0000
0000
0000
0000
0000
,  // measure 52
1010
1010
1010
0000
0000
0000
0000
0000
,  // measure 53
0110
0110
0110
0000
0000
0000
0000
0000
,  // measure 54
1000
0001
0010
0001
1000
0010
0100
0001
0100
0010
1000
0001
0010
0100
1000
0001
,  // measure 55
1000
0000
0100
0000
0010
0000
0001
0000
1000
0000
0010
0000
0100
0001
1000
0000
,  // measure 56
0100
1000
0001
0000
0010
0000
0001
0000
0200
0000
0000
0000
0000
0000
0000
0000
,  // measure 57
0301
0010
0010
0100
0100
1000
1000
0001
,  // measure 58
0001
0100
0010
0100
0001
0000
1000
0000
0100
0000
0010
0000
0200
0000
0000
0000
,  // measure 59
1300
0001
0100
0001
2000
0000
0000
0000
3001
1000
0010
1000
0200
0000
0000
0000
,  // measure 60
0310
0000
0001
1000
0010
0000
0100
0000
0001
0100
0010
1000
0100
1000
0010
0100
,  // measure 61
0001
0000
0010
0000
0100
0000
0010
0000
0001
1000
0001
0000
0100
0010
0100
0000
,  // measure 62
0001
0010
0100
1000
0001
0000
1000
0000
0001
0100
0001
0000
1000
0100
1000
0000
,  // measure 63
0200
0000
0000
0000
0000
0310
0001
0000
1000
0000
0010
0000
0100
0000
0001
0000
,  // measure 64
0020
0000
0000
0000
0000
0000
0031
0000
0100
0000
0000
1000
0000
0000
0100
0000
,  // measure 65
0001
0000
0000
0010
0000
0000
1000
0000
0001
0000
0000
0100
0000
0000
1000
0000
,  // measure 66
0010
0000
0000
0001
0000
0000
0010
0000
2000
0000
0000
0000
3001
0000
0010
0000
,  // measure 67
0100
1000
0001
0000
0100
0000
0001
0000
1000
0100
0010
0100
1000
0001
0100
0001
,  // measure 68
1000
0000
0100
0000
1000
0000
0001
0100
0010
2000
0000
0000
0000
0000
0000
0000
,  // measure 69
3010
0100
0001
0100
0010
0000
1000
0000
0100
1000
0100
0000
0010
0001
0010
0000
,  // measure 70
0001
1000
0001
1000
0000
0000
0010
0000
0100
0000
0001
0000
0020
0000
0000
0000
,  // measure 71
0130
0000
1000
0010
0100
0000
0001
0010
0100
0010
0001
0100
0001
0000
1000
0100
,  // measure 72
0010
1000
0010
0001
0010
1000
0010
0001
,  // measure 73
0200
0000
0000
0000
0000
0000
0310
1000
0002
0000
0000
0000
0000
0000
0013
0000
,  // measure 74
0001
0100
0001
1000
0010
0100
0010
1000
0001
0010
0001
1000
0100
0010
0100
1000
,  // measure 75
0001
0100
0001
1000
0010
0100
0010
1000
0100
0010
0100
1000
0001
0100
0001
1000
,  // measure 76
0200
0000
0000
0000
,  // measure 77
0000
0000
0300
0000
,  // measure 78
0000
0000
0000
0000
,  // measure 79
0000
0000
0000
0000
,  // measure 80
0220
0000
0000
0330
,  // measure 81
2200
0000
0000
3300
,  // measure 82
2002
0000
3003
0011
,  // measure 83
0010
0001
0010
0001
0100
0001
0010
0001
0010
0001
0100
0001
0010
0000
0000
0000
,  // measure 84
0001
0000
0100
0000
1000
0000
0001
0000
0010
0000
1000
0000
0001
0010
0100
0000
,  // measure 85
1000
0000
0100
0000
0001
0000
1000
0000
0010
0000
0001
0000
1000
0010
0100
0000
,  // measure 86
0001
0000
1000
0100
1000
0000
0001
0000
0100
0010
1000
0010
0100
0000
0001
0000
,  // measure 87
0010
0100
0010
0001
0100
0010
1000
0000
0100
0010
0100
1000
0001
0000
1000
0000
,  // measure 88
0001
0000
0010
0000
1000
0000
0001
0000
0100
0000
1000
0000
0001
0100
0010
0000
,  // measure 89
1000
0000
0010
0000
0001
0000
1000
0000
0100
0000
0001
0000
1000
0100
0010
0000
,  // measure 90
0001
0000
0100
0001
0010
0001
0100
0000
0010
1000
0001
1000
0010
0000
0000
0000
,  // measure 91
1000
0100
0010
0001
1000
0000
0001
0000
0100
0010
0100
0000
0001
0100
0010
1000
,  // measure 92
0001
0000
0010
0000
1000
0000
0001
0000
0100
0000
1000
0000
0001
0100
0010
0000
,  // measure 93
0001
0000
0010
0000
1000
0000
0001
0000
0100
0000
1000
0000
0100
0010
1000
0000
,  // measure 94
0001
0000
0010
0100
0010
0100
0010
0000
0001
0000
0100
0000
0010
1000
0010
0000
,  // measure 95
1000
0001
1000
0000
0100
0000
0010
0000
0001
0100
0010
0000
0100
0000
0001
0000
,  // measure 96
1000
0000
0010
0000
0001
0000
1000
0000
0100
0000
0001
0000
1000
0100
0010
0000
,  // measure 97
0001
0000
0010
0000
1000
0000
0001
0000
0100
0000
1000
0000
0001
0100
0010
0000
,  // measure 98
0002
0000
0000
2003
0000
0000
3200
0000
,  // measure 99
0301
0000
0010
0000
0100
0000
1000
0000
0001
0100
0010
1000
0100
0010
0001
0100
,  // measure 100
0010
0000
0000
0000
,  // measure 101
0000
0000
1100
0110
0011
0000
1001
0000
,  // measure 102
0010
0100
0010
0100
0020
0000
0000
0000
0000
0000
0000
0000
0000
0000
0000
0000
,  // measure 103
0030
0000
0000
0000
;
