#TITLE:What The...;
#SUBTITLE:;
#ARTIST:Da Mouth;
#TITLETRANSLIT:;
#SUBTITLETRANSLIT:;
#ARTISTTRANSLIT:;
#GENRE:;
#CREDIT:Evergreen;
#MUSIC:What-The-Edit.ogg;
#BANNER:what-bn.png;
#BACKGROUND:what-bg.png;
#CDTITLE:;
#SAMPLESTART:0.000;
#SAMPLELENGTH:0.000;
#SELECTABLE:YES;
#OFFSET:-0.032;
#BPMS:0.000=68.000
,14.000=136.000
,114.000=68.000
,130.000=136.000
,210.000=68.000
,217.000=136.000
,240.500=68.000
;
#STOPS:;
#BGCHANGES:;
#FGCHANGES:;

//--------------- dance-single - Evergreen REREREFORMED ----------------
#NOTES:
     dance-single:
     Evergreen REREREFORMED:
     Medium:
     10:
     0,0,0,0,0:
0000
0000
0000
0000
,
0000
0000
0000
0000
,
2000
0000
3200
0320
,
0032
0000
2M00
0000
,
3003
0000
1000
0010
,
0100
0000
0001
1000
0000
0000
0100
0000
0000
0010
0000
0000
,
0001
0000
1000
0001
0000
0000
0100
0000
0000
0010
0000
0000
,
1000
0000
0001
0010
0000
0000
0100
0000
0000
0010
0000
0000
,
0001
0000
1000
0010
0000
0000
0100
0000
0000
0001
0000
0000
,
1000
0000
0100
0010
0000
0000
0100
0000
1000
0001
0000
0000
,
1000
0000
0100
0010
0000
0001
1000
0000
0000
0010
0000
1000
,
0000
0000
0010
1000
0000
0000
0001
0000
0000
0010
0000
0100
,
1000
0000
0001
1000
0000
0000
0010
0000
0100
0001
0000
0100
,
0001
0000
0000
0010
0000
0100
1000
0000
0000
0100
0000
0000
,
1000
0000
0000
0001
0000
0000
0100
0000
0010
1000
0000
0010
,
1000
0000
0000
0100
0000
0010
0001
0000
0000
0010
0000
0000
,
0001
0000
0010
0100
0000
0010
0001
0000
0100
0010
0000
1000
,
0010
0000
0000
1000
0000
0001
0010
0000
0000
0100
0000
0000
,
1000
0000
0010
0100
0000
0001
1000
0000
0100
0010
0000
0100
,
0010
0000
0000
0001
0000
1000
0001
0000
1000
0001
0000
1000
,
0200
0000
0310
0001
,
0011
0000
0000
0010
0000
0100
0010
0000
0000
0001
0000
0000
,
1000
0000
0010
1000
0000
0000
0010
0000
0000
1000
0000
0000
,
1010
0000
0000
0010
0000
1000
0001
0000
0000
0010
0000
0000
,
0100
0000
1000
0001
0000
0000
1000
0000
0000
0001
0000
0000
,
1001
0000
0000
1000
0000
0100
0010
0000
0000
0001
0000
0100
,
0010
0000
1000
0010
0000
2010
0000
0000
0000
3001
0000
0000
,
0010
0000
0100
1000
0000
0000
0001
0000
0100
0010
0000
1000
,
0001
1001
2M00
0000
,
3020
0000
0000
0230
0000
0000
0000
0000
0302
0000
0000
0000
0000
0000
0000
0000
,
0023
0000
0000
0230
0000
0000
0000
0000
2300
0000
0000
0000
0000
0000
0000
0000
,
3002
0000
0000
0023
0000
0000
0000
0000
0130
0000
1000
0000
0001
0000
0000
0000
,
0100
0001
1000
0001
M010
0100
1000
0000
,
0010
0100
0010
0000
1000
0010
0100
0000
,
0001
0100
0001
0000
0010
0001
0010
0000
,
0001
0010
0100
0000
0010
0001
1000
0001
,
0100
0010
1000
0002
0000
0000
0000
0000
,
1003
0010
1000
0000
0010
0100
0001
0000
,
0010
0100
1000
0001
2000
0000
0000
0000
,
3001
0010
0001
0000
1000
0010
0100
0001
,
1000
0100
0010
0000
0001
0000
0010
0000
,
0100
1000
0010
1000
,
0010
0000
1000
0010
,
0100
0001
0010
0001
,
1000
0001
1000
0000
0100
0000
1000
0000
,
1100
0000
0000
0100
0000
0010
0100
0000
0000
1000
0000
0000
,
0001
0000
0100
0001
0000
0000
0100
0000
0000
0001
0000
0000
,
0101
0000
0000
0100
0000
0001
1000
0000
0000
0100
0000
0000
,
0010
0000
0001
1000
0000
0000
0001
0000
0000
1000
0000
0000
,
1001
0000
0000
0001
0000
0010
0100
0000
0000
1000
0000
0010
,
0100
0000
0001
0100
0000
0102
0000
0000
0000
1003
0000
0000
,
0100
0000
0010
0001
0000
0000
1000
0000
0010
0100
0000
0001
,
1000
0000
1001
0000
0M01
0010
0100
1000
,
0010
0000
0000
1000
0000
0010
0000
0000
0000
0100
0000
0000
0110
0000
0000
0010
0000
0000
1000
0000
0000
0100
0000
0000
,
0010
0000
0001
1000
0M00
0000
0000
0000
0001
0000
0000
0000
1001
0000
0000
0000
,
1000
0000
0100
0010
0000
0000
0001
0000
0100
0010
0000
1000
,
0010
0000
0100
0000
0000
0001
0010
0000
0012
0000
0000
0000
,
1003
0000
0000
0010
0000
0100
0001
0000
0010
0100
0000
1000
,
0001
0000
1000
0001
0000
0000
1001
0000
0000
1000
0000
0000
,
0001
1000
0001
0020
,
0000
0200
0000
0000
0000
0000
0000
0000
,
0330
0000
0000
0000
;

//--------------- dance-single - Evergreen REREFORMED ----------------
#NOTES:
     dance-single:
     Evergreen REREFORMED:
     Hard:
     13:
     0,0,0,0,0:
0000
0000
0000
0000
,
0000
0000
0000
0000
,
1000
0010
0100
0001
0010
0100
1000
0001
0100
0001
1000
0100
,
2000
0000
0002
0000
,
0000
0000
0000
3003
0000
0000
1000
0000
0010
0100
0000
0100
,
0002
0000
0000
1003
0000
0100
0010
0000
0000
0001
0000
1000
,
0000
0000
1000
0001
0000
0000
0100
0000
0010
1000
0000
1000
,
0002
0000
0000
0013
0000
0100
1000
0000
0000
0010
0000
0100
,
0001
0000
0001
1000
0000
1000
0001
0000
0010
0100
0000
1000
,
0002
0000
0000
1003
0000
0010
0100
0000
0000
0001
0000
0010
,
0100
0000
1000
0100
0000
0010
0000
0000
0001
0100
0000
0010
,
0000
0000
1000
0100
0000
0010
0001
0000
0000
1000
0000
0010
,
0100
0000
0001
1000
0000
1000
0001
0000
0001
0010
0000
0010
,
0100
0000
0000
0100
0000
1000
0002
0000
0000
0023
0000
0000
,
0230
0000
1300
0001
0000
0000
1000
0000
1000
0010
0000
0010
,
0100
0000
0000
0100
0000
0001
2000
0000
0000
3020
0000
0000
,
0230
0000
0301
1000
0000
1000
0001
0000
0001
0100
0000
0100
,
0010
0000
0010
1000
0000
1000
0200
0000
0000
0320
0000
0000
,
0032
0000
1003
0001
0000
0001
1000
0000
1000
0010
0000
0010
,
0100
0000
0000
0100
0000
0001
1000
0000
0001
0010
0000
0001
,
0100
0010
1000
0010
0000
0000
1010
0000
0000
1010
0000
0000
,
1010
0000
0000
1000
0000
0001
0010
0000
0001
0100
0000
0001
,
1000
0000
0100
1000
0000
0000
1100
0000
0000
1100
0000
0000
,
1100
0000
0000
0100
0000
0010
0001
0000
1000
0010
0000
0100
,
0001
0000
1000
0001
0000
0000
1001
0000
0000
1001
0000
0000
,
1001
0000
0000
1000
0000
0010
0100
0000
0001
1000
0000
0100
,
0010
0000
0001
0010
0000
0012
0000
0000
0000
1000
0000
0000
,
1003
0000
0010
1000
0000
0010
0100
0000
0001
1000
0000
0001
,
0000
0000
1001
0000
10M0
0001
0100
0010
,
1000
0000
0100
0010
0001
0000
0000
0000
1000
0000
0001
0001
0100
0000
0010
0000
,
1000
0000
0100
0010
0002
0000
0000
0000
1003
0000
0010
0100
0001
0000
0100
0010
,
0000
1000
0001
0001
1000
0000
0000
0100
0010
0100
1000
1000
0001
0000
0100
0010
,
0000
0100
0001
0001
2000
0000
3002
0000
10M3
0000
0100
0000
0010
0000
0001
0000
,
1000
0000
0010
1000
0000
0000
1000
0000
0010
0000
0100
0000
0001
0000
0010
0000
,
0100
0000
1000
0001
0000
0000
0001
0000
1000
0000
0100
0000
1000
0000
0010
0000
,
0100
0000
0001
0010
0000
0000
0010
0000
0001
0000
1000
0000
0010
0000
0100
0000
,
0001
0010
0100
2000
0000
0000
0000
3001
,
0100
0000
0100
0000
0010
0000
0010
0000
1000
0000
0001
1000
0001
0000
0010
0000
,
0100
0100
2000
0000
3002
0000
0000
1003
,
0100
1000
0010
0100
0001
0001
1000
1000
,
0100
0000
0000
1000
0000
0000
0002
0000
0000
0000
0000
0000
1003
0000
0000
0000
1000
0000
0010
0000
0000
0000
0010
0000
,
0100
0000
0000
0100
0000
0001
2000
0000
0000
3020
0000
0000
,
0230
0000
0301
1000
0000
0000
0001
0000
0001
0010
0000
0010
,
0100
0000
0000
0100
0000
1000
0010
0000
1000
0100
0000
0010
,
0001
0010
0001
0010
0001
0000
0000
0000
0011
0000
0000
0000
0011
0000
0000
0000
,
0011
0000
0000
0001
0000
1000
0010
0000
1000
0100
0000
1000
,
0001
0000
0100
0001
0000
0000
0101
0000
0000
0101
0000
0000
,
0101
0000
0000
0100
0000
0010
1000
0000
0001
0010
0000
0100
,
1000
0000
0001
1000
0000
0000
1001
0000
0000
1001
0000
0000
,
1001
0000
0000
0001
0000
0010
0100
0000
1000
0001
0000
0100
,
0010
0000
1000
0010
0000
2010
0000
0000
0000
0001
0000
0000
,
3001
0000
0010
0001
0000
0010
0100
0000
1000
0001
0000
1000
,
0000
0000
0000
0000
0000
0000
1001
0000
0000
0000
0000
0000
00M1
0000
0000
1000
0000
0000
0100
0000
0000
0010
0000
0001
,
0010
0000
0010
0100
0000
2000
0000
0000
0000
3001
0000
0000
1001
0000
0000
1000
0000
0010
0100
0000
0000
0001
0000
0100
,
0010
0000
0000
0000
0010
0000
2000
0000
0000
0002
0000
0000
0M00
0000
0000
0000
0000
0000
3003
0000
0000
0000
0000
0000
0110
0000
0000
0000
0000
0000
0000
0000
0000
0000
0000
0000
1001
0000
0000
0000
0000
0000
0000
0000
0000
0000
0000
0000
,
1000
0000
1000
0100
0000
0100
0010
0000
0010
0001
0000
0001
,
0100
0000
0010
0000
0000
1000
0100
0000
0120
0000
0000
0000
,
0001
0000
0000
0031
0000
1000
0010
0000
0010
0100
0000
0100
,
0001
0000
1000
0001
0000
0000
1001
0000
0000
1000
0000
0000
,
0001
1000
0001
0200
,
0000
0020
0000
0000
0000
0000
0000
0000
,
0330
0000
0000
0000
;

//--------------- dance-single - Evergreen REFROMED ----------------
#NOTES:
     dance-single:
     Evergreen REFROMED:
     Challenge:
     14:
     0,0,0,0,0:
0000
0000
0000
0000
,
0000
0000
0000
0000
,
1000
0100
0010
0001
0100
0010
0010
0100
0001
0010
0100
1000
,
0001
0000
0100
0010
1000
0000
0001
0000
0010
0100
1000
0000
20M2
0000
0000
0000
0000
0000
0000
0000
0000
0000
0000
0000
,
0000
0000
0000
3003
0000
0001
1000
0000
0001
0010
0000
0100
,
0020
0000
0031
1000
0000
0010
0200
0000
0300
1000
0000
0200
,
0000
0300
0001
1000
0000
1000
0001
0000
1000
0010
0000
0100
,
0020
0000
1030
0001
0000
0010
0200
0000
0300
0001
0000
0200
,
1300
0010
1000
0001
0010
0001
1000
0000
0001
1000
0000
0001
,
0020
0000
0130
1000
0000
0010
0100
0000
0001
1000
0000
0100
,
0000
0000
1000
0001
0000
0100
0010
0000
1000
0001
0000
0020
,
0000
0000
0000
0000
0000
0000
0000
0000
0130
0000
0000
0000
1000
0000
0000
0000
0000
0000
0000
0000
0001
0000
0000
0000
1000
0000
0000
0000
0000
0000
0000
0000
0000
0000
0000
0000
0001
0000
1000
0000
0001
0000
0010
0000
0000
0100
0000
0000
,
1000
0000
0010
0100
0000
0001
1000
0000
0100
0010
0000
0100
,
2000
0000
3010
0100
0000
0001
0020
003M
0010
2000
0000
3001
,
0200
0000
0000
0300
0001
0000
1000
0000
0000
0000
1000
0000
0001
0000
0000
0000
0100
0000
0010
0000
0000
0000
0100
0000
,
0002
0000
0013
0100
0000
1000
0020
M030
0010
0002
0000
1003
,
0200
0300
1000
0000
0001
0000
0100
0000
0001
0000
1000
0000
0100
0000
0000
0000
0010
0000
0001
0000
0000
0000
1000
0000
,
0010
0000
0000
0000
0100
0000
0001
0000
0000
0000
1000
0000
0020
0000
M030
0000
0010
0000
0002
0000
0000
0003
1000
0000
,
0200
M300
0100
0001
0000
0010
0100
0000
1000
0001
0000
0010
,
0100
0000
0000
1000
0000
0001
2000
0000
0000
0010
0000
0000
,
3001
0100
0001
1000
0100
1000
1100
0000
0000
1100
0000
0000
,
1100
0000
0000
1000
0000
0010
0100
0000
0001
1000
0000
0001
,
0010
0100
1000
0020
0000
0030
1010
0000
0000
1010
0000
0000
,
1010
0000
0000
1000
0000
0100
0010
0000
0001
1000
0000
0001
,
0100
0010
1000
0020
0000
0030
1010
0000
0000
1100
0000
0000
,
1010
0000
0000
0010
0000
1000
0002
0000
0000
0013
0000
0100
,
1000
0000
0010
0100
0000
0102
0000
0000
0000
1000
0000
0000
,
0013
0000
0100
1000
0000
0010
0100
0000
0001
0010
0000
0100
,
1000
0000
1001
0000
0M01
0010
0100
1000
,
0010
0000
0000
0000
0000
0000
0100
0000
0000
1000
0000
0000
0100
0000
0000
0001
0000
0000
0020
0000
0000
0000
0000
0000
0130
0000
0000
0000
0000
0000
0001
0000
0000
0000
0100
0000
1000
0000
0000
0000
0000
0000
0010
0000
0000
0000
0000
0000
,
0100
0000
0001
1000
0020
0000
0000
0000
0130
0000
0001
0100
0001
0000
1000
0100
,
0000
0010
0001
0100
0010
0000
0000
1000
0100
0010
0001
0001
1000
0000
0001
0100
,
0000
0000
0000
0010
0000
0000
1000
0000
0100
0000
1000
0000
0001
0000
0100
0000
0001
0000
2000
0000
0000
0000
0000
0000
3M01
0000
0000
0000
0000
0000
0010
0000
0000
0000
0000
0000
0100
0000
0000
0000
0000
0000
1000
0000
0000
0000
0000
0000
,
0010
0000
0100
0002
0000
0003
0100
0100
1000
0000
0010
0000
0100
0000
0001
0000
,
0010
0000
0100
2000
0000
3000
0100
0100
0001
0000
0010
0000
0001
0000
1000
0010
,
0100
0000
0001
1000
0000
0000
0010
0010
0001
0000
1000
0000
0001
0000
0010
0000
,
0100
1000
0001
1000
0100
0000
0020
0000
0000
0000
0000
0000
0030
0000
0100
0000
,
1000
0001
0100
0000
0010
0M00
0010
0000
0001
0000
1000
0000
0100
M000
0100
0000
,
0001
0010
0100
1000
0001
0000
1000
0000
0020
0000
0000
0000
0000
0000
0130
0001
,
1000
0100
0010
0000
0001
0000
1000
0000
0010
M000
0010
0000
0100
00M0
0100
0000
,
0001
0000
0000
0010
0000
0000
0001
0000
0000
1000
0000
0000
0100
0000
0000
0000
0010
0000
0001
0000
0000
0000
1000
0000
,
0010
0000
0000
0100
0000
0001
2000
0000
0000
0001
0000
0000
,
3001
0000
0000
0000
0000
0001
0100
0000
0010
1000
0000
0001
,
0010
0000
0000
0001
0000
1000
0001
0000
1000
0001
0000
1000
,
0001
1000
0001
0000
0100
0001
0100
0000
0101
0000
0000
0000
0101
0000
0000
0000
,
0101
0000
0000
0001
0000
0010
0100
0000
1000
0001
0000
1000
,
0010
0100
0001
0020
0000
0030
0011
0000
0000
0011
0000
0000
,
0011
0000
0000
0001
0000
0100
0010
0000
1000
0001
0000
1000
,
0100
0010
0001
0020
0000
0030
0011
0000
0000
0101
0000
0000
,
0011
0000
0000
0010
0000
0001
2000
0000
0000
3010
0000
0100
,
0001
0000
0010
0100
0000
2100
0000
0000
0000
0001
0000
0000
,
3010
0000
0100
0001
0000
0010
0100
0000
1000
0010
0000
0100
,
0001
0000
0000
0000
0000
0000
1001
0000
0000
0000
0000
0000
1M00
0000
0000
0010
0000
0000
0100
0000
0000
0001
0000
0010
,
0100
0000
0001
0100
0000
2000
0000
0000
0000
3010
0000
0000
1010
0000
0000
1000
0000
0001
0100
0000
0000
1000
0000
0100
,
0010
0000
0000
0000
0100
0000
0002
0000
0000
2003
0000
0000
3M00
0000
0000
0000
0000
0000
0001
0000
1000
0000
0010
0000
1000
0000
0000
0000
0000
0000
0000
0000
0000
0000
0000
0000
1010
0000
0000
0000
0000
0000
0000
0000
0000
0000
0000
0000
,
1000
0000
0001
0010
0000
0100
1000
0000
0010
0200
0000
0000
,
0001
0000
0301
0000
0000
0010
0100
0000
0210
0000
0000
0000
,
1000
0000
0000
1300
0000
0010
1000
0000
0010
0100
0000
0001
,
0010
0000
0100
1000
0000
0000
1001
0000
0000
0001
0000
0000
,
1000
0001
1000
0020
,
0000
0200
0000
0000
0000
0000
0000
0000
,
0330
0000
0000
0000
;
