#VERSION:0.83;
#TITLE:Viyella's Nightmare;
#SUBTITLE:Pump it Up Phoenix (2023);
#ARTIST:laur;
#TITLETRANSLIT:;
#SUBTITLETRANSLIT:;
#ARTISTTRANSLIT:;
#GENRE:;
#ORIGIN:;
#CREDIT:Kommisar;
#BANNER:nightmare-bn.jpg;
#BACKGROUND:nightmare-bg.png;
#PREVIEWVID:;
#JACKET:;
#CDIMAGE:;
#DISCIMAGE:;
#LYRICSPATH:;
#CDTITLE:!cdtitle.png;
#MUSIC:nightmare.ogg;
#OFFSET:0.399000;
#SAMPLESTART:91.725014;
#SAMPLELENGTH:12.000000;
#SELECTABLE:YES;
#BPMS:0.000=220.000;
#STOPS:;
#DELAYS:;
#WARPS:336.000=8.000,
344.250=8.000,
352.500=8.000,
360.750=8.000;
#TIMESIGNATURES:0.000=4=4;
#TICKCOUNTS:0.000=4;
#COMBOS:0.000=1;
#SPEEDS:0.000=-0.500=0.000=0,
28.000=1.000=8.000=0,
188.000=0.500=8.000=0,
228.000=1.000=4.000=0,
408.000=1.000=0.000=0,
408.021=1.000=2.000=0,
416.000=1.000=0.000=0,
416.021=1.000=2.000=0,
434.000=1.000=1.000=0,
440.000=0.250=1.000=0,
440.021=1.000=2.000=0,
448.000=0.250=2.000=0,
448.021=1.000=2.000=0,
466.000=0.000=12.000=0;
#SCROLLS:0.000=1.000,
112.000=0.250,
116.000=1.000;
#FAKES:;
#LABELS:0.000=Song Start;
#BGCHANGES:-0.115=nightmare.mp4=1.000=0=0=0=StretchNoLoop====,
99999=-nosongbg-=1.000=0=0=0 // don't automatically add -songbackground-
;
#FGCHANGES:0.000=lua=1.000=0=0=1=====,
;
#KEYSOUNDS:;
#ATTACKS:
;

//---------------dance-single - ----------------
#NOTEDATA:;
#CHARTNAME:;
#STEPSTYPE:dance-single;
#DESCRIPTION:;
#CHARTSTYLE:;
#DIFFICULTY:Challenge;
#METER:17;
#RADARVALUES:0.752920,1.153865,0.160930,0.386231,0.599463,655.000000,635.000000,20.000000,48.000000,28.000000,0.000000,7.000000,0.000000,22.000000,0.752920,1.153865,0.160930,0.386231,0.599463,655.000000,635.000000,20.000000,48.000000,28.000000,0.000000,7.000000,0.000000,22.000000;
#CREDIT:;
#NOTES:
// measure 0
0000
0000
0000
0000
,  // measure 1
0000
0000
M000
0000
0000
0000
0000
0000
000M
0000
0000
00M0
0000
0000
000M
0000
0000
0000
0000
0000
0M00
0000
0000
0000
,  // measure 2
0000
00M0
0000
0000
M000
0000
0000
0M00
0000
0000
M000
0000
,  // measure 3
0000
0000
0000
0000
0000
0000
0000
0000
000M
0000
0000
00M0
0000
0000
000M
0000
0000
0000
0000
0000
0M00
0000
0000
0000
,  // measure 4
0000
0000
0000
0000
00M0
0000
0000
0000
0000
0000
0000
0000
0000
0000
0000
0000
M000
0000
0000
0000
0000
0000
0000
0000
0000
0000
0000
0000
0M00
0000
0000
0000
0000
0000
0000
0000
0000
0000
0000
0000
000M
0000
0000
M000
0000
0000
00M0
0000
,  // measure 5
0000
0000
0000
0000
0000
0000
0000
0000
0000
0000
0000
0000
0000
0000
0000
0000
0000
0000
0000
0000
M000
0000
0000
0M00
,  // measure 6
0000
00M0
0000
0000
000M
00M0
0M00
M000
0000
0000
00M0
0000
,  // measure 7
000M
0000
0000
0000
,  // measure 8
0000
0000
0000
0000
0000
0000
0000
0000
0000
0000
0000
0000
0002
0000
0000
0003
,  // measure 9
2001
0000
0000
0000
0000
0000
0000
3000
0200
0000
0000
0300
0020
0000
0000
0030
,  // measure 10
0200
0000
0000
0000
0000
0000
0000
0300
0020
0000
0000
0030
0002
0000
0000
0003
,  // measure 11
2000
0000
0000
0000
0000
0000
0000
3000
0020
0000
0000
0030
0200
0000
0000
0300
,  // measure 12
0002
0000
0000
0000
0000
0000
0000
0003
0000
0000
0000
0000
1000
0000
0100
0000
,  // measure 13
0020
0000
0000
0000
0000
0000
0000
0000
0000
0000
0000
0030
0020
0000
0000
0030
,  // measure 14
0002
0000
0000
0000
0000
0003
0200
0000
0000
0000
0000
0300
0020
0000
0000
0030
,  // measure 15
2000
0000
0000
0000
0000
0000
0000
0000
0000
0000
0000
3000
2000
0000
0000
3000
,  // measure 16
0020
0000
0000
0000
0030
0000
0000
0000
0100
0000
0001
0010
0001
0000
1000
0000
,  // measure 17
1100
0100
0010
0001
0100
0000
0100
0000
,  // measure 18
0010
1000
0001
0010
0001
0000
0001
0000
,  // measure 19
1000
0000
0010
0100
0010
0000
1000
0100
,  // measure 20
0010
0000
0100
0000
1000
0000
0001
0000
0010
0000
0000
0000
0001
1000
0001
1000
,  // measure 21
0001
0100
0010
1000
0100
0000
1000
0000
,  // measure 22
0010
0100
0001
0010
0004
0000
4003
0000
,  // measure 23
3001
0000
0000
0010
0100
1000
0001
0000
0100
0010
0000
1000
,  // measure 24
0200
0000
0000
0000
0000
0000
0000
0000
0000
0000
0000
0300
,  // measure 25
1000
0000
0000
1000
0000
0000
1000
0000
0000
0010
0100
0001
,  // measure 26
0010
0000
0000
0100
1000
0010
0100
0001
1000
0100
1000
0010
,  // measure 27
0100
0000
0001
0010
0000
0001
0100
0010
0100
0010
0100
0010
,  // measure 28
0000
0000
0000
0000
,  // measure 29
1100
0000
1000
0010
0000
0100
0010
0000
0100
0001
0000
0010
,  // measure 30
0100
0000
0010
0001
1000
0100
1000
0010
0100
0001
0010
0001
,  // measure 31
1000
0000
0010
0100
0000
0001
0100
0000
0001
1000
0000
0010
,  // measure 32
2000
0000
0000
0000
0000
0000
0000
0000
0000
0000
0000
0000
0000
0000
0000
0000
3000
0000
0001
0000
0000
0010
0000
0000
,  // measure 33
0110
0000
0100
1000
0000
0100
0010
0000
0001
0100
0000
0010
,  // measure 34
0100
0000
0001
1000
0100
1000
0100
0010
0001
0100
0010
0100
,  // measure 35
0001
0000
1000
0100
0000
1000
0010
1000
0001
0010
0100
1000
,  // measure 36
0001
0010
0100
0010
0001
0000
0001
0000
,  // measure 37
2000
0000
0000
0000
0000
0000
3000
0000
0000
2000
0000
0000
0000
0000
0000
3000
0000
0000
2000
0000
0000
3000
0000
0000
1001
0000
0000
0000
0000
0000
0000
0000
0001
0000
0000
0000
0010
0000
0000
0000
0000
0000
0000
0000
0001
0000
0000
0000
,  // measure 38
0100
0000
0010
0100
0001
1000
0100
1000
0001
1000
0100
0010
,  // measure 39
0001
0000
1000
0100
1000
0001
0010
0000
0100
1000
0000
0100
,  // measure 40
1000
0010
0100
0000
0001
0010
0001
0000
,  // measure 41
1000
0000
0010
1000
0020
0000
0000
0030
0200
0000
0000
0300
0002
0000
0000
0003
,  // measure 42
0020
0000
0000
0030
0200
0000
0000
0300
2000
0000
0000
3000
0020
0000
0000
0030
,  // measure 43
1000
0000
0001
1000
0001
0000
0000
0000
0001
0000
0000
0000
0001
0000
0001
0000
,  // measure 44
0000
0000
0000
0000
0000
0000
0000
0000
0000
0000
0000
0000
1000
0010
1000
0000
,  // measure 45
2020
3030
0000
0000
,  // measure 46
0000
0000
0000
0000
,  // measure 47
0000
0000
0000
0000
,  // measure 48
0000
0000
0000
0000
,  // measure 49
0011
0000
0001
1000
0100
0010
0001
0000
,  // measure 50
0001
0000
0100
0010
1000
0000
0100
1000
,  // measure 51
0010
0100
0001
0000
0010
0000
0000
0000
,  // measure 52
0100
0000
1000
0100
1000
0010
0100
0000
,  // measure 53
0001
0000
0010
0100
1000
0000
0010
0100
,  // measure 54
0001
1000
0100
0000
1000
0000
0000
0000
,  // measure 55
0010
0000
0100
0001
0010
0000
0001
0000
,  // measure 56
1000
0100
1000
0010
0100
0000
0001
0010
,  // measure 57
0001
1000
0100
0000
1000
0000
0000
0000
,  // measure 58
1020
0000
0000
0000
0030
0000
0100
0000
0001
0000
1000
0000
0200
0000
0000
0300
,  // measure 59
2000
0000
0000
3000
0010
0000
0100
0000
0002
0000
0000
0003
0000
0000
1000
0000
,  // measure 60
0010
0000
1000
0000
0200
0000
0000
0300
0020
0000
0000
0030
0001
0000
1000
0000
,  // measure 61
0200
0000
0000
0300
0000
0000
1000
0000
0010
0000
0100
0000
0002
0000
0000
0003
,  // measure 62
0020
0000
0000
0030
0100
0000
1000
0000
1001
0000
0000
0000
0001
0000
0000
0000
,  // measure 63
0001
0100
0100
0100
,  // measure 64
0010
0010
0010
1000
,  // measure 65
1000
1000
1100
0100
,  // measure 66
0100
0010
0010
0010
,  // measure 67
0011
0001
0001
0101
,  // measure 68
0100
0000
0100
0000
1001
1000
0100
0010
,  // measure 69
0001
0000
0100
0010
1000
0001
0010
0000
,  // measure 70
0100
1000
0010
0000
0100
0001
0010
0001
,  // measure 71
1000
0000
0100
0010
0000
0100
1000
0010
,  // measure 72
0100
0001
0010
0000
0001
1000
0100
1000
,  // measure 73
0010
0000
0100
0001
1000
0001
0010
0100
,  // measure 74
1000
0010
0100
0000
0001
1000
0100
0010
,  // measure 75
0001
0100
0010
1000
0000
0001
0010
0001
,  // measure 76
1000
0000
0100
0000
0110
0010
0001
0100
,  // measure 77
0010
0000
0010
0000
1000
0100
1000
0100
,  // measure 78
0010
0000
0010
0000
0001
0000
1000
0010
,  // measure 79
0100
0000
0001
1000
0010
0100
0001
0010
,  // measure 80
0001
1000
0100
0000
1000
0100
1000
0010
,  // measure 81
0100
0000
0100
0000
0001
0010
0001
1000
,  // measure 82
0100
0000
0000
0010
0000
0000
0004
0000
0000
0000
0000
0000
1003
0000
0000
0000
0000
0000
0010
0000
0100
0000
0001
0000
,  // measure 83
0100
0000
0010
1000
0000
0100
0020
0000
0000
0000
0000
0000
,  // measure 84
0030
0000
0000
0000
0000
0000
0000
0000
0000
0000
0000
0000
2000
0000
0000
0000
0000
0000
0000
0000
3000
0000
0000
0000
1001
0000
0000
0000
0000
0000
0001
0000
0000
0010
0000
0000
0001
0000
0000
0000
0000
0000
1000
0000
0000
0000
0000
0000
,  // measure 85
0100
1000
0010
0100
0000
0000
0000
0000
,  // measure 86
0000
0000
0000
0000
,  // measure 87
0000
0000
0010
0000
,  // measure 88
0000
0000
0000
0000
0000
0000
0000
0000
0000
0000
0000
0000
2000
0000
0000
0000
0000
0000
0000
0000
3000
0000
0000
0000
1001
0000
0000
0000
0000
0000
0001
0000
0000
0010
0000
0000
0001
0000
0000
0000
0000
0000
1000
0000
0000
0000
0000
0000
,  // measure 89
0100
1000
0010
0000
0000
0000
0000
0000
,  // measure 90
0000
0000
0000
0000
,  // measure 91
0000
0000
0000
0000
,  // measure 92
0000
0000
0000
0000
0000
0000
0000
0000
0000
0000
0000
0000
2000
0000
0000
0000
0000
0000
0000
0000
3000
0000
0000
0000
1001
0000
0000
0000
0000
0000
0001
0000
0000
0010
0000
0000
0001
0000
0000
0000
0000
0000
1000
0000
0000
0000
0000
0000
,  // measure 93
0100
0000
1000
0000
0010
0000
0100
0000
0001
0000
0010
0000
0001
0000
1000
0100
,  // measure 94
1000
0000
0010
0100
0010
0000
1000
0000
0001
0000
0010
0100
0010
0000
0001
0000
,  // measure 95
1000
0000
0100
0000
1000
0010
1000
0000
0001
0000
0100
0000
0010
0000
1000
0100
,  // measure 96
1000
0000
0001
0010
0001
0000
1000
0000
0001
0000
0100
0010
0100
0000
0010
0000
,  // measure 97
1000
0000
0001
0000
0010
0100
0010
0000
0001
0000
0100
0000
0010
0000
1000
0100
,  // measure 98
1000
0000
0001
0010
0001
0000
0100
0001
0100
0000
0010
1000
0010
0000
1000
0000
,  // measure 99
0100
0000
0010
0000
0001
0000
1001
0000
0000
0000
1000
0100
1000
0000
0010
1000
,  // measure 100
0010
0000
0100
0001
0100
0000
0001
0000
2001
0000
0000
0000
0000
0000
0000
0000
,  // measure 101
0000
0000
0000
0000
0000
0000
0000
3000
0004
0000
0000
0000
0000
0000
0003
0000
,  // measure 102
1000
0000
0010
0000
1000
0001
1000
0001
1000
0000
0100
0010
0100
0000
1000
0000
,  // measure 103
0001
0000
0100
0000
0010
1000
0010
0000
0100
0000
0001
0000
0010
0000
0100
1000
,  // measure 104
0100
0000
1000
0010
1000
0001
0100
0001
0100
0000
0001
0000
0010
0000
0100
1000
,  // measure 105
0100
0000
1000
0000
0010
0100
0010
0000
0100
0000
0001
0000
0010
0000
0100
1000
,  // measure 106
0100
0000
1000
0010
1000
0000
0001
0000
0100
0000
0010
1000
0010
0000
0100
0000
,  // measure 107
0001
0000
0001
0000
1000
0000
1000
0000
0000
0000
0010
0100
0010
0000
0100
0010
,  // measure 108
0100
0000
0001
0000
1000
0000
0000
0000
1001
0000
0001
0100
0001
0000
1000
0000
,  // measure 109
0100
0000
1000
0000
0010
0100
0010
0000
1000
0000
0001
0000
0010
0000
0100
1000
,  // measure 110
0200
0000
0000
0000
0000
0000
0000
0300
1000
0000
0010
0100
0010
0000
1000
0000
,  // measure 111
0001
0000
0100
0000
0010
1000
0010
1000
0001
0000
0100
0000
0100
0000
0010
0000
,  // measure 112
2000
0000
0000
0000
0000
0000
0000
3000
0001
0000
0001
0000
0100
0000
0100
0000
,  // measure 113
0010
0000
0010
0000
1000
0000
0001
0100
0001
0000
1000
0010
1000
0000
0001
0100
,  // measure 114
0001
1000
0010
1000
0001
0000
0000
0000
0010
0100
1000
0001
4000
0000
3010
0100
,  // measure 115
0004
0000
0013
0000
0100
0000
1000
0000
0000
0000
1000
0000
1000
0000
0010
0100
,  // measure 116
0001
0010
0100
0000
2001
0000
0000
0000
,  // measure 117
0000
0000
0000
0000
0000
0000
0000
3000
0040
0000
0000
0000
0000
0000
0000
0000
,  // measure 118
0000
0000
0000
0000
,  // measure 119
0000
0000
0000
0000
0000
0000
0000
0030
1001
0000
0000
0000
0000
0000
0000
0000
;

//---------------dance-single - ----------------
#NOTEDATA:;
#CHARTNAME:;
#STEPSTYPE:dance-single;
#DESCRIPTION:;
#CHARTSTYLE:;
#DIFFICULTY:Hard;
#METER:14;
#RADARVALUES:0.555207,0.865399,0.120697,0.442556,0.289673,483.000000,468.000000,15.000000,55.000000,28.000000,0.000000,11.000000,0.000000,19.000000,0.555207,0.865399,0.120697,0.442556,0.289673,483.000000,468.000000,15.000000,55.000000,28.000000,0.000000,11.000000,0.000000,19.000000;
#CREDIT:;
#NOTES:
0000
0000
0000
0000
,
0000
0000
M000
0000
0000
0000
0000
0000
000M
0000
0000
00M0
0000
0000
000M
0000
0000
0000
0000
0000
0M00
0000
0000
0000
,
0000
00M0
0000
0000
M000
0000
0000
0M00
0000
0000
M000
0000
,
0000
0000
0000
0000
0000
0000
0000
0000
000M
0000
0000
00M0
0000
0000
000M
0000
0000
0000
0000
0000
0M00
0000
0000
0000
,
0000
0000
0000
0000
00M0
0000
0000
0000
0000
0000
0000
0000
0000
0000
0000
0000
M000
0000
0000
0000
0000
0000
0000
0000
0000
0000
0000
0000
0M00
0000
0000
0000
0000
0000
0000
0000
0000
0000
0000
0000
000M
0000
0000
M000
0000
0000
00M0
0000
,
0000
0000
0000
0000
0000
0000
0000
0000
0000
0000
0000
0000
0000
0000
0000
0000
0000
0000
0000
0000
M000
0000
0000
0M00
,
0000
00M0
0000
0000
000M
00M0
0M00
M000
0000
0000
00M0
0000
,
000M
0000
0000
0000
,
0000
0000
0000
0000
0000
0000
0000
0000
0000
0000
0000
0000
0002
0000
0000
0003
,
2001
0000
0000
0000
0000
0000
0000
3000
0200
0000
0000
0300
0020
0000
0000
0030
,
0200
0000
0000
0000
0000
0000
0000
0300
0020
0000
0000
0030
0002
0000
0000
0003
,
2000
0000
0000
0000
0000
0000
0000
3000
0020
0000
0000
0030
0200
0000
0000
0300
,
0002
0000
0000
0000
0000
0000
0000
0003
0000
0000
0000
0000
1000
0000
0100
0000
,
0020
0000
0000
0000
0000
0000
0000
0000
0000
0000
0000
0030
0020
0000
0000
0030
,
0002
0000
0000
0000
0000
0003
0200
0000
0000
0000
0000
0300
0020
0000
0000
0030
,
2000
0000
0000
0000
0000
0000
0000
0000
0000
0000
0000
3000
2000
0000
0000
3000
,
0020
0000
0030
0000
0100
0001
0010
0001
,
1000
0100
0010
0100
1000
0000
1000
0000
,
0010
0100
0001
0010
0001
0000
0001
0000
,
1000
0000
0010
0100
0010
0000
1000
0100
,
0010
0100
1000
0001
0010
0000
0004
0000
,
1003
0100
1000
0010
0100
0000
0100
0000
,
0001
1000
0010
1000
0004
0000
4003
0000
,
3001
0000
0000
0010
0100
1000
0001
0000
0100
0010
0000
1000
,
0200
0000
0000
0000
0000
0000
0000
0000
0000
0000
0000
0300
,
1000
1000
1000
1000
,
0010
0000
0000
0010
0000
0000
0010
0000
0000
0010
0000
0100
,
0001
0000
0100
0001
0000
0100
0004
0000
0000
0000
0000
0003
,
0000
0000
0000
0000
,
1000
0000
0010
1000
0000
0100
1000
0000
0010
0100
0000
0001
,
0010
0000
0001
1000
0000
0100
0010
0000
0100
1000
0000
0001
,
0100
0000
0010
0100
0000
0001
0100
0000
0001
1000
0000
0010
,
2000
0000
0000
0000
0000
0000
0000
0000
0000
0000
0000
0000
0000
0000
0000
0000
3000
0000
0001
0000
0000
0010
0000
0000
,
0100
0000
1000
0010
0000
1000
0100
0000
0010
0001
0000
0100
,
0010
0000
0100
0001
0000
0010
0001
0000
1000
0100
0000
1000
,
0001
0000
1000
0100
0000
1000
0010
0000
0100
0001
0000
1000
,
0001
0010
0100
0010
0001
0000
0001
0000
,
2000
0000
0000
0000
0000
0000
3000
0000
0000
2000
0000
0000
0000
0000
0000
3000
0000
0000
2000
0000
0000
3000
0000
0000
1001
0000
0000
0000
0000
0000
0000
0000
0001
0000
0000
0000
0010
0000
0000
0000
0000
0000
0000
0000
0001
0000
0000
0000
,
0100
0000
0010
0100
0000
0010
1000
0000
0100
1000
0000
0010
,
1000
0000
0100
0010
0000
0001
0100
0000
0010
0100
0000
0001
,
1000
0010
0100
0000
0001
0010
0001
0000
,
1000
0000
1000
0000
0020
0000
0000
0030
0200
0000
0000
0300
0002
0000
0000
0003
,
0020
0000
0000
0030
0200
0000
0000
0300
2000
0000
0000
3000
0020
0000
0000
0030
,
1000
0004
0003
0000
0001
0000
0001
0001
,
0000
0000
0000
0000
0000
0000
4000
3000
,
2020
3030
0000
0000
,
0000
0000
0000
0000
,
0000
0000
0000
0000
,
0000
0000
0000
0000
,
1000
0001
0001
0100
,
0010
0010
1000
0100
,
0100
1000
0001
0000
,
0010
0100
0100
1000
,
0001
0001
0100
0010
,
0010
1000
0100
0000
,
0010
0001
0001
0100
,
0010
0010
1000
0100
,
0100
1000
0010
0000
,
1020
0000
0000
0000
0030
0000
0100
0000
0001
0000
1000
0000
0200
0000
0000
0300
,
2000
0000
0000
3000
0010
0000
0100
0000
0002
0000
0000
0003
0000
0000
1000
0000
,
0010
0000
1000
0000
0200
0000
0000
0300
0020
0000
0000
0030
0001
0000
1000
0000
,
0200
0000
0000
0300
0000
0000
1000
0000
0010
0000
0100
0000
0002
0000
0000
0003
,
0020
0000
0000
0030
0100
0000
1000
0000
1001
0000
0000
0000
0001
0000
0000
0000
,
0001
0100
0100
0100
,
0010
0010
0010
1000
,
1000
1000
1100
0100
,
0100
0010
0010
0010
,
0011
0001
0001
0101
,
0100
0100
1002
0000
,
0000
0000
0000
0000
,
0000
0000
0000
0000
,
0000
0000
0000
0000
0000
0000
0000
0000
0000
0000
0000
0000
0000
0000
0000
0003
,
0020
0000
0000
0000
0000
0000
0000
0030
0200
0000
0000
0000
0000
0000
0000
0000
,
0000
0000
0000
0000
,
0000
0000
0000
0000
0000
0000
0000
0300
2000
0000
0000
0000
0000
0000
0000
0000
,
0000
0000
0000
0000
0000
0000
0000
3000
0020
0000
0000
0000
0000
0000
0000
0000
,
0000
0000
0000
0030
0100
0001
1000
0100
,
1000
0000
1000
0000
0010
0100
0001
0010
,
0001
0000
1000
0000
0100
0000
1000
0010
,
0100
0000
0001
1000
0010
0100
0001
0010
,
0001
1000
0100
0000
1000
0100
1000
0010
,
0100
0000
0100
0000
0001
0010
0001
1000
,
0100
0000
0000
0010
0000
0000
0004
0000
0000
0000
0000
0000
1003
0000
0000
0000
0000
0000
0010
0000
0100
0000
0001
0000
,
0100
0000
0010
1000
0000
0100
0020
0000
0000
0000
0000
0000
,
0030
0000
0000
0000
0000
0000
2000
0000
0000
0000
3000
0000
1001
0000
0000
0001
0000
0000
0010
0000
0000
0100
0000
0000
,
1000
1000
0010
0100
0000
0000
0000
0000
,
0000
0000
0000
0000
,
0000
0000
0000
0000
,
0000
0000
0000
0000
0000
0000
2000
0000
0000
0000
3000
0000
1001
0000
0000
0001
0000
0000
0010
0000
0000
0100
0000
0000
,
1000
1000
0010
0000
0000
0000
0000
0000
,
0000
0000
0000
0000
,
0000
0000
0000
0000
,
0000
0000
0000
0000
0000
0000
2000
0000
0000
0000
3000
0000
1001
0000
0000
0001
0000
0000
0010
0000
0000
0100
0000
0000
,
1000
0000
0010
0100
0000
0001
0100
0000
,
0001
1000
0100
0000
0010
0001
0100
0010
,
1000
0000
0010
0100
0000
0010
1000
0001
,
0010
0100
1000
0000
0001
1000
0100
0010
,
0001
0000
1000
0010
0000
1000
0001
0000
,
0010
0100
1000
0010
0100
0001
0010
0001
,
1000
0100
1000
0010
0000
1000
0100
1000
,
0010
0100
0001
1000
2001
0000
0000
0000
,
0000
0000
0000
0000
0000
0000
0000
3000
0004
0000
0000
0000
0000
0000
0003
0000
,
1000
0010
1000
0000
0001
0100
0001
1000
,
0100
0000
0010
0001
0000
1000
0010
0000
,
0100
0001
0100
0001
1000
0100
0010
0001
,
0100
0000
0010
1000
0000
0100
1000
0000
,
0001
0010
0001
1000
0100
1000
0010
0100
,
0001
0001
1000
1000
0000
0010
0100
0010
,
0100
0001
1000
0000
1002
0000
1003
0100
,
0010
0000
0001
0100
0000
0001
1000
0000
,
0200
0000
0000
0000
0000
0000
0000
0300
0120
0000
0000
0030
0001
0000
1000
0000
,
0001
0000
0100
0010
0000
0100
0001
0000
,
2000
0000
0000
3000
0100
0100
0010
0010
,
0001
0001
1000
0100
1000
0010
0100
0010
,
1000
0001
1000
0000
0001
0010
0004
1003
,
0004
1003
0100
0010
0000
0001
1000
0100
,
1000
0010
0100
0000
2001
0000
0000
0000
,
0000
0000
0000
0000
0000
0000
0000
3000
0040
0000
0000
0000
0000
0000
0000
0000
,
0000
0000
0000
0000
,
0000
0000
0000
0000
0000
0000
0000
0030
1001
0000
0000
0000
0000
0000
0000
0000
;

//---------------dance-single - ----------------
#NOTEDATA:;
#CHARTNAME:;
#STEPSTYPE:dance-single;
#DESCRIPTION:;
#CHARTSTYLE:;
#DIFFICULTY:Medium;
#METER:9;
#RADARVALUES:0.425314,0.625010,0.120697,0.442556,0.160930,370.000000,355.000000,15.000000,55.000000,28.000000,0.000000,11.000000,0.000000,13.000000,0.425314,0.625010,0.120697,0.442556,0.160930,370.000000,355.000000,15.000000,55.000000,28.000000,0.000000,11.000000,0.000000,13.000000;
#CREDIT:;
#NOTES:
0000
0000
0000
0000
,
0000
0000
M000
0000
0000
0000
0000
0000
000M
0000
0000
00M0
0000
0000
000M
0000
0000
0000
0000
0000
0M00
0000
0000
0000
,
0000
00M0
0000
0000
M000
0000
0000
0M00
0000
0000
M000
0000
,
0000
0000
0000
0000
0000
0000
0000
0000
000M
0000
0000
00M0
0000
0000
000M
0000
0000
0000
0000
0000
0M00
0000
0000
0000
,
0000
0000
0000
0000
00M0
0000
0000
0000
0000
0000
0000
0000
0000
0000
0000
0000
M000
0000
0000
0000
0000
0000
0000
0000
0000
0000
0000
0000
0M00
0000
0000
0000
0000
0000
0000
0000
0000
0000
0000
0000
000M
0000
0000
M000
0000
0000
00M0
0000
,
0000
0000
0000
0000
0000
0000
0000
0000
0000
0000
0000
0000
0000
0000
0000
0000
0000
0000
0000
0000
M000
0000
0000
0M00
,
0000
00M0
0000
0000
000M
00M0
0M00
M000
0000
0000
00M0
0000
,
000M
0000
0000
0000
,
0000
0000
0000
0000
0000
0000
0000
0000
0000
0000
0000
0000
0002
0000
0000
0003
,
2001
0000
0000
0000
0000
0000
0000
3000
0200
0000
0000
0300
0020
0000
0000
0030
,
0200
0000
0000
0000
0000
0000
0000
0300
0020
0000
0000
0030
0002
0000
0000
0003
,
2000
0000
0000
0000
0000
0000
0000
3000
0020
0000
0000
0030
0200
0000
0000
0300
,
0002
0000
0000
0000
0000
0000
0000
0003
0000
0000
0000
0000
1000
0000
0100
0000
,
0020
0000
0000
0000
0000
0000
0000
0000
0000
0000
0000
0030
0020
0000
0000
0030
,
0002
0000
0000
0000
0000
0003
0200
0000
0000
0000
0000
0300
0020
0000
0000
0030
,
2000
0000
0000
0000
0000
0000
0000
0000
0000
0000
0000
3000
2000
0000
0000
3000
,
0020
0000
0030
0000
0100
0001
0100
0000
,
0101
0001
1000
1000
,
0010
0010
0100
0100
,
0001
0000
1000
0100
1000
0000
0001
0010
,
0001
0000
1000
0100
1000
0000
0004
0000
,
0103
0100
0010
0010
,
1000
1000
0004
4003
,
3001
0000
0000
0010
0000
0100
1000
0000
0100
1000
0000
0000
,
0200
0000
0000
0000
0000
0000
0000
0000
0000
0000
0000
0300
,
1000
1000
1000
1000
,
0010
0000
0000
0010
0000
0000
0010
0000
0000
0010
0000
0100
,
0001
0000
0100
0001
0000
0100
0004
0000
0000
0000
0000
0003
,
0000
0000
0000
0000
,
1100
1000
1000
1000
,
0010
0000
0000
0010
0000
0000
0010
0000
0000
0010
0000
0100
,
0001
0001
0001
0001
,
2000
0000
0000
0000
0000
0000
0000
0000
0000
0000
0000
0000
0000
0000
0000
0000
3000
0000
0001
0000
0000
0010
0000
0000
,
0100
0100
0100
0100
,
1000
0000
0000
1000
0000
0000
1000
0000
0000
1000
0000
0010
,
0100
0000
0000
0100
0000
0000
0100
0000
0001
0010
0000
0001
,
0020
0000
0000
0030
0200
0000
0000
0300
,
4000
0000
0000
0000
0000
0000
0000
3000
1001
0000
0000
0000
0001
0000
0000
0000
,
0001
0000
0000
0001
0000
0000
0010
0000
0000
0010
0000
0100
,
0010
0000
0000
0100
0000
0000
0100
0000
1000
0100
0000
1000
,
0200
0000
0000
0000
0000
0000
0000
0300
,
1000
0010
2000
3000
0002
0003
0020
0030
,
0200
0300
2000
3000
0020
0030
0200
0300
,
0001
0000
0001
0000
0001
0000
0001
1000
,
0000
0000
0000
0000
0000
0000
4000
3000
,
2002
3003
0000
0000
,
0000
0000
0000
0000
,
0000
0000
0000
0000
,
0000
0000
0000
0000
,
1000
0001
0001
0100
,
0010
0010
1000
0100
,
0100
1000
0001
0000
,
0010
0100
0100
1000
,
0001
0001
0100
0010
,
0010
1000
0100
0000
,
0010
0001
0001
0100
,
0010
0010
1000
0100
,
0100
1000
0010
0000
,
1020
0000
0000
0000
0000
0000
0000
0030
0100
0000
0000
0000
0002
0000
0000
0003
,
0020
0000
0000
0030
0200
0000
0000
0300
2000
0000
0000
0000
0000
0000
0000
3000
,
0010
0000
0000
0000
0200
0000
0000
0300
0002
0000
0000
0003
2000
0000
0000
3000
,
0200
0000
0000
0000
0000
0000
0000
0300
0010
0000
0000
0000
0002
0000
0000
0003
,
0020
0000
0000
0030
0100
0000
1000
0000
0001
0000
0000
0000
0001
0000
0000
0000
,
0001
0100
0100
0100
,
0010
0010
0010
1000
,
1000
1000
1100
0100
,
0100
0010
0010
0010
,
0011
0001
0001
0101
,
0100
0100
1002
0000
,
0000
0000
0000
0000
,
0000
0000
0000
0000
,
0000
0000
0000
0000
0000
0000
0000
0000
0000
0000
0000
0000
0000
0000
0000
0003
,
0020
0000
0000
0000
0000
0000
0000
0030
0200
0000
0000
0000
0000
0000
0000
0000
,
0000
0000
0000
0000
,
0000
0000
0000
0000
0000
0000
0000
0300
2000
0000
0000
0000
0000
0000
0000
0000
,
0000
0000
0000
0000
0000
0000
0000
3000
0020
0000
0000
0000
0000
0000
0000
0000
,
0000
0000
0000
0030
0100
0000
0100
0000
,
0001
0001
1000
1000
,
0010
0000
0010
0000
1000
0000
0001
0010
,
0001
0000
1000
0100
1000
0000
0001
0010
,
0001
0010
0100
0100
,
1000
1000
0001
0001
,
0100
0000
0000
0040
0000
0000
1030
0000
0000
0001
0000
1000
,
0100
0000
1000
0100
0000
0000
2000
0000
0000
0000
0000
3000
,
0000
0000
1001
1000
,
0010
0010
0100
0000
,
0000
0000
0000
0000
,
0000
0000
0000
0000
,
0000
0000
1001
1000
,
0010
0010
0100
0100
,
0000
0000
0000
0000
,
0000
0000
0000
0000
,
0000
0000
1001
1000
,
0010
0010
0100
0100
,
0001
0010
0001
0000
1000
0000
1000
0000
,
0100
0100
0010
0010
,
0001
1000
0001
0000
0100
0000
0100
0000
,
0010
0010
1000
1000
,
0100
0010
0100
0000
0010
0000
0010
0000
,
0001
0000
1000
0001
0000
1000
0001
0000
,
0100
0010
2001
0000
,
0000
0000
0000
0000
0000
0000
0000
3000
0004
0000
0000
0000
0000
0000
0003
0000
,
1000
1000
0001
0001
,
0010
0010
0100
0100
,
1000
0010
1000
0000
0001
0000
0001
0000
,
0100
0100
0010
0010
,
1000
0001
1000
0000
0100
0000
0100
0000
,
0010
0000
0001
1000
0000
0001
1000
0000
,
0001
0000
1000
0000
1002
0000
1003
0100
,
1000
0000
0010
0100
0000
0010
0100
0000
,
0020
0000
0000
0030
0100
0000
0001
1000
,
0001
0000
1000
0100
0000
1000
0100
0000
,
2000
0000
0000
3000
0010
0000
0010
0000
,
0100
0100
0001
0001
,
1000
0000
1000
0000
0001
0010
0004
0003
,
0004
0003
0100
0010
0000
1000
0100
0000
,
1000
0010
1000
0000
2001
0000
0000
0000
,
0000
0000
0000
0000
0000
0000
0000
3000
0040
0000
0000
0000
0000
0000
0000
0000
,
0000
0000
0000
0000
,
0000
0000
0000
0000
0000
0000
0000
0030
1001
0000
0000
0000
0000
0000
0000
0000
;
