#VERSION:0.83;
#TITLE:Turii ~Panta rhei~;
#SUBTITLE:;
#ARTIST:Zektbach;
#TITLETRANSLIT:;
#SUBTITLETRANSLIT:;
#ARTISTTRANSLIT:;
#GENRE:ELEMENTAL CHANT;
#CREDIT:;
#MUSIC:Turii ~Panta rhei~.ogg;
#BANNER:Turii ~Panta rhei~.png;
#BACKGROUND:Turii ~Panta rhei~-bg.png;
#CDTITLE:./CDTitles/bm IIDX 16 EMPRESS.png;
#SAMPLESTART:39.359;
#SAMPLELENGTH:15.000;
#SELECTABLE:YES;
#OFFSET:1.148;
#BPMS:0.000=148.000;
#STOPS:;
#TIMESIGNATURES:0.000=4=4;
#BGCHANGES:-0.250=Turii ~Panta rhei~.mp4=1.000=0=0=0=StretchNoLoop====,
99999.000=-nosongbg-=1.000=0=0=0=StretchNoLoop====
;
#FGCHANGES:;

//--------------- dance-single - forcednature ----------------
#NOTEDATA:;
#STEPSTYPE:dance-single;
#DESCRIPTION:forcednature;
#DIFFICULTY:Beginner;
#METER:2;
#RADARVALUES:0,0,0,0,0;
#CREDIT:forcednature;
#NOTES:
0000
0000
0000
0000
,
0000
0000
0000
0000
,
0000
0000
0000
0000
,
0000
0000
0000
0000
,
0000
0000
0000
0000
,
1000
0000
0000
0000
,
0000
0000
0000
0000
,
0001
0000
0000
0000
,
0000
0000
0000
0000
,
1000
0000
0000
0000
,
0000
0000
0000
0000
,
0001
0000
0000
0000
,
0000
0000
0000
0000
,
0200
0000
0000
0000
,
0000
0000
0000
0000
,
0300
0000
0000
0000
,
0000
0000
0000
0000
,
0020
0000
0000
0000
,
0000
0000
0000
0000
,
0030
0000
0000
0000
,
0000
0000
0000
0000
,
1000
0000
0000
0000
,
1000
0000
0000
0000
,
0001
0000
0000
0000
,
0001
0000
0000
0000
,
0020
0000
0000
0000
,
0030
0000
0000
0000
,
0100
0000
0000
0000
,
1000
0000
0000
0000
,
0200
0000
0000
0000
,
0300
0000
0000
0000
,
0020
0000
0000
0000
,
0030
0000
0000
0000
,
0002
0000
0000
0000
,
0003
0000
0000
0000
,
0100
0000
0000
0000
,
0001
0000
0000
0000
,
0200
0000
0000
0000
,
0300
0000
0000
0000
,
0020
0000
0000
0000
,
0030
0000
0000
0000
,
1001
0000
0000
0000
,
0000
0000
0000
0000
,
1000
0000
0000
0000
,
1000
0000
0000
0000
,
0001
0000
0000
0000
,
0000
0000
0000
0000
,
0001
0000
0000
0000
,
0001
0000
0000
0000
,
0100
0000
0000
0000
,
0100
0000
0000
0000
,
0010
0000
0000
0000
,
0010
0000
0000
0000
,
0200
0000
0000
0000
,
0000
0000
0000
0000
,
0300
0000
0000
0000
,
0000
0000
0000
0000
,
0002
0000
0000
0000
,
0000
0000
0000
0000
,
0003
0000
0000
0000
,
0000
0000
0000
0000
,
1001
0000
0000
0000
,
0000
0000
0000
0000
,
1000
0000
0000
0000
,
0000
0000
0000
0000
,
0010
0000
0000
0000
,
0100
0000
0000
0000
,
0010
0000
0000
0000
,
0100
0000
0000
0000
,
2002
0000
0000
0000
,
3003
0000
0000
0000
,
0220
0000
0000
0000
,
0330
0000
0000
0000
,
2002
0000
0000
0000
,
3003
0000
0000
0000
,
0220
0000
0000
0000
,
0330
0000
0000
0000
,
2002
0000
0000
0000
,
0000
3003
0000
0000
0000
0000
0000
0000
;

//--------------- dance-single - forcednature ----------------
#NOTEDATA:;
#STEPSTYPE:dance-single;
#DESCRIPTION:forcednature;
#DIFFICULTY:Easy;
#METER:4;
#RADARVALUES:0,0,0,0,0;
#CREDIT:forcednature;
#NOTES:
0000
0000
0000
0000
,
0000
0000
0000
0000
,
0000
0000
0000
0000
,
0000
0000
0000
0000
,
0000
0000
0000
0000
,
1001
0000
0001
0000
,
0020
0000
0030
0000
,
1001
0000
1000
0000
,
0020
0000
0030
0000
,
1001
0000
0001
0000
,
0200
0000
0300
0000
,
1001
0000
1000
0000
,
0200
0000
0300
0000
,
0220
0000
0000
0000
,
0330
0000
0000
0000
,
0002
0000
0003
0000
,
2000
0000
3000
0000
,
2002
0000
0000
0000
,
3003
0000
0000
0000
,
0200
0000
0300
0000
,
0020
0000
0030
0000
,
1001
0000
0000
0000
,
0110
0000
0001
1000
,
1001
0000
0000
0000
,
0110
0000
1000
0001
,
2002
0000
3003
0000
,
2000
0000
3000
0000
,
0010
0000
0100
0000
,
0020
0000
0030
0000
,
0200
0000
0300
0000
,
0002
0000
0003
0000
,
0020
0000
0000
0000
,
0200
0000
0330
0000
,
2002
0000
3003
0000
,
0002
0000
0003
0000
,
0010
0000
0100
0000
,
0020
0000
0030
0000
,
0200
0000
0300
0000
,
2000
0000
3000
0000
,
0020
0000
0000
0000
,
0200
0000
0330
0000
,
1000
0001
1000
0000
,
0001
0001
1000
0000
,
0010
0000
0010
0000
,
0100
0010
0100
0000
,
0001
1000
0001
0000
,
1000
1000
0001
0000
,
0010
0000
0010
0000
,
0100
0010
0100
0000
,
1001
0000
1000
0000
,
0010
1000
0010
0000
,
1001
0000
0001
0000
,
0010
0001
0010
0000
,
0220
0000
0000
0000
,
0330
0000
0000
0000
,
2000
0000
3000
0000
,
0002
0000
0003
0000
,
2002
0000
0000
0000
,
3003
0000
0000
0000
,
0200
0000
0300
0000
,
0020
0000
0030
0000
,
1001
0000
0001
0000
,
0200
0000
0300
0000
,
0010
0000
1000
0000
,
0200
0000
0300
0000
,
2000
0000
3001
0000
,
0002
0000
0013
0000
,
0020
0000
0130
0000
,
0220
0000
0330
0000
,
2000
0000
0001
0001
,
0002
0000
3003
0000
,
0020
0000
0100
0100
,
0200
0000
0330
0000
,
0002
0000
0010
0010
,
0020
0000
0033
0000
,
2000
0000
0010
0010
,
0020
0000
3030
0000
,
2002
0000
0000
0000
,
0000
3003
0000
0000
0000
0000
0000
0000
;

//--------------- dance-single - forcednature ----------------
#NOTEDATA:;
#STEPSTYPE:dance-single;
#DESCRIPTION:forcednature;
#DIFFICULTY:Medium;
#METER:8;
#RADARVALUES:0,0,0,0,0;
#CREDIT:forcednature;
#NOTES:
0000
0000
0000
0000
,
0000
0000
0000
0000
,
0000
0000
0000
0000
,
0000
0000
0000
0000
,
0000
0000
0000
0000
,
1001
0001
0100
0001
,
2000
0010
3010
0000
,
1001
1000
0100
1000
,
0002
0010
0013
0000
,
1001
0001
0010
0001
,
2000
0100
3100
0000
,
1001
1000
0010
1000
,
0002
0100
0103
0000
,
0220
0000
0330
0000
,
2000
0000
3000
0000
,
0002
0000
0003
0000
,
0020
0000
0030
0000
,
0220
0000
0330
0000
,
2000
0000
3000
0000
,
0020
0000
0030
0000
,
0200
0000
0300
0000
,
1001
0001
0010
0000
,
1001
1000
1001
0110
,
1001
1000
0010
0000
,
1001
0100
1001
0110
,
0001
1000
0001
0000
0100
0000
0010
0000
,
1000
0001
1000
0000
0100
0000
0010
0000
,
0001
0100
0001
0000
0100
0010
0100
0000
,
0020
1000
1030
0000
,
0001
0010
0011
0000
,
1000
0100
1100
0000
,
1000
0001
1000
0000
0010
0000
0100
0000
,
0001
0100
0001
0000
0100
0000
0000
0000
,
0010
1000
0010
0000
1000
0000
0100
0000
,
0010
0001
0010
0000
0001
0000
0000
0000
,
0101
1000
1100
0000
,
1010
0001
0011
0000
,
0001
0000
0100
0010
0100
0000
0000
0000
,
0001
0010
0100
1000
,
0020
0100
0100
0100
,
0200
0000
0330
0000
,
1000
0000
0001
1000
0001
0000
1000
0000
,
0100
0001
0100
1000
,
0001
0000
0001
0000
0010
0001
0010
0000
,
0100
1000
0010
1000
,
0001
0000
0001
0000
1000
0001
1000
0000
,
0001
0100
1000
0100
,
0010
1000
0010
0000
1000
0000
0010
0000
,
1000
0100
0010
0000
,
1001
0000
0001
0010
0100
0000
0010
0000
,
0001
0000
0100
0010
0100
0000
0000
0000
,
1001
0000
1000
0010
0100
0000
0010
0000
,
1000
0000
0100
0010
0100
0000
0000
0000
,
2002
0000
3003
0000
,
0002
0000
0003
0000
,
0200
0000
0300
0000
,
0020
0000
0030
0000
,
0220
0000
0330
0000
,
2000
0000
3000
0000
,
0200
0000
0300
0000
,
0020
0000
0030
0000
,
1001
0000
0000
0000
1000
0001
1000
0000
,
0001
0000
0100
0010
0100
0000
0010
0000
,
1000
0000
0001
0000
1000
0100
1000
0000
,
0010
0000
0100
0010
0100
0000
0001
0000
,
1001
0000
0000
0000
1000
0001
1000
0000
,
0001
0000
0010
0001
0010
0000
0100
0000
,
1000
0000
0010
0000
1000
0010
1000
0000
,
0002
0003
0200
0300
,
0110
0000
1000
0001
1000
0000
0100
0000
,
0220
0000
0330
0000
,
1001
0000
0010
0100
0010
0000
0100
0000
,
2002
0000
0000
3003
,
1100
0000
0001
0010
0001
0000
0100
0000
,
2020
0000
3030
0000
,
0101
0000
1000
0100
1000
0000
0010
0000
,
0220
0000
0000
0330
,
2002
0000
0000
0000
,
0000
3003
0000
0000
0000
0000
0000
0000
;

//--------------- dance-single - forcednature ----------------
#NOTEDATA:;
#STEPSTYPE:dance-single;
#DESCRIPTION:forcednature;
#DIFFICULTY:Hard;
#METER:11;
#RADARVALUES:0,0,0,0,0;
#CREDIT:forcednature;
#NOTES:
0000
0000
0000
0000
,
0000
0000
0000
0000
,
0000
0000
0000
0000
,
0000
0000
0000
0000
,
0000
0000
0000
0000
,
2001
3200
0320
0032
,
1003
0000
1000
0010
0000
0010
0100
0000
0100
0001
0000
0000
,
1002
0023
0230
2300
,
3001
0000
0001
0100
0000
0100
0010
0000
0010
1000
0000
0000
,
1002
0023
2030
3020
,
0031
0000
0001
0100
0000
0100
0010
0000
0010
1000
0000
0000
,
2001
3020
0032
0023
,
1030
0000
1000
0100
0000
0100
0010
0000
0010
0001
0000
0000
,
0220
0000
0330
0000
,
2002
0000
3003
0000
,
2200
0000
3300
0000
,
0022
0000
0033
0000
,
0002
0100
2000
3003
,
2000
0010
0002
3003
,
0002
0010
0200
0303
,
0220
0000
0330
0000
,
2002
0000
3003
0000
,
0110
0000
1001
1100
,
0022
0000
0033
0000
,
1001
0000
0101
1010
,
1000
0100
1000
0100
0001
0100
1000
0000
,
0001
0010
0100
1000
0010
0100
0001
0000
,
1000
0000
0000
1000
0001
0000
0000
0001
0100
0000
0000
0100
0001
0000
0000
0000
,
0010
0100
1000
0010
0100
0001
0010
0000
,
0001
0000
0100
0000
0001
0000
0000
0010
0100
0000
0000
0000
1100
0000
0000
0000
,
1000
0000
0000
0010
1000
0000
0000
0000
0001
0000
0000
0010
0001
0000
0000
0000
,
0100
0010
1000
0100
0010
0001
1000
0010
,
0100
0000
0100
1000
0100
0001
1000
0000
,
0001
0010
0001
0010
1000
0010
0001
0000
,
1000
0100
0010
0001
0100
0010
1000
0000
,
0001
0000
0000
0001
1000
0000
0000
1000
0010
0000
0000
0010
1000
0000
0000
0000
,
0100
0010
0001
0100
0010
1000
0100
0000
,
1000
0000
0010
0000
1000
0000
0000
0100
0010
0000
0000
0000
0011
0000
0000
0000
,
0001
0000
0000
0100
0001
0000
0000
0000
1000
0000
0000
0100
1000
0000
0000
0000
,
0010
0100
0001
0010
0100
1000
0001
0000
,
2001
0000
0010
0000
3001
0100
1000
0100
,
0001
0000
0000
0100
0001
0000
0010
0000
0100
0000
1000
0000
0010
0000
0100
0000
,
0010
0000
0000
0100
0010
0000
0000
1000
0001
0000
0100
0000
0010
0000
1000
0000
,
0001
0010
0000
0000
0001
0010
0000
0000
0100
0000
1000
0000
0001
0000
0100
0000
,
0010
0000
0000
0100
0010
0000
1000
0000
0001
0000
0010
0000
0100
0000
0000
0000
,
1000
0000
0000
0001
1000
0000
0010
0000
0100
0000
0001
0000
1000
0000
0100
0000
,
0010
0000
0000
0100
1000
0000
0000
0001
0010
0000
0001
0000
1000
0000
0010
0000
,
0100
0001
0000
0000
0100
0001
0000
0000
1000
0000
0100
0000
1000
0000
0001
0000
,
0010
0000
0000
0100
1000
0000
0001
0000
0100
0000
1000
0000
0100
0000
0000
0000
,
0001
0010
0001
0010
1000
0010
1000
0010
,
0001
0000
0100
0000
1000
0000
0100
0000
0001
0000
0000
0010
0100
0000
0000
0000
,
1000
0010
1000
0010
0001
0010
0001
0010
,
1000
0000
0100
0000
0001
0000
0100
0000
1000
0000
0000
0010
0100
0000
0000
0000
,
2002
0000
3003
0000
,
0022
0000
0033
0000
,
2200
0000
3300
0000
,
0220
0000
0330
0000
,
2002
0000
0000
3003
0000
0000
0001
0000
0001
0010
0000
0000
,
2002
0000
0000
3003
0000
0000
1000
0000
1000
0100
0000
0000
,
1001
0002
0023
0230
,
2300
3020
0000
0030
,
1001
0000
0000
0000
1000
0000
0000
1000
0100
0000
0000
0100
0010
0000
0000
0010
,
0001
1000
0010
1000
0001
0010
0100
1000
,
0001
0000
0000
0000
0100
0000
0000
0100
0010
0000
0000
0010
1000
0000
0000
1000
,
0001
0000
0010
0100
1000
0001
0100
0010
,
1000
0000
0000
0000
0001
0000
0000
0001
0010
0000
0000
0010
1000
0000
0000
1000
,
0010
0000
0001
0100
0010
1000
0100
0010
,
0001
0000
0000
0000
1000
0000
0000
1000
0010
0000
0000
0010
0001
0000
0000
0001
,
0020
0000
1030
0001
0100
0010
1000
0000
,
2001
0000
0001
0000
0001
0000
0010
0000
0010
0000
3010
0000
,
2020
0000
3030
0000
,
1002
0000
1000
0000
1000
0000
0010
0000
0010
0000
0013
0000
,
0022
0000
0000
0033
,
2001
0000
0001
0000
0100
0000
0001
0000
0001
0000
3100
0000
,
2200
0000
3300
0000
,
1002
0000
1000
0000
0100
0000
1000
0000
1000
0000
0103
0000
,
0202
0000
0000
0303
,
2002
0000
0000
0000
,
0000
3003
0000
0000
0000
0000
0000
0000
;

//--------------- dance-single - forcednature ----------------
#NOTEDATA:;
#STEPSTYPE:dance-single;
#DESCRIPTION:forcednature;
#DIFFICULTY:Challenge;
#METER:15;
#RADARVALUES:0,0,0,0,0;
#CREDIT:forcednature;
#NOTES:
0000
0000
0000
0000
,
0000
0000
0000
0000
,
0000
0000
0000
0000
,
0000
0000
0000
0000
,
0000
0000
0000
0000
,
1000
0100
1000
0100
0010
0100
0010
0001
1000
0100
0000
1000
,
0001
0100
0001
0100
0010
0100
0010
1000
0001
0100
0000
0001
,
1000
0100
0010
0100
0010
0001
1000
0010
0100
0001
0000
1000
,
0001
0010
0100
0010
0100
1000
0001
0100
0010
1000
0000
0001
,
0010
0100
0010
0001
0010
0100
1000
0010
0100
0001
0000
1000
,
0100
0010
0100
1000
0100
0010
0001
0100
0010
1000
0000
0001
,
0100
0010
0100
0001
0100
0010
1000
0100
0010
0001
0000
1000
,
0010
0100
0010
1000
0010
0100
0001
0010
0100
1000
0000
0000
,
2002
3000
0020
0033
,
2002
0003
0200
3300
,
2020
0000
3030
0000
,
0202
0000
0303
0000
,
2002
0003
0020
3030
,
2002
3000
0200
0303
,
0022
0000
0033
0000
,
2200
0000
3300
0000
,
1001
0000
0000
0000
0001
0000
0010
0100
1000
0000
0001
0000
1000
0000
0010
0000
,
0110
0000
0001
0100
0101
0000
1010
0000
,
1001
0000
0000
0000
1000
0000
0100
0010
0001
0000
1000
0000
0001
0000
0100
0000
,
0110
0000
1000
0100
1100
0000
0011
0000
,
0001
0000
0100
0001
0100
0000
0010
0000
1000
0000
0100
0000
0001
0000
0100
0000
,
1000
0000
0010
1000
0010
0000
0100
0000
0001
0000
0010
0000
1000
0000
0000
0000
,
0010
0000
0000
0010
0001
0000
0000
0001
0100
0000
0000
0100
0010
0000
0000
0010
,
1000
0000
0001
1000
0001
0000
0010
0000
1000
0000
0010
0000
0001
0000
0000
0000
,
0100
0000
0001
0100
0010
0000
1000
0000
0001
0000
0010
0000
0110
0000
0000
0000
,
0100
0000
1000
0010
0100
0000
0001
0000
1000
0000
0100
0000
0110
0000
0000
0000
,
0010
0000
0001
0010
0001
0000
0100
0000
0010
0000
1000
0010
1000
0000
0001
0000
,
0010
0100
1000
0000
0010
0100
0001
0000
1000
0000
0001
0000
0011
0000
0000
0000
,
1000
0000
0100
0010
0100
0000
1000
0000
0001
0010
0100
1000
0001
0000
0010
0000
,
0001
0000
0100
0010
0100
0000
0001
0000
1000
0001
0010
0100
1000
0000
0000
0000
,
0001
0000
0000
0001
0100
0000
0000
0100
1000
0000
0000
1000
0100
0000
0000
0100
,
0001
0000
1000
0001
1000
0000
0100
0000
0010
0001
0010
0100
1000
0000
0000
0000
,
0010
0000
1000
0001
0100
0000
0010
0000
1000
0001
0010
0100
1000
0000
0000
0000
,
0001
0000
0100
0010
1000
0000
0001
0000
0010
0100
1000
0001
0100
0000
0000
0000
,
0010
0000
1000
0100
0010
0000
0001
0000
0100
0000
0001
0010
0100
0000
1000
0000
,
0001
0100
0001
0000
1000
0100
1000
0000
0010
0000
0010
0000
0210
0000
0000
0000
,
0310
1000
0010
0000
0100
0001
0100
0000
0010
1000
0001
0000
0010
0000
0100
0000
,
1000
0001
0100
0000
0001
1000
0100
0000
0010
0000
0001
0000
1000
0000
0010
0000
,
0100
0001
0100
0010
0100
0001
0100
0010
0100
0000
0001
0000
1000
0000
0001
0000
,
0010
0100
0010
0100
1000
0000
0001
0000
0100
0001
1000
0001
0100
0000
0000
0000
,
0001
0010
0001
0000
1000
0100
1000
0000
0001
0010
0100
0000
1000
0000
0010
0000
,
0100
0001
1000
0000
0100
1000
0001
0000
0100
0000
0010
0000
0100
0000
0001
0000
,
0010
0100
1000
0100
0010
0100
1000
0100
0010
0000
0001
0000
1000
0000
0010
0000
,
0100
0001
1000
0001
0100
0000
0001
0000
0010
0100
1000
0000
0010
0000
0000
0000
,
1000
0001
1000
0001
0100
0010
0100
0000
0001
1000
0001
1000
0010
0100
0010
0000
,
1000
0001
1000
0001
0100
0010
1000
0001
0010
0100
1000
0001
0100
0000
0000
0000
,
0001
1000
0001
1000
0100
0010
0100
0000
1000
0001
1000
0001
0010
0100
0010
0000
,
0001
1000
0001
1000
0100
0010
0001
1000
0010
0100
0001
1000
0100
0000
0000
0000
,
2002
0003
0020
3030
,
2002
3000
0020
0033
,
2200
0300
0020
3030
,
0220
0000
0330
0000
,
1001
0000
0000
0001
0100
0001
1000
0100
1000
0001
0010
0100
,
1000
0000
0000
0001
0100
0001
0100
0010
0100
0001
0010
0100
,
1000
0000
0000
0010
1000
0001
0100
0000
0000
0101
0000
0000
,
1100
2002
0000
3003
,
0101
0000
0000
1000
0001
0000
1000
0000
0010
0000
0000
0001
0010
0000
1000
0000
,
0001
1000
0001
1000
0100
1000
0100
1000
0002
0000
0023
0000
0230
0000
2300
0000
,
3010
0000
0100
0001
1000
0000
0100
0000
0010
0000
0100
1000
0001
0000
0100
0000
,
0010
0000
1000
0100
0010
0000
0100
0010
0001
0000
0100
0010
1000
0000
0001
0000
,
1001
0000
0000
0001
1000
0000
0001
0000
0010
0000
0000
1000
0010
0000
0001
0000
,
1000
0001
1000
0001
0100
0001
0100
0001
2000
0000
3200
0000
0320
0000
0032
0000
,
0103
0000
0010
1000
0001
0000
0010
0100
1000
0000
0010
0100
0001
0000
1000
0000
,
0001
0010
0001
0010
0001
0000
0100
0000
0010
0000
1000
0001
1000
0000
0100
0000
,
0110
0000
0001
0000
0010
0100
0010
0000
0001
0000
0100
0010
,
0100
0000
0101
0000
1001
0000
1010
0000
0010
0000
0100
0000
,
1001
0000
1000
0000
0010
0100
0010
0000
1000
0000
0100
0010
,
0100
0000
1100
0000
1001
0000
0011
0000
0010
0000
0100
0000
,
1001
0000
0001
0000
0010
1000
0010
0000
0001
0000
0100
1000
,
0200
0300
0202
0303
0022
0033
0220
0330
2200
3300
2020
3030
,
1001
0000
1000
0000
0010
0001
0010
0000
1000
0000
0100
0001
,
0200
0300
2200
3300
2020
3030
0220
0330
0202
0303
0022
0033
,
2002
0000
0000
0000
,
0000
3003
0000
0000
0000
0000
0000
0000
;

//--------------- dance-double - forcednature ----------------
#NOTEDATA:;
#STEPSTYPE:dance-double;
#DESCRIPTION:forcednature;
#DIFFICULTY:Easy;
#METER:4;
#RADARVALUES:0,0,0,0,0;
#CREDIT:forcednature;
#NOTES:
00000000
00000000
00000000
00000000
,
00000000
00000000
00000000
00000000
,
00000000
00000000
00000000
00000000
,
00000000
00000000
00000000
00000000
,
00000000
00000000
00000000
00000000
,
00001000
00000000
00010000
00000000
,
00002000
00000000
00003000
00000000
,
00010000
00000000
00001000
00000000
,
00020000
00000000
00030000
00000000
,
00000010
00000000
00001000
00000000
,
00000020
00000000
00000030
00000000
,
00000100
00000000
00000001
00000000
,
00000200
00000000
00000300
00000000
,
00000220
00000000
00000000
00000000
,
00000330
00000000
00000000
00000000
,
00002000
00000000
00003000
00000000
,
00000200
00000000
00000300
00000000
,
00022000
00000000
00000000
00000000
,
00033000
00000000
00000000
00000000
,
02000000
00000000
03000000
00000000
,
00020000
00000000
00030000
00000000
,
10010000
00000000
00000000
00000000
,
01100000
00000000
00010000
10000000
,
10010000
00000000
00000000
00000000
,
01100000
00000000
10000000
00010000
,
20020000
00000000
30030000
00000000
,
00020000
00000000
00030000
00000000
,
00100000
00000000
00001000
00000000
,
00020000
00000000
00030000
00000000
,
00002000
00000000
00003000
00000000
,
00020000
00000000
00030000
00000000
,
00000020
00000000
00000000
00000000
,
00000200
00000000
00000330
00000000
,
00002002
00000000
00003003
00000000
,
00002000
00000000
00003000
00000000
,
00000100
00000000
00010000
00000000
,
00002000
00000000
00003000
00000000
,
02000000
00000000
03000000
00000000
,
00020000
00000000
00030000
00000000
,
00200000
00000000
00000000
00000000
,
02000000
00000000
03300000
00000000
,
00010000
10000000
00010000
00000000
,
10000000
10000000
00010000
00000000
,
00100000
00000000
00100000
00000000
,
00001000
00010000
00001000
00000000
,
00010000
00001000
00010000
00000000
,
00000100
00000100
00001000
00000000
,
00000010
00000000
00000010
00000000
,
00000100
00000010
00000100
00000000
,
00001001
00000000
00000001
00000000
,
00000010
00000001
00000010
00000000
,
00001001
00000000
00001000
00000000
,
00000100
00001000
00000100
00000000
,
00022000
00000000
00000000
00000000
,
00033000
00000000
00000000
00000000
,
00200000
00000000
00300000
00000000
,
00020000
00000000
00030000
00000000
,
20020000
00000000
00000000
00000000
,
30030000
00000000
00000000
00000000
,
02000000
00000000
03000000
00000000
,
00200000
00000000
00300000
00000000
,
10010000
00000000
00010000
00000000
,
02000000
00000000
03000000
00000000
,
00001000
00000000
00001000
00000000
,
00020000
00000000
00030000
00000000
,
00000200
00000000
00001300
00000000
,
00002000
00000000
00003010
00000000
,
00000020
00000000
00000130
00000000
,
00000220
00000000
00000330
00000000
,
00000002
00000000
00001000
00001000
,
00002000
00000000
00003003
00000000
,
00000020
00000000
00000100
00000100
,
00000200
00000000
00000330
00000000
,
00002000
00000000
00010000
00010000
,
00020000
00000000
00033000
00000000
,
02000000
00000000
00100000
00100000
,
00200000
00000000
03300000
00000000
,
20020000
00000000
00000000
00000000
,
00000000
30030000
00000000
00000000
00000000
00000000
00000000
00000000
;

//--------------- dance-double - forcednature ----------------
#NOTEDATA:;
#STEPSTYPE:dance-double;
#DESCRIPTION:forcednature;
#DIFFICULTY:Medium;
#METER:8;
#RADARVALUES:0,0,0,0,0;
#CREDIT:forcednature;
#NOTES:
00000000
00000000
00000000
00000000
,
00000000
00000000
00000000
00000000
,
00000000
00000000
00000000
00000000
,
00000000
00000000
00000000
00000000
,
00000000
00000000
00000000
00000000
,
00011000
00010000
00001000
00010000
,
00200000
10000000
10300000
00000000
,
10010000
00010000
01000000
00010000
,
00200000
00001000
00301000
00000000
,
00011000
00010000
00000100
00010000
,
00000020
00001000
00001030
00000000
,
00001001
00000001
00000100
00000001
,
00000020
00000100
00000130
00000000
,
00000220
00000000
00000330
00000000
,
00002000
00000000
00003000
00000000
,
00020000
00000000
00030000
00000000
,
00200000
00000000
00300000
00000000
,
02200000
00000000
03300000
00000000
,
20000000
00000000
30000000
00000000
,
02000000
00000000
03000000
00000000
,
00200000
00000000
00300000
00000000
,
10010000
00010000
00100000
00000000
,
00011000
00001000
00010000
00001000
,
00011000
00000010
00001000
00000000
,
00001001
00000100
00000110
00000001
,
00000010
00000001
00000010
00000000
00000100
00000000
00010000
00000000
,
00001000
00010000
00001000
00000000
01000000
00000000
00010000
00000000
,
00100000
00010000
00100000
00000000
01000000
00100000
01000000
00000000
,
20000000
01000000
31000000
00000000
,
10000000
00100000
10100000
00000000
,
00010000
01000000
01010000
00000000
,
00001000
00010000
00001000
00000000
00010000
00000000
00000100
00000000
,
00001000
00000010
00001000
00000000
00000010
00000000
00000000
00000000
,
00000100
00000001
00000100
00000000
00000001
00000000
00000010
00000000
,
00000100
00001000
00000100
00000000
00010000
00000000
00000000
00000000
,
00011000
00100000
00110000
00000000
,
11000000
00010000
01010000
00000000
,
00001000
00000000
00010000
00001000
00010000
00000000
00000000
00000000
,
00000100
00001000
00000001
00000100
,
00000020
00000100
00000100
00000000
,
00000200
00000000
00000330
00000000
,
00001000
00000000
00000001
00001000
00000001
00000000
00000010
00000000
,
00001000
00010000
01000000
10000000
,
00010000
00000000
00010000
00000000
00100000
00010000
00100000
00000000
,
01000000
10000000
01000000
00010000
,
00001000
00000000
00010000
00000000
00001000
00010000
00001000
00000000
,
00000010
00000001
00000100
00001000
,
00010000
00001000
00010000
00000000
00001000
00000000
00100000
00000000
,
00010000
01000000
00100000
00000000
,
10010000
10000000
01000000
00010000
,
00001000
00000000
00010000
00001000
00010000
00000000
00000000
00000000
,
00011000
00001000
00000100
00000001
,
00001000
00000000
00000001
00001000
00000001
00000000
00000000
00000000
,
00002002
00000000
00003003
00000000
,
00020000
00000000
00030000
00000000
,
00002000
00000000
00003000
00000000
,
00200000
00000000
00300000
00000000
,
02200000
00000000
03300000
00000000
,
20000000
00000000
30000000
00000000
,
00020000
00000000
00030000
00000000
,
00200000
00000000
00300000
00000000
,
10010000
00000000
00000000
00000000
10000000
00010000
10000000
00000000
,
00010000
00000000
01000000
00010000
01000000
00000000
00001000
00000000
,
00010000
00000000
00001000
00000000
00010000
00000100
00010000
00000000
,
00000100
00000000
00001000
00000100
00001000
00000000
00000010
00000000
,
00001010
00000000
00000000
00000000
00000001
00000100
00000001
00000000
,
00000100
00000000
00000010
00000100
00000010
00000000
00001000
00000000
,
00000100
00000000
00010000
00000000
00001000
00010000
00001000
00000000
,
00200000
00300000
00020000
00030000
,
01100000
00000000
10000000
01000000
10000000
00000000
00100000
00000000
,
02200000
00000000
03300000
00000000
,
10010000
00000000
00010000
01000000
00010000
00000000
00100000
00000000
,
00022000
00000000
00000000
00033000
,
00011000
00000000
00000100
00001000
00000100
00000000
00000010
00000000
,
00002002
00000000
00003003
00000000
,
00000101
00000000
00001000
00000100
00001000
00000000
00000010
00000000
,
00000220
00000000
00000000
00000330
,
00002002
00000000
00000000
00000000
,
00000000
00003003
00000000
00000000
00000000
00000000
00000000
00000000
;

//--------------- dance-double - forcednature ----------------
#NOTEDATA:;
#STEPSTYPE:dance-double;
#DESCRIPTION:forcednature;
#DIFFICULTY:Hard;
#METER:11;
#RADARVALUES:0,0,0,0,0;
#CREDIT:forcednature;
#NOTES:
00000000
00000000
00000000
00000000
,
00000000
00000000
00000000
00000000
,
00000000
00000000
00000000
00000000
,
00000000
00000000
00000000
00000000
,
00000000
00000000
00000000
00000000
,
00002000
00023000
00230000
20300000
,
31000000
00000000
01000000
00100000
00000000
00100000
01000000
00000000
01000000
00010000
00000000
00000000
,
00002000
00003020
00000032
00000203
,
00000310
00000000
00000010
00001000
00000000
00001000
00000100
00000000
00000100
00001000
00000000
00000000
,
00000002
00000023
00002030
00023000
,
00130000
00000000
00100000
10000000
00000000
10000000
01000000
00000000
01000000
10000000
00000000
00000000
,
00200000
00320000
00032000
00003020
,
00000031
00000000
00000001
00000100
00000000
00000100
00000001
00000000
00000001
00000010
00000000
00000000
,
00000220
00000000
00000330
00000000
,
00022000
00000000
00033000
00000000
,
02200000
00000000
03300000
00000000
,
20020000
00000000
30030000
00000000
,
00020000
01000000
20000000
30030000
,
00200000
00010000
00002000
00303000
,
00000200
00001000
00020000
00030300
,
00002002
00000000
00003003
00000000
,
00000220
00000000
00000330
00000000
,
00001001
00000000
00010100
00011000
,
00202000
00000000
00303000
00000000
,
10010000
00000000
01010000
10100000
,
10000000
01000000
10000000
01000000
00010000
00001000
00010000
00000000
,
00000010
00000100
00001000
00010000
00000010
00001000
00000100
00000000
,
00000010
00000000
00000000
00000010
00000001
00000000
00000000
00000001
00000100
00000000
00000000
00000100
00000001
00000000
00000000
00000000
,
00000010
00000100
00010000
00001000
00000010
00000001
00001000
00000000
,
00000010
00000000
00000100
00000000
00000010
00000000
00000000
00001000
00000001
00000000
00000000
00000000
00000011
00000000
00000000
00000000
,
00000010
00000000
00000000
00000100
00000010
00000000
00000000
00000000
00000100
00000000
00000000
00010000
00000100
00000000
00000000
00000000
,
00001000
00000010
00010000
00001000
01000000
00010000
10000000
00100000
,
01000000
00000000
01000000
10000000
01000000
00010000
10000000
00000000
,
00010000
00100000
00010000
00100000
10000000
00100000
00010000
00000000
,
00001000
00000100
00000010
00000001
00000100
00000010
00001000
00000000
,
00000001
00000000
00000000
00000001
00000010
00000000
00000000
00000010
00001000
00000000
00000000
00001000
00000010
00000000
00000000
00000000
,
00000001
00000100
00001000
00010000
00001000
00010000
00100000
00000000
,
10000000
00000000
00010000
00000000
10000000
00000000
00000000
00100000
01000000
00000000
00000000
00000000
01100000
00000000
00000000
00000000
,
00010000
00000000
00000000
00100000
00010000
00000000
00000000
00000000
10000000
00000000
00000000
00100000
10000000
00000000
00000000
00000000
,
01000000
00010000
00001000
00010000
00001000
00000010
00000001
00000000
,
00002001
00000000
00000100
00000000
00003001
00000010
00001000
00000000
,
00011000
00000000
00000000
00010000
00001000
00000000
00100000
00000000
00010000
00000000
01000000
00000000
00001000
00000000
00000000
00000000
,
00010000
00000000
00000000
00001000
00010000
00000000
00000000
00010000
00001000
00000000
00000010
00000000
00000100
00000000
00000010
00000000
,
00000001
00000100
00000000
00000000
00000001
00000100
00000000
00000000
00001000
00000000
00010000
00000000
00001000
00000000
00100000
00000000
,
00010000
00000000
00000000
01000000
00010000
00000000
10000000
00000000
01000000
00000000
00010000
00000000
00001000
00000000
00000000
00000000
,
00100000
00000000
00000000
00010000
00100000
00000000
00001000
00000000
00010000
00000000
00000010
00000000
00001000
00000000
00000010
00000000
,
00001000
00000000
00000000
00000100
00010000
00000000
00000000
00010000
00001000
00000000
00010000
00000000
00001000
00000000
00100000
00000000
,
00010000
01000000
00000000
00000000
00010000
01000000
00000000
00000000
00100000
00000000
10000000
00000000
01000000
00000000
00010000
00000000
,
00001000
00000000
00000000
00100000
00010000
00000000
00100000
00000000
00002000
00000000
00000000
00000000
00023000
00000000
00000000
00000000
,
00031000
00000010
00001000
00000010
00000001
00000100
00000001
00000100
,
00001000
00010000
01000000
10000000
00100000
00010000
00001000
00000000
,
00010000
00100000
00010000
00100000
10000000
01000000
10000000
01000000
,
00010000
00001000
00000100
00000001
00000010
00001000
00010000
00000000
,
00022000
00000000
00033000
00000000
,
00202000
00000000
00303000
00000000
,
20020000
00000000
30030000
00000000
,
02200000
00000000
03300000
00000000
,
20020000
00000000
00000000
30030000
00000000
00000000
00010000
00000000
00010000
00100000
00000000
00000000
,
00022000
00000000
00000000
00033000
00000000
00000000
00000010
00000000
00000010
00001000
00000000
00000000
,
00001001
00000002
00000203
00002300
,
00023000
00230000
00000000
00300000
,
10010000
00000000
00000000
00000000
10000000
00000000
00000000
10000000
01000000
00000000
00000000
01000000
00010000
00000000
00000000
00010000
,
00001000
00100000
00010000
00100000
00001000
00010000
00000010
00001000
,
00000100
00000000
00000000
00000000
00000010
00000000
00000000
00000010
00000001
00000000
00000000
00000001
00000100
00000000
00000000
00000100
,
00001000
00000000
00010000
00100000
10000000
00010000
01000000
00100000
,
10000000
00000000
00000000
00000000
01000000
00000000
00000000
01000000
00010000
00000000
00000000
00010000
00001000
00000000
00000000
00001000
,
00010000
00000000
00000010
00000100
00001000
00010000
00000100
00000010
,
00000001
00000000
00000000
00000000
00000100
00000000
00000000
00000100
00001000
00000000
00000000
00001000
00010000
00000000
00000000
00010000
,
00200000
00000000
10300000
00010000
01000000
00100000
10000000
00000000
,
21000000
00000000
31000000
00000000
10000000
00000000
01000000
00000000
00010000
00000000
00001000
00000000
,
00022000
00000000
00033000
00000000
,
00021000
00000000
00000000
00000000
00001000
00030000
00000000
00000000
00010000
00000000
00000000
00000000
00001000
00000000
00000000
00000000
00000010
00000000
00000000
00000000
00000001
00000000
00000000
00000000
,
00000022
00000000
00000000
00000033
,
00002001
00000000
00000000
00000000
00000001
00003000
00000000
00000000
00001000
00000000
00000000
00000000
00000001
00000000
00000000
00000000
00000100
00000000
00000000
00000000
00001000
00000000
00000000
00000000
,
00022000
00000000
00033000
00000000
,
00021000
00000000
00000000
00000000
00001000
00030000
00000000
00000000
00010000
00000000
00000000
00000000
00100000
00000000
00000000
00000000
10000000
00000000
00000000
00000000
01000000
00000000
00000000
00000000
,
02200000
00000000
00000000
03300000
,
00022000
00000000
00000000
00000000
,
00000000
00033000
00000000
00000000
00000000
00000000
00000000
00000000
;

//--------------- dance-double - forcednature ----------------
#NOTEDATA:;
#STEPSTYPE:dance-double;
#DESCRIPTION:forcednature;
#DIFFICULTY:Challenge;
#METER:16;
#RADARVALUES:0,0,0,0,0;
#CREDIT:forcednature;
#NOTES:
00000000
00000000
00000000
00000000
,
00000000
00000000
00000000
00000000
,
00000000
00000000
00000000
00000000
,
00000000
00000000
00000000
00000000
,
00000000
00000000
00000000
00000000
,
00001000
00010000
00001000
00010000
00100000
00010000
00100000
00000000
10000000
01000000
00000000
00000000
,
00010000
00001000
00010000
00001000
00000010
00001000
00000010
00000000
00000001
00000100
00000000
00000000
,
00001000
00010000
00001000
00010000
00100000
00010000
00100000
00000000
10000000
01000000
00000000
00000000
,
00010000
00001000
00010000
00001000
00000010
00001000
00000010
00000000
00000001
00000100
00000000
00000000
,
00001000
00010000
00100000
01000000
00100000
00010000
00100000
10000000
00100000
10000000
00000000
00000000
,
01000000
00010000
00001000
00010000
00001000
00000010
00000001
00000010
00000100
00001000
00000000
00000000
,
00000001
00000100
00001000
00010000
00001000
00010000
00100000
10000000
00010000
01000000
00000000
00000000
,
00100000
10000000
01000000
00010000
01000000
00010000
00001000
00010000
00001000
00000010
00000000
00000000
,
00000220
00000300
00000002
00000033
,
00020200
00000300
00000020
00030030
,
00202000
00000000
00303000
00000000
,
20020000
00000000
30030000
00000000
,
22000000
03000000
00200000
30300000
,
02002000
03000000
00020000
00033000
,
00002020
00000000
00003030
00000000
,
00000202
00000000
00000303
00000000
,
00001001
00000000
00000000
00000000
00000001
00000000
00000010
00000100
00001000
00000000
00000001
00000000
00000100
00000000
00001000
00000000
,
00011000
00000000
00000000
00000000
00010000
00000000
00100000
00000000
10000000
01000000
00100000
00000000
01100000
00000000
00000000
00000000
,
10010000
00000000
00000000
00000000
10000000
00000000
00100000
01000000
00010000
00000000
10000000
00000000
01000000
00000000
00010000
00000000
,
00011000
00000000
00000000
00000000
00001000
00000000
00000010
00000000
00000001
00000100
00000010
00000000
00000110
00000000
00000000
00000000
,
00000100
00000000
00001000
00000100
00000001
00000000
00000010
00000000
00000100
00000000
00010000
00000000
00001000
00000000
00100000
00000000
,
01000000
00000000
00010000
01000000
10000000
00000000
00100000
00000000
01000000
00000000
00001000
00000000
00010000
00000000
00000000
00000000
,
00100000
00000000
00000000
00100000
10000000
00000000
00000000
10000000
01000000
00000000
00000000
01000000
00010000
00000000
00000000
00000000
,
00001000
00000000
00010000
00001000
00010000
00000000
00001000
00000000
00000010
00000000
00000001
00000000
00000100
00000000
00000000
00000000
,
00000010
00000000
00001000
00000100
00000010
00000000
00000001
00000000
00000100
00000000
00000010
00000000
00001010
00000000
00000000
00000000
,
00001000
00000000
00000100
00010000
00001000
00000000
00100000
00000000
00010000
00000000
01000000
00000000
01100000
00000000
00000000
00000000
,
00100000
00000000
10000000
00100000
10000000
00000000
01000000
00000000
00010000
00000000
00001000
00010000
00001000
00000000
00000010
00000000
,
00000100
00001000
00000100
00000000
00010000
00001000
00010000
00000000
01000000
00000000
00100000
00000000
01100000
00000000
00000000
00000000
,
01000000
00000000
00010000
01000000
10000000
00000000
00100000
00000000
01000000
00000000
00001000
00000000
00010000
00000000
00000010
00000000
,
00000100
00000000
00001000
00000100
00000001
00000000
00000010
00000000
00000100
00000000
00010000
00000000
00001000
00000000
00000000
00000000
,
00000010
00000000
00000000
00000010
00000001
00000000
00000000
00000001
00000100
00000000
00000000
00000100
00001000
00000000
00000000
00000000
,
00010000
00000000
00001000
00010000
00001000
00000000
00010000
00000000
00100000
00000000
10000000
00000000
01000000
00000000
00000000
00000000
,
00100000
00000000
00010000
01000000
00100000
00000000
10000000
00000000
01000000
00000000
00100000
00000000
00110000
00000000
00000000
00000000
,
00010000
00000000
01000000
00001000
00010000
00000000
00000010
00000000
00001000
00000000
00000100
00000000
00000110
00000000
00000000
00000000
,
00000010
00000000
00000001
00000100
00000010
00000000
00001000
00000000
00000100
00000000
00000010
00000100
00001000
00000000
00000010
00000000
,
00010000
00001000
00010000
00000000
00001000
00100000
00001000
00000000
00100000
00000000
00100000
00000000
00200000
00000000
00000000
00310000
,
01000000
00010000
01000000
00000000
00100000
01000000
00100000
00000000
10000000
00010000
00100000
00000000
01000000
00000000
10000000
00000000
,
01000000
00000000
00010000
00001000
00010000
00000000
01000000
00000000
00100000
00000000
00001000
00000000
00000010
00000000
00000100
00000000
,
00001000
00000001
00000010
00000001
00001000
00000001
00000010
00000001
00001000
00000000
00000010
00000000
00010000
00000000
00001000
00000000
,
00100000
00010000
00100000
00010000
10000000
00000000
01000000
00000000
00010000
00001000
00010000
00000000
00001000
00000000
00000010
00000000
,
00000100
00001000
00000100
00000000
00000010
00000100
00000010
00000000
00000001
00001000
00000010
00000000
00000100
00000000
00000001
00000000
,
00000100
00000000
00001000
00010000
00001000
00000000
00000100
00000000
00000010
00000000
00010000
00000000
00100000
00000000
01000000
00000000
,
00010000
10000000
00100000
10000000
00010000
10000000
00100000
10000000
00010000
00000000
00100000
00000000
00001000
00000000
00010000
00000000
,
00000010
00001000
00000010
00001000
00000001
00000000
00000100
00000000
00001000
00010000
00001000
00000000
00100000
00000000
01000000
00000000
,
10000000
00000000
10000000
01000000
00010000
00000000
00001000
00000010
00000001
00000000
00001000
00000010
00000100
00000000
00000001
00000000
,
00000010
00000100
00000010
00000100
00010000
00001000
00010000
00001000
00000010
00000100
00010000
00001000
00000100
00000000
00000000
00000000
,
00000001
00000000
00000001
00000100
00001000
00000000
00010000
00100000
10000000
00000000
00010000
00100000
01000000
00000000
10000000
00000000
,
00100000
01000000
00100000
01000000
00001000
00010000
00001000
00010000
00100000
01000000
00001000
00010000
01000000
00000000
00000000
00000000
,
20020000
00030000
00200000
30300000
,
02002000
03000000
00200000
00303000
,
00020200
00000300
00000020
00030030
,
00002002
00000000
00003003
00000000
,
00001001
00000000
00000000
00001000
00000001
00000100
00001000
00010000
00001000
00010000
00100000
10000000
,
00010000
00000000
00000000
10000000
01000000
00100000
01000000
00010000
00001000
00000010
00000100
00000010
,
00000001
00000000
00000000
00000100
00001000
00010000
00100000
00000000
00000000
01010000
00000000
00000000
,
11000000
20020000
00000000
30030000
,
11000000
00000000
00000000
10000000
00010000
00000000
00000000
00000000
00001000
00000000
00000000
00001000
00000001
00000000
00000000
00000000
,
00000010
00000100
00000010
00000100
00001000
00000001
00001000
00000001
00000020
00000000
00002030
00000000
00023000
00000000
00230000
00000000
,
01300000
00000000
00100000
10000000
00010000
00000000
00100000
00000000
00001000
00000000
00010000
00001000
00000010
00000000
00000100
00000000
,
00000010
00000000
00000001
00000100
00000010
00000000
00000100
00000010
00001000
00000000
00000100
00010000
00001000
00000000
00000010
00000000
,
00000101
00000000
00000000
00000001
00001000
00000000
00000000
00000000
00010000
00000000
00000000
00010000
10000000
00000000
00000000
00000000
,
00100000
01000000
00100000
01000000
00010000
10000000
00010000
10000000
00200000
00000000
00320000
00000000
00032000
00000000
00003020
00000000
,
00000130
00000000
00000010
00000001
00001000
00000000
00000010
00000000
00010000
00000000
00001000
00010000
00100000
00000000
01000000
00000000
,
00100000
10000000
00100000
10000000
00100000
00000000
10000000
00000000
01000000
00000000
00010000
00001000
00010000
00000000
00001000
00000000
,
00011000
00000000
00010000
00000000
00000010
00000100
00000010
00000000
00010000
00000000
00000100
00000010
,
00000100
00000000
00010100
00000000
00011000
00000010
00001010
00000000
00000001
00000000
00000100
00000000
,
00011000
00000000
00001000
00000000
00100000
01000000
00100000
00000000
00001000
00000000
01000000
00100000
,
01000000
00000000
01001000
00000000
00011000
00100000
00110000
00000000
10000000
00000000
01000000
00000000
,
00011000
00000000
00001000
00000000
00100000
10000000
00100000
00000000
00001000
00000000
01000000
10000000
,
02000000
03000000
02020000
03030000
00210000
00301000
00022000
00033000
00020020
00030030
00002020
00003030
,
00011000
00000000
00010000
00000000
00000010
00000001
00000010
00000000
00010000
00000000
00000100
00000001
,
00000200
00000300
00002200
00003300
00001020
00010030
00022000
00033000
00202000
00303000
00220000
00330000
,
20020000
00000000
00000000
00000000
,
00000000
30030000
00000000
00000000
00000000
00000000
00000000
00000000
;
