#VERSION:0.83;
#TITLE:Trendy Ice Cream;
#SUBTITLE:;
#ARTIST:mochitsune;
#TITLETRANSLIT:;
#SUBTITLETRANSLIT:;
#ARTISTTRANSLIT:;
#GENRE:;
#CREDIT:;
#MUSIC:Trendy Ice Cream.ogg;
#BANNER:Trendy Ice Cream-bn.png;
#BACKGROUND:Trendy Ice Cream-bg.png;
#CDTITLE:;
#SAMPLESTART:66.277;
#SAMPLELENGTH:12.832;
#SELECTABLE:YES;
#OFFSET:-0.050;
#BPMS:0.000=144.955;
#STOPS:;
#DISPLAYBPM:145.000;
#BGCHANGES:0.000=Trendy Ice Cream.avi=1.000=0=0=0=StretchNoLoop====;
#FGCHANGES:;

//--------------- dance-single - ----------------
#NOTEDATA:;
#STEPSTYPE:dance-single;
#DESCRIPTION:;
#DIFFICULTY:Easy;
#METER:6;
#RADARVALUES:0,0,0,0,0;
#NOTES:
0000
0000
0000
0000
,
0000
0000
0000
0000
,
0000
0000
0000
0000
,
0000
0000
0000
0000
,
0001
0100
0001
1000
,
0001
0010
0002
0013
,
0001
1000
0010
1000
,
0001
0010
0100
1001
,
0001
0100
0010
1000
,
0100
0010
0001
1000
,
0010
0100
0010
0100
,
1000
0001
1000
0000
,
0001
0010
0100
1000
,
0010
0100
0001
1000
,
0001
0000
0100
0010
,
2000
0000
0000
0000
0000
3000
0000
0000
,
0002
0000
0003
0010
,
0100
0000
1000
0000
0002
0000
2003
3000
,
0001
0100
1000
0100
,
0001
1000
0100
0010
,
0100
0000
1000
0001
,
1000
0000
0001
0100
,
0010
0100
0001
0100
,
0020
0000
0000
0000
,
1030
0000
0001
0000
,
1000
0001
0010
1001
,
1000
0000
0001
0000
,
1000
0001
0100
1001
,
1000
0100
0010
0100
,
1000
0001
1000
0000
,
0001
0100
1000
0100
,
0002
0000
0000
0003
,
1000
0100
0010
0100
,
1000
0100
1000
0001
,
0100
0001
0100
0001
,
0100
0010
1000
0000
,
0001
0010
0100
0010
,
0001
1000
0002
0103
,
0001
1000
0100
0010
,
0001
0100
0010
1001
,
1000
1000
0100
0010
,
0001
0010
1000
0010
,
0001
0010
0001
0100
,
0010
1000
1002
0000
,
1003
0101
0001
1000
,
0100
1000
0001
1000
,
0020
0030
0100
0100
,
0001
1000
0100
2000
,
3001
0001
0100
0010
,
1000
0010
0001
0010
,
1000
0010
1000
0100
,
0010
0001
2001
0000
,
3001
1100
1000
0001
,
0100
0001
1000
0001
,
0020
0030
0100
0100
,
1000
0001
0100
0002
,
1003
0100
0010
0001
,
0100
0010
2000
3001
,
0020
0030
1000
0010
,
0002
0000
0000
0000
,
0000
0000
0003
0000
;

//--------------- dance-single - ----------------
#NOTEDATA:;
#STEPSTYPE:dance-single;
#DESCRIPTION:;
#DIFFICULTY:Medium;
#METER:12;
#RADARVALUES:0,0,0,0,0;
#NOTES:
0000
0000
0000
0000
,
0000
0000
0000
0000
,
0000
0000
0000
0000
,
0000
0000
0000
0000
,
0001
0100
0010
1000
0001
0010
0100
0010
,
0001
0100
0010
1000
0002
0000
0013
0100
,
1000
0000
0100
0000
0010
0000
0001
0000
1000
0000
0001
0000
1000
0001
1000
0001
,
1000
0010
0100
1001
,
1000
0100
0010
0100
1000
0000
0001
0100
,
0010
0000
0100
0000
0001
0000
1000
0001
0000
1000
0001
0000
1000
0000
0100
0000
,
0010
0000
0001
0010
0100
0000
1000
0100
,
0001
0100
1000
0001
2000
0000
3001
0000
,
1000
1000
0010
0010
1000
0001
1000
0100
,
0010
0000
0100
0000
1000
0000
0001
1000
0000
0001
1000
0000
0010
0000
0100
0000
,
0001
0000
1000
0100
0010
1000
0010
0100
,
1000
0000
0001
1000
0001
0000
0100
0000
0010
0000
1000
0001
1000
0000
0000
0000
,
0002
0000
1003
0100
1000
0100
0010
0100
,
2000
0000
3001
0100
0020
0000
2030
3001
,
1000
0100
0010
0001
0010
0100
0001
0100
,
1000
0001
1000
0001
0100
0010
1000
0010
,
1000
0001
0001
1000
0100
0010
0001
0010
,
0001
1000
1000
0001
0100
0010
1000
0100
,
0010
0001
0100
0010
0100
0001
0100
0010
,
0200
0000
0000
0000
,
0301
2000
0000
3001
0010
0001
1000
0001
,
0100
0010
1000
0010
0100
0000
1002
0000
,
1003
0002
0000
1003
0010
1000
0001
1000
,
0100
0010
1000
0010
0001
0000
1001
0000
,
1000
0100
0010
0100
1000
1000
0001
0001
,
1000
1000
0010
0100
0001
1000
0001
0000
,
1000
0100
0010
0001
1000
0100
0010
0010
,
0002
1000
1000
1003
,
0001
0000
0100
0000
0010
1000
0001
0010
,
0100
0010
0100
0010
0001
0000
1000
0010
,
0100
0000
0001
0100
0010
0000
1000
0010
,
0100
1000
0100
0010
1000
0001
1000
0000
,
1000
0000
0100
0000
1000
0001
1000
0010
,
1000
0001
0010
0100
2000
0000
3010
0100
,
0002
0000
0000
0000
0000
0000
1003
0000
0001
0000
0001
0000
1000
0100
1000
0100
,
1000
0100
0010
1001
,
1000
0000
1010
0000
1000
0010
0100
0010
,
0100
0000
0001
0000
1000
0000
0100
0010
0000
0100
0010
0000
0001
0000
1000
0000
,
1001
0000
0001
1000
1001
0000
0001
0100
,
1000
0100
0001
1000
0100
0010
0001
0000
,
1000
0000
0101
0000
0100
0010
1000
0001
,
1000
0100
0010
0100
2000
0000
3001
0100
,
0020
0000
1030
0001
1000
0100
0001
0100
,
1000
0000
0001
0000
0100
0010
0100
0010
0000
0100
0000
0010
2000
0000
0000
0000
,
3001
0000
0011
0000
0001
0010
0100
0010
,
0100
0000
1000
0000
0001
0000
0100
0010
0000
0100
0010
0000
1000
0000
0001
0000
,
1001
0000
1000
0001
1001
0000
1000
0100
,
0001
0100
1000
0001
0100
0010
1000
0000
,
0001
0000
1100
0000
0100
0010
0001
1000
,
0001
0100
0010
0100
0002
0000
1003
0100
,
0020
0000
0031
1000
0001
0100
1000
0100
,
0001
0000
1000
0000
0100
0010
0100
0010
0000
0100
0000
0010
0002
0000
0000
0000
,
1003
0000
0010
0000
0100
0000
0001
0100
,
0001
0000
1000
0000
0001
0000
1000
0000
0002
0000
0000
0003
1000
0000
0100
0000
,
0020
0000
0030
0001
1000
0010
0001
0010
,
2000
0000
0000
0000
,
0000
0000
3000
0000
;

//--------------- dance-single - ----------------
#NOTEDATA:;
#STEPSTYPE:dance-single;
#DESCRIPTION:;
#DIFFICULTY:Hard;
#METER:14;
#RADARVALUES:0,0,0,0,0;
#NOTES:
0000
0000
0000
0000
,
0000
0000
0000
0000
,
0000
0000
0000
0000
,
0000
0000
0000
0000
,
0001
0010
0100
1000
0001
0100
1000
0100
,
0001
0100
0010
1000
0002
0000
0013
0100
,
1000
0000
0100
0000
0010
0000
0001
0000
1000
0001
1000
0001
1000
0001
1000
0001
,
1000
0010
0100
1001
,
1000
0000
0100
0000
0010
0000
0100
0000
1000
0100
0010
0000
0001
0000
0100
0000
,
0010
0000
0100
0000
0001
0000
1000
0001
0000
1000
0001
0000
1000
0000
0100
0000
,
0010
0001
1000
0100
0010
0001
1000
0010
,
0001
0000
0010
0000
1000
0000
0001
1000
0000
1000
0001
0000
1000
0100
1000
0100
,
1000
0100
0010
0100
1000
0001
1000
0010
,
0100
0000
0010
0000
1000
0000
0001
1000
0000
0001
1000
0000
0100
0010
0000
0100
,
0010
0001
1000
0001
0100
1000
0100
0010
,
1000
0000
0100
1000
0001
0000
0100
0001
1000
0000
0001
0010
0001
0010
0001
0010
,
0002
0000
0000
0000
1003
0000
0001
1000
0000
0001
0100
0000
0010
0000
1000
0000
,
0001
1000
0001
0000
1000
0000
0100
0000
0020
0000
0000
0000
0032
0000
1003
0000
,
0001
0100
0010
1000
0010
0100
1000
0100
,
0001
1000
0001
1000
0100
0010
0001
0010
,
0001
0000
1000
0001
1000
0000
0001
0000
0100
0000
0010
0000
1000
0000
0010
0000
,
1000
0000
0001
1000
0001
0000
1000
0000
0100
0000
0010
0000
0001
0000
0100
0000
,
0010
1000
0100
0010
0100
1000
0100
0010
,
0200
0000
0000
0000
,
1300
0002
0000
1003
0010
1000
0001
1000
,
0100
0000
0010
0000
0001
0000
0010
0000
0100
1000
0001
0000
2000
0000
0000
0000
,
3001
2000
0000
3001
0010
0001
1000
0001
,
0100
0000
0010
0000
1000
0001
1000
0000
0001
0010
0001
1000
0001
0100
0001
0000
,
1000
0000
0100
0000
0010
0001
1000
0000
0001
0000
0100
0000
0010
1000
0001
0000
,
1000
0000
0100
0000
0010
0001
1000
0000
0010
0000
0100
0000
0001
0000
0000
0000
,
0001
0000
0010
0000
0100
1000
0001
0000
1000
0000
0010
0000
0100
0010
0100
0001
,
2000
0001
0001
3001
,
1000
0000
0100
0000
0010
0001
1000
0010
,
0100
0010
0100
0010
1000
0000
0001
0010
,
0100
0000
1000
0100
0010
0000
0001
0010
,
0100
0001
0100
0010
0001
1000
0001
0000
,
1000
0010
0100
0001
1000
0100
0010
0100
,
1000
0100
0010
0001
2000
0000
3010
0100
,
0001
0000
0100
0000
0010
0000
1000
0000
0001
1000
0001
1000
0100
1000
0100
1000
,
0100
0010
0001
1001
,
1000
0000
0000
0000
1010
0000
0010
0000
0100
0001
1000
0000
0100
0000
0010
0000
,
0100
0000
1000
0000
0001
0000
1000
0001
0000
1000
0010
0000
0100
0000
0001
0000
,
1000
0001
1000
0000
0100
0000
0010
0000
0001
1000
0001
0000
1000
0000
0010
0000
,
0001
0000
0010
0000
1000
0000
0001
0000
1000
0100
0010
0100
1000
0100
0010
0100
,
1000
0000
0000
0000
0101
0000
0100
0000
0001
0100
0010
0000
1000
0000
0100
0000
,
0010
0000
0001
0000
1000
0000
0010
0100
0000
0100
0010
0000
1000
0000
0001
0000
,
0020
0000
0031
1000
0100
0001
0100
1000
,
0001
0100
0010
0100
0001
0100
0010
0100
0000
0001
0000
0001
1000
0100
0010
0001
,
1000
0000
0000
0000
0101
0000
0100
0000
0010
1000
0001
0000
0010
0000
0100
0000
,
0010
0000
0001
0000
1000
0000
0001
1000
0000
0001
0100
0000
0010
0000
1000
0000
,
0001
1000
0001
0000
0010
0000
0100
0000
1000
0001
1000
0000
0001
0000
0100
0000
,
1000
0000
0100
0000
0001
0000
1000
0000
0001
0010
0100
0010
0001
0010
0100
0010
,
0001
0000
0000
0000
1010
0000
0010
0000
1000
0010
0100
0000
0001
0000
0010
0000
,
0100
0000
1000
0000
0001
0000
0100
0010
0000
0010
0100
0000
0001
0000
1000
0000
,
0200
0000
1300
0001
0010
1000
0010
0001
,
1000
0100
0010
0100
1000
0100
0010
0100
0000
1000
0000
1000
0001
0100
0010
1000
,
0001
0000
0010
0000
0100
0000
1000
0100
,
1000
0000
0001
0000
1000
0000
0010
0000
2000
0000
0000
3000
0001
0000
0010
0000
,
0200
0000
0300
1000
0100
0010
1000
0010
,
0002
0000
0000
0000
,
0000
0000
0003
0000
;
