#TITLE:Touch n Go;
#SUBTITLE:;
#ARTIST:Paisley Park;
#TITLETRANSLIT:;
#SUBTITLETRANSLIT:;
#ARTISTTRANSLIT:;
#GENRE:;
#CREDIT:;
#BANNER:Touch n Go-bn.png;
#BACKGROUND:Touch n Go-bg.png;
#LYRICSPATH:;
#CDTITLE:;
#MUSIC:Touch n Go.ogg;
#OFFSET:0.000000;
#SAMPLESTART:60.056999;
#SAMPLELENGTH:12.000000;
#SELECTABLE:YES;
#BPMS:0.000000=160.000000
;
#STOPS:
;
#BGCHANGES:;
#KEYSOUNDS:;
#ATTACKS:;

//---------------dance-single - TnG----------------
#NOTES:
     dance-single:
     Featuring Touch n Go Technology:
     Beginner:
     3:
     0.154461,0.197233,0.018326,0.000000,0.000000,118.000000,116.000000,2.000000,0.000000,31.000000,0.000000,0.154461,0.197233,0.018326,0.000000,0.000000,118.000000,116.000000,2.000000,0.000000,31.000000,0.000000:
0000
0000
0000
0000
,
0000
0000
0000
0000
,
1000
M000
1000
0000
,
1001
0000
0001
0000
,
0010
0000
0100
0000
,
0010
0000
0001
0000
,
1000
0000
0010
0000
,
0100
0000
0010
00M0
,
0010
0000
0100
0000
,
0001
000M
0001
000M
,
0001
000M
0001
0000
,
1001
0000
1000
0000
,
0010
0000
0100
0000
,
0010
0000
1000
0000
,
0001
0000
0010
0000
,
0100
0000
0010
00M0
,
0010
0000
0001
0000
,
1000
M000
1000
M000
,
1000
0000
0010
0000
,
0100
0000
0100
0000
,
0010
0000
0000
0000
,
1000
0000
0000
0000
,
0001
0000
0000
0000
,
0010
0000
0000
0000
,
0100
0M00
0000
0000
,
0010
00M0
0000
0000
,
0001
000M
0000
0000
,
1000
0000
1000
1000
,
1000
0000
0000
0000
,
0010
00M0
0000
0000
,
0100
0000
0000
0000
,
0010
0000
0010
00M0
,
0010
00M0
0000
0000
,
1000
M000
0000
0000
,
0001
000M
0000
0000
,
0010
0000
0000
0100
,
0100
0M00
0000
0000
,
0010
00M0
0000
0000
,
0001
000M
0000
0000
,
1000
0000
0000
0000
,
0010
00M0
0010
0000
,
0100
0000
0100
0000
,
0001
0000
0001
0000
,
1000
0000
1000
M000
,
0010
0000
0100
0000
,
0010
0000
1000
0000
,
0001
0000
0010
0000
,
0100
0M00
0100
0M00
,
0100
0000
0000
0000
,
0010
0000
0000
0000
,
0001
0000
0000
0000
,
1000
0000
0000
0000
,
0010
0000
0000
0000
,
0100
0000
0000
0000
,
0010
0000
0000
0000
,
1000
0000
0000
0000
,
0001
000M
0001
0000
,
1000
0000
1000
0000
,
0100
0000
0100
0000
,
0010
0000
0001
000M
,
0010
0000
0100
0000
,
0010
0000
0001
0000
,
1000
0000
0010
0000
,
0100
0M00
0100
0M00
,
0010
00M0
0010
0000
,
1000
0000
1000
0000
,
0010
0000
0100
0000
,
0010
0000
1000
0000
,
0001
0000
0010
0000
,
0100
0000
0010
00M0
,
0010
0000
0001
0000
,
1000
M000
1000
M000
;

//---------------dance-single - TnG----------------
#NOTES:
     dance-single:
     TnG:
     Hard:
     12:
     0.469929,0.592042,0.091630,0.100793,0.778852,359.000000,349.000000,10.000000,11.000000,53.000000,0.000000,0.469929,0.592042,0.091630,0.100793,0.778852,359.000000,349.000000,10.000000,11.000000,53.000000,0.000000:
0000
0000
0000
0000
,
0000
0000
0000
0000
,
0001
0000
000M
0000
0001
0000
1000
0000
1000
0000
0010
0000
,
1001
0000
MMMM
0000
0000
0000
0001
0000
1000
0000
0001
0000
,
0020
0030
0010
0000
0010
0000
0200
0300
0100
0000
0100
0000
,
1000
0000
0010
0000
0001
0000
0010
0000
0100
0000
0001
0000
,
1001
0000
0000
0000
0000
0000
1000
0000
1000
0000
1000
0000
,
0001
0000
0010
0000
0001
0000
1000
0000
M000
0000
1000
0000
,
0110
0000
0002
0003
,
1000
0000
0000
0000
0000
0000
0000
0000
M000
0000
0000
0000
0000
0000
0000
1000
0000
0000
0000
0000
0000
0000
0000
0000
0010
0000
0000
0000
0000
0000
00M0
0000
0000
0000
0000
0000
0000
0000
0000
0010
0000
0000
0000
0000
0000
0000
0000
0000
,
0100
0000
0M00
0000
0100
0000
0010
0000
1000
0000
0010
0000
,
1001
0000
MMMM
0000
0000
0000
1000
0000
1000
0000
1000
0000
,
0100
0000
0010
0000
0000
0010
0000
0000
0001
0000
0100
0000
0000
0100
0000
0000
,
0001
0000
0000
0000
0000
0000
0000
0000
0100
0000
0000
0000
0000
0000
0000
1000
0000
0000
0000
0000
0000
0000
0000
0000
0100
0000
0000
0000
0000
0000
0000
0000
0010
0000
0000
0000
0000
0000
0000
0000
1000
0000
0000
0000
0000
0000
0000
0000
,
0001
0000
0010
0000
0001
0000
1000
0000
1000
0000
1000
0000
,
0010
0000
0100
0000
0001
0000
1000
0000
M000
0000
1000
0000
,
0001
0000
0010
0000
0110
0000
0100
0000
1000
0000
1001
0000
,
0001
0000
0000
0000
0000
0000
0000
0000
000M
0000
0000
0000
0000
0000
0000
0001
0000
0000
0000
0000
0000
0000
0000
0000
1000
0000
0000
0000
0000
0000
M000
0000
0000
0000
0000
0000
0000
0000
0000
1000
0000
0000
0000
0000
0000
0000
0000
0000
,
0010
0000
0010
0000
0010
0000
0010
0000
0010
0000
0010
0000
,
1000
0001
1000
0001
1000
0001
2000
0000
0000
3100
0000
0000
,
0020
0000
0000
0000
,
0032
0000
0000
0000
,
2003
0000
0000
0000
,
3020
0000
0000
0230
,
0301
0000
000M
0000
0001
0000
0000
1000
0000
0000
0001
0000
,
0010
0000
00M0
0000
0010
0000
0000
0100
0000
0000
1000
0000
,
0010
0000
00M0
0000
0010
0000
0000
0100
0000
0000
0010
0000
,
1000
0001
1000
0100
0010
00M0
0010
0000
,
0002
0000
0000
0000
1003
0000
0000
0010
0000
0000
0100
0000
,
0001
0000
000M
0000
0001
0000
0000
0010
0000
0000
0100
0000
,
2000
0000
0000
0000
3010
0000
0000
0100
0000
0000
0010
0000
,
1000
0001
0100
0010
1000
M000
1000
0000
,
0001
0000
0000
0000
0000
0000
0000
0000
000M
0000
0000
0000
0000
0000
0000
0001
0000
0000
0000
0000
0000
0000
0000
0000
0000
0000
0000
0000
0000
0000
0000
0000
0000
0000
0000
0000
0000
0000
0000
0000
0000
0000
0000
0000
0000
0000
0000
0000
,
1000
0000
0000
0000
0000
0000
0000
0000
M000
0000
0000
0000
0000
0000
0000
1000
0000
0000
0000
0000
0000
0000
0000
0000
0001
0000
0000
0000
0000
0000
0000
0000
0000
0100
0000
0000
0000
0000
0000
0000
0000
0000
0000
0000
0000
0000
0000
0000
,
0010
0000
00M0
0000
0000
0010
0000
0000
0100
0000
0000
0010
0000
0000
0000
0000
,
1000
0000
0000
0000
0000
0000
0000
0000
0000
0000
1000
0000
0000
0000
1000
0000
0000
0000
0001
0000
0000
1000
0000
0000
,
0001
0000
000M
0000
0000
0001
0000
0000
0000
0000
0000
0000
0000
0000
0000
0000
,
0100
0000
0M00
0000
0000
0100
0000
0000
0000
0000
0000
0000
0000
0000
0000
0000
,
0010
0000
0000
0000
0000
0000
0000
0000
00M0
0000
0000
0000
0000
0000
0000
0010
0000
0000
0000
0000
0000
0000
0000
0000
1000
0000
0000
0000
0000
0000
0000
0000
0000
0001
0000
0000
0000
0000
0000
0000
0000
0000
0000
0000
0000
0000
0000
0000
,
1000
0100
1000
0100
1000
0100
0010
0001
1000
0010
0100
0001
,
0010
0000
0000
0000
0000
0000
0000
0000
0000
0000
0000
0000
0000
0000
0000
0000
0000
0000
0000
00M0
0000
0000
0000
0000
0000
0000
0000
0000
0000
0000
0000
0000
0000
0000
0000
0000
0010
0000
0000
0000
0000
0000
0000
0000
0000
0000
0000
0000
0000
0000
0000
0000
0000
0000
0000
0000
0000
0000
0000
0000
0000
0000
0000
0000
0000
0000
0000
0000
0000
0000
0000
0000
0000
0000
0000
0000
0000
0000
0000
0000
0000
0000
0000
0000
0000
0000
0000
0000
0000
0000
0000
0000
0000
0000
0000
0000
0100
0000
0000
0000
0000
0000
0000
0000
0000
0000
0000
0000
0000
0000
0000
0000
0000
0000
0000
0M00
0000
0000
0000
0000
0000
0000
0000
0000
0000
0000
0000
0000
0000
0000
0000
0000
0100
0000
0000
0000
0000
0000
0000
0000
0000
0000
0000
0000
0000
0000
0000
0000
0000
0000
0000
0000
0000
0000
0000
0000
0000
0000
0000
0000
0000
0000
0000
0000
0000
0000
0000
0000
0010
0000
0000
0000
0000
0000
0000
0000
0000
0000
0000
0000
0000
0000
0000
0000
0000
0000
0000
0000
0000
0000
0000
0000
,
0001
MMMM
0001
0000
1000
0010
1000
0000
,
0010
0100
0001
0000
1000
0100
0010
0000
,
0001
1000
0001
0000
1000
M000
1000
0000
,
0100
1000
0010
0000
0010
1000
0100
0000
,
1000
0010
0001
0000
0001
0010
1000
0000
,
0001
0010
0100
0000
0010
0001
1000
0000
,
0010
00M0
0010
0000
0100
0M00
0100
0000
,
0010
0000
0000
0010
0000
0000
0010
0000
1000
0000
0001
0000
0000
0010
0000
0100
,
0000
0000
0000
0010
0000
0000
0001
0000
0000
1000
0000
0010
0000
0000
0100
0000
,
0010
0000
1000
0000
0010
0000
0000
1000
0000
0001
1000
0000
,
0100
0000
0010
0001
0000
1000
0000
0010
0100
0000
0010
1000
,
0010
0000
0000
1000
0000
0000
0001
0000
0010
0000
0001
0000
0000
1000
0000
0010
,
0000
0000
0000
0100
0000
0000
0010
0000
0000
0100
0000
0010
0000
0000
1000
0000
,
0001
0000
0010
0000
0001
0000
0000
1000
0000
0010
0100
0000
,
0010
0000
1000
0001
0000
0010
0000
0100
1000
0000
0001
0100
,
0010
00M0
0010
0000
0100
0001
0100
0000
,
0010
MMMM
0010
0000
1000
0001
1000
0000
,
0001
1000
0010
0000
1000
0001
0010
0000
,
0100
1000
0001
0000
0100
0M00
0100
0000
,
0001
1000
0010
0000
1000
0001
0100
0000
,
0001
0010
1000
0000
1000
0010
0001
0000
,
1000
0010
0110
0000
0100
0001
1001
0000
,
1000
M000
1000
0000
0001
000M
0001
0000
,
0100
0000
0M00
0000
0100
0000
0010
0000
1000
0000
0001
0000
,
0010
0000
MMMM
0000
0010
0000
0001
0000
0100
0000
0010
0000
,
0100
0000
0001
0000
0010
0000
0001
0000
1000
0000
0100
0000
,
1000
0000
0010
0000
0001
0000
0010
0000
0100
0000
0001
0000
,
1000
0000
0100
0000
1000
0000
0001
0000
0010
0000
0001
0000
,
1000
0000
0010
0000
0100
0000
0010
0000
00M0
0000
0010
0000
,
0100
0000
0001
0000
1001
0000
1000
0000
0100
0000
0110
0000
,
0010
0000
0000
00M0
0000
0000
0000
0010
0000
0000
0000
0000
0001
0000
0000
000M
0000
0000
0000
0001
0000
0000
0000
0000
;

//---------------dance-single - DS RH TnG XO----------------
#NOTES:
     dance-single:
     TnGRTFKEOCTWSIUSIDTIUTIOTTCPTTRTSTnGKIHTTCTnGTnG:
     Challenge:
     15:
     0.736964,0.823712,0.137444,0.357356,1.291978,563.000000,548.000000,15.000000,39.000000,45.000000,0.000000,0.736964,0.823712,0.137444,0.357356,1.291978,563.000000,548.000000,15.000000,39.000000,45.000000,0.000000:
// measure 0
0000
0000
0000
0000
,  // measure 1
0000
0000
0000
0000
,  // measure 2
0002
0000
0010
0000
1003
0000
0010
0000
0010
0000
0010
0000
,  // measure 3
1001
0000
MMMM
0000
MMMM
0000
2000
0000
3200
0000
0320
0000
,  // measure 4
0032
0000
2003
0000
3010
0000
2000
0000
3002
0000
0103
0000
,  // measure 5
0001
0000
0010
0000
1000
0000
0010
0000
0100
0000
1000
0000
,  // measure 6
0010
0000
0100
0000
0001
0000
1001
0000
1000
0000
1000
0000
,  // measure 7
0001
0010
0001
1000
0000
0010
0200
0000
0010
0000
0301
1000
,  // measure 8
0100
0000
0010
0000
0100
0000
1000
0000
0001
0000
0100
0000
,  // measure 9
0010
0000
0000
0000
0000
0000
0000
0000
MMMM
0000
0000
0000
0000
0000
0000
0001
0000
0000
0000
0000
1000
0000
0000
0000
0020
0000
0000
0000
0000
0000
0000
0000
0100
0000
0000
0000
1030
0000
0000
0000
0000
0000
0000
0000
0001
0000
0000
0000
,  // measure 10
0020
0000
0100
0000
0031
0000
1000
0000
0010
0100
0001
0010
,  // measure 11
0100
0000
MMMM
0000
MMMM
0000
1000
0000
0001
0000
1000
0000
,  // measure 12
0001
0000
1000
0001
0010
0000
0001
0000
1000
0000
0010
1000
0100
0000
0010
0000
,  // measure 13
1000
0000
0010
0100
1000
0000
0010
0000
0001
0000
0010
0000
0000
1000
0000
0000
,  // measure 14
1001
0000
1000
0000
0100
0000
0110
0000
0010
0000
0010
0000
,  // measure 15
0001
0000
0000
1000
0000
0000
0000
0000
0010
0000
0000
0000
0000
0000
0000
0000
0100
0000
0000
0000
0000
0000
0000
0000
0010
0000
0000
0000
0000
0000
1000
0000
0000
0001
0000
0000
0000
0000
0000
0000
0010
0000
0000
0000
0000
0000
0000
0000
,  // measure 16
0100
1000
0100
1000
0000
0010
2000
3100
0002
0103
2000
3010
,  // measure 17
0200
0000
0010
0000
0301
0000
2000
0000
0100
0000
3001
0000
,  // measure 18
1010
0000
1001
0000
0011
0000
0110
0000
1100
0000
1001
0000
,  // measure 19
0001
0100
0001
0100
0001
0100
0020
0000
0000
1030
0000
0000
,  // measure 20
2000
0000
0000
0000
,  // measure 21
3002
0000
0000
0000
,  // measure 22
0023
0000
0000
0000
,  // measure 23
0130
1000
0001
0000
0100
0010
0000
0010
0100
0000
0001
1000
0000
0001
0010
0001
,  // measure 24
2000
0000
0100
0000
3001
0000
1000
0001
0000
0010
0100
0010
,  // measure 25
0002
0000
0100
0000
1003
0000
0010
0100
0000
0010
1000
0001
,  // measure 26
0020
0000
0100
0000
0031
0000
1000
0001
0000
0100
0010
1000
,  // measure 27
0001
0010
0100
1000
0010
0000
0100
0000
0010
0000
1000
0001
0010
0000
0000
0000
,  // measure 28
0200
0000
0000
0000
1300
0000
0000
0001
0000
0000
0100
0000
,  // measure 29
0020
0000
0100
0000
1030
0000
0001
0010
0000
0001
1000
0001
,  // measure 30
0200
0000
0000
0000
0310
0000
0000
1000
0000
0000
0001
0000
,  // measure 31
0010
0100
1000
0100
0010
0000
0001
0000
0100
0000
0010
0100
0010
0000
0000
0000
,  // measure 32
2002
0000
0000
3003
M00M
0000
0000
0000
0000
0000
0000
0000
0000
0000
0000
0000
0000
0000
0000
0000
0000
0000
0000
0000
,  // measure 33
2000
0000
0000
0000
0000
0000
0000
0000
0000
0010
0000
0000
0000
0000
0000
0001
3000
0000
0000
0000
0000
0000
0000
0000
1000
0000
0000
0000
0000
0000
0000
0000
0000
0100
0000
0000
0000
0000
0000
0010
0000
0000
0000
0000
0000
0000
0000
0000
,  // measure 34
0200
0000
0000
0010
0000
1300
0000
0000
0001
0000
0000
0100
0000
0010
0000
0000
,  // measure 35
1001
0000
0000
0000
0000
1000
0000
0100
0000
0020
0000
0100
,  // measure 36
0032
0000
0000
0000
0000
0000
0000
0000
0100
0000
0000
0000
0000
0000
0000
2000
0003
0000
0000
0000
0000
0000
0000
0000
0000
0000
0000
0000
0000
0000
0000
0000
0000
0000
0000
0000
0000
0000
0000
0000
0000
0000
0000
0000
0000
0000
0000
0000
,  // measure 37
3020
0000
0000
0000
0000
0000
0000
0000
0100
0000
0000
0000
0000
0000
0000
1000
0030
0000
0000
0000
0000
0000
0000
0000
0000
0000
0000
0000
0000
0000
0000
0000
0000
0000
0000
0000
0000
0000
0000
0000
0000
0000
0000
0000
0000
0000
0000
0000
,  // measure 38
0002
0000
0000
0013
0000
0000
0000
0000
0001
0000
0000
1000
0000
0010
0000
0000
,  // measure 39
1000
0000
0000
0000
0001
0000
0000
0000
1000
0000
0000
0000
0001
0000
0000
0000
1000
0000
0000
0000
0001
0000
0000
0000
0100
0000
0000
0010
0000
0000
0100
0000
0000
0010
0000
0000
0100
0000
0000
0010
0000
0000
0100
0000
0000
0010
0000
0000
,  // measure 40
1000
0000
0001
0010
0001
0000
1000
0100
0010
0000
0001
0100
0000
0010
1000
0000
,  // measure 41
MMMM
0000
1000
0000
0100
0000
0000
0010
0100
0000
1000
0001
0100
0000
0010
0000
,  // measure 42
0100
0001
1000
0001
0010
0000
0100
0000
0010
0001
1000
0001
0100
0000
0010
0000
,  // measure 43
1010
0000
1000
0000
0001
0000
0000
0010
0100
0000
1000
0001
0100
0000
0010
0000
,  // measure 44
1000
0000
0100
1000
0010
0000
0000
0000
0100
0000
0010
1000
0100
0000
1000
0000
,  // measure 45
0010
0000
0100
1000
0000
0100
0001
1000
0100
0000
0010
1000
0000
0010
0001
0000
,  // measure 46
1000
0000
0010
0000
1010
0000
0000
0001
0010
0000
0100
0010
0100
0000
1000
0000
,  // measure 47
0001
0000
000M
0000
0001
0000
0000
1000
0010
0000
00M0
0000
0010
0000
0000
0000
,  // measure 48
0100
0000
0000
0000
0000
0000
0000
0000
0100
0000
0000
0000
0000
0000
0000
0000
0000
0000
0010
0000
0000
0000
0000
0000
0010
0000
0000
0000
0000
0000
0010
0000
0000
0000
0000
0000
0000
0000
0000
1000
0000
0000
0000
0000
0000
0001
0000
0000
,  // measure 49
1000
0000
0000
0010
0000
1000
0001
0010
0000
0010
0000
0010
0001
0000
1000
0000
,  // measure 50
0010
0100
0010
1000
0001
0010
0100
0010
0001
0100
0010
0100
,  // measure 51
0001
0000
1000
1000
0000
0001
0000
0010
0010
0000
0100
1000
,  // measure 52
0100
0000
0000
0010
0000
0000
0001
0000
0001
0000
0001
0000
0000
1000
0000
0010
,  // measure 53
1000
0000
0000
0001
0000
0001
1000
0010
0000
0010
0000
0010
1000
0000
1000
0000
,  // measure 54
0100
0010
0001
1000
0010
0100
0010
1000
0001
0010
0001
1000
,  // measure 55
0100
0000
1000
1000
0000
0010
0000
1000
0100
0000
0010
0010
,  // measure 56
0011
0000
0001
1000
0010
0000
0000
0100
0010
0000
1000
0001
1000
0000
0010
0000
,  // measure 57
0100
MMMM
0100
0000
0010
1000
0001
0010
,  // measure 58
0100
0000
1000
0001
0100
0000
0010
0000
0100
0000
0001
1000
0100
0000
0010
0000
,  // measure 59
0100
0000
1000
0001
1000
0000
0010
1000
0001
1000
M000
1000
0001
0000
0010
0000
,  // measure 60
0100
0010
0001
1000
0010
0000
0100
0000
0010
1000
0001
1000
0100
0000
0010
0000
,  // measure 61
0001
0100
1000
0001
1000
0100
0001
1000
,  // measure 62
0100
0000
0010
0001
0010
0000
0001
0000
0100
0000
0010
0100
0010
0000
1000
0000
,  // measure 63
0001
0000
000M
0000
0001
0000
0000
1000
0100
0000
0M00
0000
0100
0000
0000
0000
,  // measure 64
2000
0010
3002
0010
1003
0001
0010
0100
1000
0010
0100
0001
,  // measure 65
1000
MMMM
1000
0010
0100
0010
1000
0100
1000
0001
0100
0010
,  // measure 66
0100
0001
0010
0100
1000
0010
1000
0100
0010
0001
1000
0001
,  // measure 67
0010
0100
0001
0100
1000
0010
0100
1000
0100
0001
1000
0100
,  // measure 68
0010
0001
0100
0010
0100
0001
0010
0100
1000
0010
0100
0010
,  // measure 69
1000
0001
0010
0001
1000
0010
0200
0010
0302
0010
1003
0100
,  // measure 70
1000
0010
0100
0001
1000
0100
1000
0010
0100
0001
0010
0100
,  // measure 71
1000
0000
0000
M000
0000
0000
0000
1000
0000
0000
0000
0000
0010
0000
0000
00M0
0000
0000
0000
0010
0000
0000
MMMM
0000
;
