#TITLE:Touch My Body;
#SUBTITLE:;
#ARTIST:anubasu-anubasu;
#TITLETRANSLIT:;
#SUBTITLETRANSLIT:;
#ARTISTTRANSLIT:;
#GENRE:HARDSTYLE;
#CREDIT:;
#BANNER:Touch My Body.png;
#BACKGROUND:Touch My Body-bg.png;
#LYRICSPATH:;
#CDTITLE:cdtitle.png;
#MUSIC:Touch My Body.ogg;
#OFFSET:-0.012000;
#SAMPLESTART:73.592003;
#SAMPLELENGTH:15.000000;
#SELECTABLE:YES;
#BPMS:0.000000=150.000000
;
#STOPS:32.000000=1.200000,
133.000000=1.200000,
178.000000=1.200000
;
#BGCHANGES:;
#KEYSOUNDS:;
#ATTACKS:;

//---------------dance-single - Daff_4K----------------
#NOTES:
     dance-single:
     Daff_4K:
     Beginner:
     4:
     0.171400,0.229128,0.083319,0.000000,0.000000,144.000000,134.000000,10.000000,0.000000,0.000000,0.000000,0.171400,0.229128,0.083319,0.000000,0.000000,144.000000,134.000000,10.000000,0.000000,0.000000,0.000000:
0000
0000
0000
0000
,
0000
0000
0000
0000
,
0000
0000
0000
0000
,
0000
0000
0000
0000
,
0000
0000
0000
0000
,
0010
0000
0010
0000
,
0100
0000
0100
0000
,
0010
0010
0010
0000
,
1001
0000
0000
0010
,
0000
1000
1000
1000
,
0000
0001
0000
0010
,
0000
0001
0001
0001
,
0000
0100
0000
0010
,
0000
0100
0100
0100
,
0000
0010
0000
0100
,
0000
0010
0010
0010
,
0000
1000
0000
0001
,
0000
1000
1000
1000
,
0000
0100
0000
0010
,
0000
0100
0100
0100
,
0000
1000
0000
1000
,
0000
0001
0000
0001
,
0000
0100
0100
0100
,
0000
0110
0000
0000
,
0000
1001
0000
0000
,
0000
0000
0000
0000
,
0000
0001
0000
0001
,
0001
0000
0000
0000
,
0000
1000
0000
1000
,
1000
0000
0000
0000
,
0000
0100
0000
0100
,
0100
0000
0000
0000
,
0000
0010
0000
0010
,
0010
0000
0000
0001
,
0001
0001
0000
0000
,
0000
0000
1000
1000
,
1000
1000
0000
0000
,
0000
0000
0010
0010
,
0010
0010
0000
0000
,
0000
0000
0100
0100
,
0100
0100
0100
0000
,
0000
0000
0001
0000
,
0000
1000
1000
0000
,
0000
0010
0010
0000
,
0100
0000
1001
0000
,
0000
0010
0000
0001
,
0001
0001
0000
1000
,
0000
0010
0000
1000
,
1000
1000
0000
0100
,
0000
0010
0000
0100
,
0100
0100
0000
1000
,
0000
0001
0000
1001
,
0000
0000
0000
0110
,
0000
0000
0000
1001
,
1001
0000
0000
0100
,
0000
0010
0000
0100
,
0100
0100
0000
0001
,
0001
0001
0000
1000
,
1000
1000
0000
0100
,
0100
0100
0000
1001
,
0000
0000
0000
1000
,
1000
1000
0000
0001
,
0000
0000
0000
0001
,
0001
0001
0000
0100
,
0000
0000
0000
0100
,
0100
0100
0000
0010
,
0000
0000
0000
0010
,
0010
0010
0010
0010
,
0000
0000
0000
1001
;

//---------------dance-single - Daff_4K----------------
#NOTES:
     dance-single:
     Daff_4K:
     Easy:
     7:
     0.334468,0.458257,0.283286,0.158307,0.000000,281.000000,247.000000,34.000000,19.000000,0.000000,0.000000,0.334468,0.458257,0.283286,0.158307,0.000000,281.000000,247.000000,34.000000,19.000000,0.000000,0.000000:
0000
0000
0000
0000
,
0000
0000
0000
0000
,
0000
0000
0000
0000
,
0000
0000
0000
0000
,
0000
0000
0000
0000
,
1000
1000
0001
0001
,
0100
0010
1000
0001
,
0110
0110
1001
1001
,
0110
1001
1000
0010
,
0001
0010
1000
0100
,
0010
0100
0010
0000
0001
0000
0100
0000
,
1000
0100
0001
2000
,
3001
1001
0001
0010
,
1000
0010
0001
0100
,
0010
0100
0010
0000
1000
0000
0100
0000
,
0001
0100
1000
0002
,
1003
1010
0010
0100
,
0010
0001
0010
1000
,
0001
0011
0010
0100
,
0010
1000
0010
0001
,
1000
1001
0001
0100
,
1000
0100
0001
1000
,
0100
0110
0010
0001
,
1000
0020
0000
0100
,
0130
1001
0000
0000
,
0000
0000
0000
0000
,
0000
2000
0001
0100
,
3001
0000
1000
0000
0010
0000
0100
0010
,
0100
0002
1000
0010
,
1003
0001
0100
0010
,
1000
0002
1000
0100
,
1003
0000
0001
0000
0010
0000
0100
0010
,
0100
2000
0001
0010
,
3001
1001
1000
0100
,
0010
0100
1000
1000
,
0001
0001
0100
0010
,
0100
1000
0100
0100
,
0001
1000
0001
0100
,
0010
0100
0001
0001
,
1000
1000
0100
0010
,
0100
1000
2002
0000
,
0000
3003
0002
0010
,
0103
1001
2000
0010
,
3100
1001
0110
0110
,
1001
1001
0110
1001
,
1000
0010
0001
0010
,
1000
0000
0001
0000
0010
0100
0010
0000
,
0100
1000
0001
0100
,
0100
0000
0010
0000
1000
0001
1000
0000
,
0001
0010
1000
0010
,
0001
0000
1000
0000
0010
0100
0010
0000
,
0100
0001
1000
0200
,
0010
0010
0310
2002
,
0000
0000
0000
0000
3003
0000
0001
1000
,
0001
1000
0001
0011
,
0010
0100
1000
1010
,
0010
0100
0001
2001
,
0000
0100
3100
1000
,
0010
0100
0001
1002
,
0000
0100
0103
0001
,
0010
0100
1000
1001
,
0010
0100
0010
0001
,
1000
0000
0001
0000
0100
0010
0100
0000
,
0010
1000
0001
1000
,
0100
0020
0130
1001
,
0010
0100
0010
1000
,
0001
0000
1000
0000
0100
0010
0100
0000
,
1001
0110
1001
0220
,
0000
0000
0330
1001
;

//---------------dance-single - Daff_4K----------------
#NOTES:
     dance-single:
     Daff_4K:
     Medium:
     11:
     0.472540,0.544180,0.849858,0.233294,0.041660,397.000000,295.000000,102.000000,28.000000,0.000000,0.000000,0.472540,0.544180,0.849858,0.233294,0.041660,397.000000,295.000000,102.000000,28.000000,0.000000,0.000000:
// measure 0
0000
0000
0000
0000
,  // measure 1
0000
0000
0000
0000
,  // measure 2
0000
0000
0000
0000
,  // measure 3
0000
0000
0000
0000
,  // measure 4
0000
0000
0000
0000
,  // measure 5
2010
0100
0010
3001
,  // measure 6
0012
0100
0010
1003
,  // measure 7
1000
0001
1000
0001
0100
0010
1000
0000
,  // measure 8
1001
0011
1100
0011
,  // measure 9
1001
0000
1000
0010
0100
0000
0100
0001
,  // measure 10
0010
0110
1001
0110
,  // measure 11
1001
0000
0001
1000
0001
0010
0200
0000
,  // measure 12
1300
1010
0101
1010
,  // measure 13
1001
0000
0001
0010
0100
0000
0100
1000
,  // measure 14
0010
0110
1001
0110
,  // measure 15
1001
0000
1000
0001
1000
0010
0200
0000
,  // measure 16
0301
0011
1001
0101
,  // measure 17
1001
0000
1000
0010
0100
0000
0010
1000
,  // measure 18
0001
0011
0110
0011
,  // measure 19
1001
0000
1000
0010
0100
0000
0100
0001
,  // measure 20
1000
1010
1001
1100
,  // measure 21
1001
0000
0001
0010
0100
0000
0010
0001
,  // measure 22
1000
0000
0010
0100
0010
0100
0001
1000
,  // measure 23
0100
0220
0000
0000
,  // measure 24
0330
2002
0000
0000
,  // measure 25
0000
0000
0000
0000
,  // measure 26
3003
2000
0010
0001
,  // measure 27
3100
0000
1000
0001
1000
0000
0010
0100
,  // measure 28
0001
0020
0100
0001
,  // measure 29
0130
0000
0010
0001
0010
0001
1000
0010
,  // measure 30
0100
0002
0010
1000
,  // measure 31
0103
0000
0001
1000
0001
0000
0010
0100
,  // measure 32
1000
0020
0100
1000
,  // measure 33
0130
1001
1100
0011
,  // measure 34
1100
0000
0011
0000
0001
1000
0010
0000
,  // measure 35
0100
0001
0010
0000
0011
0000
1100
0000
,  // measure 36
0011
0000
1100
0000
1000
0001
0100
0000
,  // measure 37
0010
1000
0001
0000
0101
0000
1010
0000
,  // measure 38
0101
0000
1010
0000
1000
0001
0010
0000
,  // measure 39
0100
1000
0010
0000
1010
0000
0101
0000
,  // measure 40
1010
0101
2002
0000
,  // measure 41
0000
0000
0000
0000
3003
0000
0000
0000
2000
0000
0000
0100
0000
0000
0100
0000
,  // measure 42
0000
0001
0000
0000
3001
0000
1000
0000
0002
0000
0000
0100
0000
0000
0100
0000
,  // measure 43
0000
1000
0000
0000
1003
0000
0001
0000
0100
0000
0010
0000
0100
0000
0010
0000
,  // measure 44
1000
0001
1000
0000
1001
0000
0101
0000
,  // measure 45
1010
0000
1100
0000
0011
0000
0001
1000
,  // measure 46
0010
0000
0100
0001
1000
0000
1100
0000
,  // measure 47
0101
0000
0011
0000
1010
0000
1000
0100
,  // measure 48
0010
0000
0010
0001
1000
0000
1100
0000
,  // measure 49
0011
0000
0101
0000
1010
0000
1000
0001
,  // measure 50
0010
0000
0100
1000
0001
0000
0101
0000
,  // measure 51
1100
1010
0011
2001
,  // measure 52
3020
0230
0301
2002
,  // measure 53
0000
0000
0000
0000
3003
0000
0110
0110
,  // measure 54
0110
1001
0110
1001
,  // measure 55
1100
0000
1001
0000
0101
0000
0100
0010
,  // measure 56
1000
0000
0100
0010
0001
0000
0201
0000
,  // measure 57
0310
0000
0000
0100
0000
0010
0000
0000
1000
0000
0000
0000
2001
0000
0000
0000
,  // measure 58
0100
0001
3010
1200
,  // measure 59
0310
0000
0000
0100
0000
0010
0000
0000
0001
0000
0000
0000
1002
0000
0000
0000
,  // measure 60
0100
1000
0013
1100
,  // measure 61
1010
0000
0101
0000
0011
0000
0010
0100
,  // measure 62
1000
0000
0010
0100
0001
0000
0011
0000
,  // measure 63
1100
0000
1010
0000
0101
0000
0001
1000
,  // measure 64
0100
0010
0002
0000
1003
0000
0101
0000
,  // measure 65
0011
0000
1100
0000
1010
0000
0010
0100
,  // measure 66
0001
0000
0000
0000
0010
0000
0100
0000
1000
0000
0000
0000
1001
0000
0000
1001
,  // measure 67
0000
0000
0110
0000
0000
0110
0000
0000
1001
0000
0000
0000
0220
0000
0000
0000
,  // measure 68
0000
0000
0330
1001
;

//---------------dance-single - Daff_4K----------------
#NOTES:
     dance-single:
     Daff_4K:
     Hard:
     14:
     0.614183,0.658744,0.483253,0.308282,0.595734,516.000000,458.000000,58.000000,37.000000,0.000000,0.000000,0.614183,0.658744,0.483253,0.308282,0.595734,516.000000,458.000000,58.000000,37.000000,0.000000,0.000000:
// measure 0
0000
0000
0000
0000
,  // measure 1
0000
0000
0000
0000
,  // measure 2
0000
0000
0000
0000
,  // measure 3
0000
0000
0000
0000
,  // measure 4
0000
0000
0000
0000
,  // measure 5
2010
3100
0012
0103
,  // measure 6
0010
1000
0100
0001
0100
0010
0001
0100
,  // measure 7
1000
0000
0100
0000
0001
0000
1000
0000
0100
0010
0100
0010
0001
1000
0001
1000
,  // measure 8
0001
0000
2001
0000
3010
0100
0010
0001
,  // measure 9
0010
0000
1000
0000
0001
0000
0010
0100
0010
0000
0001
0000
1000
0000
0001
0000
,  // measure 10
0200
0010
0320
0000
1030
0100
0001
0100
,  // measure 11
1000
0000
0001
0000
0100
0000
0010
1000
0000
0010
1000
0000
0100
0000
0010
0000
,  // measure 12
0001
0000
1002
0000
0013
0100
0010
1000
,  // measure 13
0010
0000
0001
0000
1000
0000
0010
0100
0010
0000
1000
0000
0100
0000
0010
0100
,  // measure 14
0000
0010
0001
0000
2000
0000
0000
0000
3001
0000
0100
0000
1000
0000
0100
0000
,  // measure 15
0001
0000
1000
0000
0100
0000
0010
0001
0000
0010
0001
0000
0100
0000
0010
0000
,  // measure 16
1000
0000
0001
0000
2001
0000
0000
0000
3100
0000
0010
0001
0000
0001
1000
0000
,  // measure 17
0010
0000
0100
0000
0010
0000
0001
0000
0010
0000
1000
0100
0000
0100
0010
0000
,  // measure 18
0001
0000
1000
0000
1002
0000
0000
0000
0103
0000
0010
1000
0000
1000
0100
0000
,  // measure 19
0001
0000
0100
0000
0010
0000
0001
0000
1000
0000
0010
0100
0000
0010
0100
0000
,  // measure 20
0001
0000
1000
0000
1002
0000
0000
0000
0103
0000
0010
1000
0000
1000
0001
0000
,  // measure 21
0010
0000
0100
0000
0010
0000
1000
0000
0010
0000
0001
0100
0000
0100
0010
0000
,  // measure 22
1000
0000
0001
0000
2001
0000
0000
0000
3100
0000
0010
0001
0000
0001
0100
0000
,  // measure 23
1000
0000
0100
0000
0001
1000
0001
0000
1000
0010
1000
0000
0010
0100
0010
0100
,  // measure 24
0001
1000
2002
0000
0000
0000
0000
0000
,  // measure 25
0000
0000
0000
0000
,  // measure 26
3003
0000
0000
0000
1002
0000
0000
0000
0203
0000
0000
0310
0000
1000
0000
0010
,  // measure 27
2000
0000
0000
0000
3001
0000
0010
0100
0000
0010
0100
0000
1000
0000
0010
0000
,  // measure 28
0002
0000
0000
0000
0023
0000
0000
0000
2030
0000
0000
3100
0000
0010
0000
0100
,  // measure 29
0020
0000
0031
0100
1000
0100
0010
1000
,  // measure 30
0002
0000
0000
0000
2003
0000
0000
0000
3200
0000
0000
0310
0000
0001
0000
0010
,  // measure 31
0002
0000
0000
0000
1003
0000
0010
0100
0000
0010
0100
0000
0001
0000
0010
0000
,  // measure 32
2000
0000
0000
0000
3020
0000
0000
0000
0032
0000
0000
0103
0000
0010
0000
0100
,  // measure 33
0010
0000
0000
0000
1001
0000
0000
0000
1100
0000
0000
0000
0011
0000
0000
0001
,  // measure 34
0000
0100
0000
0010
0100
0000
0001
0000
1000
0000
0100
0010
0000
0100
0000
0010
,  // measure 35
0000
0001
1000
0000
0010
0000
0000
0000
1010
0000
0000
0000
0101
0000
0000
0001
,  // measure 36
0000
1000
0000
0001
0010
0000
0100
0000
1000
0000
0001
1000
0000
0001
0000
0010
,  // measure 37
0000
0100
1000
0000
0001
0000
0000
0000
0101
0000
0000
0000
1010
0000
0000
1000
,  // measure 38
0000
0100
0000
0010
0100
0000
1000
0000
0001
0000
0100
0010
0000
0100
0000
0010
,  // measure 39
0000
1000
0001
0000
0010
0000
0000
0000
0011
0000
0000
0000
1100
0000
0000
1000
,  // measure 40
0000
0001
0000
1000
0010
0000
0100
0010
0200
0000
0000
0000
0000
0000
0000
0000
,  // measure 41
0301
1000
0001
1000
0001
0000
0000
0000
0011
0000
0000
1001
0000
0000
1010
0000
,  // measure 42
0000
1001
0000
0000
0001
0000
1000
0000
1100
0000
0000
1001
0000
0000
0101
0000
,  // measure 43
0000
1001
0000
0000
1000
0000
0001
0000
0100
0000
0010
0000
1000
0000
0001
0000
,  // measure 44
0010
0100
0010
0100
1000
0001
1000
0001
1000
0000
0000
0000
1100
0000
0000
0000
,  // measure 45
0011
0000
0000
0001
0000
1000
0000
0001
0100
0000
0010
0000
1000
0000
0100
0000
,  // measure 46
0001
0100
0000
0010
0000
0100
0000
1000
0001
0000
0100
0000
0010
0000
0000
0000
,  // measure 47
1001
0000
0000
1000
0000
0100
0000
0010
0100
0000
1000
0000
0010
0000
0100
0000
,  // measure 48
0001
1000
0000
0001
0000
0010
0000
0100
1000
0000
0001
0000
0101
0000
0000
0000
,  // measure 49
1010
0000
0000
1000
0000
0001
0000
1000
0100
0000
0010
0000
0001
0000
0100
0000
,  // measure 50
1000
0100
0000
0010
0000
0100
0000
0001
1000
0000
0100
0000
0010
0000
0000
0000
,  // measure 51
1001
0000
0000
0001
0000
0100
0000
0010
0100
0000
0001
0000
0010
0000
0100
0000
,  // measure 52
1000
0001
0000
1000
0000
0010
0000
0100
0001
0000
1000
0000
2002
0000
0000
0000
,  // measure 53
0000
0000
0000
0000
3003
0000
0110
0110
,  // measure 54
1001
1100
0011
0101
,  // measure 55
1010
0000
0000
1000
0000
0001
0000
1000
0100
0000
0010
0000
0100
0000
0001
0000
,  // measure 56
0100
1000
0000
0001
0000
1000
0000
0001
0100
0000
0010
0000
1010
0000
0000
0000
,  // measure 57
0101
0000
0000
0001
0000
1000
0000
0100
0020
0000
0000
0000
0031
0000
1000
0000
,  // measure 58
0001
0100
0000
0010
0000
0100
0000
0010
1000
0000
0001
0000
0011
0000
0000
0000
,  // measure 59
1100
0000
0000
1000
0000
0001
0000
0100
0020
0000
0000
0000
1030
0000
0001
0000
,  // measure 60
1000
0100
0000
0010
0000
0100
0000
0010
0001
0000
1000
0000
1100
0000
0000
0000
,  // measure 61
0011
0000
0000
0001
0000
0100
0000
0010
2000
0000
0000
0000
3100
0000
0001
0000
,  // measure 62
0100
1000
0010
0100
0001
0010
0110
0000
,  // measure 63
1001
0000
0000
1000
0000
0001
0000
0010
0200
0000
0000
0000
0310
0000
0001
1000
,  // measure 64
0000
0001
1000
0000
0010
0000
0100
0000
0001
0000
0000
0000
0101
0000
0000
0000
,  // measure 65
1010
0000
0000
1000
0000
0100
0000
0010
0002
0000
0000
0000
0103
0000
1000
0000
,  // measure 66
0100
0000
0001
0000
0010
0000
0100
0000
1000
0000
0001
0000
0101
0000
0000
1010
,  // measure 67
0000
0000
1100
0000
0000
0011
0000
0000
1001
0000
0000
0000
0220
0000
0000
0000
,  // measure 68
0000
0000
0330
1001
;

//---------------dance-single - D4K IS IIZO----------------
#NOTES:
     dance-single:
     D4K IS IIZO:
     Challenge:
     16:
     0.743924,0.773309,0.649892,0.574904,0.829029,625.000000,547.000000,78.000000,69.000000,0.000000,0.000000,0.743924,0.773309,0.649892,0.574904,0.829029,625.000000,547.000000,78.000000,69.000000,0.000000,0.000000:
// measure 0
0000
0000
0000
0000
,  // measure 1
0000
0000
0000
0000
,  // measure 2
0000
0000
0000
0000
,  // measure 3
0000
0000
0000
0000
,  // measure 4
0000
0000
0000
0000
,  // measure 5
1100
0101
0011
1010
,  // measure 6
1000
0100
0001
0100
1000
0010
0001
0010
,  // measure 7
1000
0100
1000
0100
0010
0001
0010
0001
1000
0001
1000
0001
1000
0001
1000
0001
,  // measure 8
1000
0000
0000
0000
1002
0000
0000
0000
0103
0010
0100
0000
0001
1000
0001
0000
,  // measure 9
0020
0000
0230
0000
1300
0010
0100
0010
0100
0001
1000
0000
0100
0010
0100
0000
,  // measure 10
2000
0000
3001
0000
1002
0000
0000
0000
0103
0010
0100
0000
0001
1000
0001
0000
,  // measure 11
0020
0000
2030
0000
3010
0100
0010
0100
0000
1000
0001
0000
2000
0000
3020
0000
,  // measure 12
0230
0000
0301
0000
2001
0000
0000
0000
3100
0010
0100
0000
1000
0001
1000
0000
,  // measure 13
0020
0000
0230
0000
0301
0010
0100
0010
0100
1000
0001
0000
0100
0000
0010
0100
,  // measure 14
0010
1000
0001
0000
2001
0000
0000
0000
3100
0010
0100
0000
1000
0001
1000
0000
,  // measure 15
0020
0000
0032
0000
0013
0100
0010
0100
0000
0001
1000
0000
0002
0000
0023
0000
,  // measure 16
0230
0000
1300
0000
1020
0000
0000
0000
0031
0000
0010
0100
0000
0010
1000
0000
,  // measure 17
1100
0000
0010
0000
0101
0000
0010
0000
1001
0000
1000
0100
0000
0100
0001
0000
,  // measure 18
0110
0000
1000
0000
1002
0000
0000
0000
0103
0000
0010
1000
0000
1000
0001
0000
,  // measure 19
0011
0000
0100
0000
1010
0000
0100
0000
0011
0000
0001
1000
0000
0010
0100
0010
,  // measure 20
0100
0001
1000
0000
0021
0000
0000
0000
1030
0000
0010
0100
0000
0010
0001
0000
,  // measure 21
0101
0000
0010
0000
1100
0000
0010
0000
1001
0000
0001
0100
0000
0100
1000
0000
,  // measure 22
0110
0000
0001
0000
1000
0100
1000
0000
0001
0100
0001
0000
0010
0100
0010
0000
,  // measure 23
0001
0000
1000
0000
0010
0100
0010
0100
0001
1000
0001
1000
0100
0010
0100
0010
,  // measure 24
0001
1000
2002
0000
0000
0000
0000
0000
,  // measure 25
0000
0000
0000
0000
,  // measure 26
3003
0000
0000
0000
1002
0000
0000
0000
0203
0000
0000
1300
0000
0100
0000
0001
,  // measure 27
2000
0000
0000
0000
3100
0000
0010
0001
0000
1000
0001
0000
0200
0000
0320
0000
,  // measure 28
1030
0000
0000
0000
1200
0000
0000
0000
0302
0000
0000
1003
0000
0010
0000
0100
,  // measure 29
0020
0000
0032
0203
2300
3200
0302
0023
,  // measure 30
0130
0000
0000
0000
2001
0000
0000
0000
3200
0000
0000
0301
0000
0100
0000
1000
,  // measure 31
0002
0000
0000
0000
0103
0000
0010
1000
0000
0001
1000
0000
0200
0000
0320
0000
,  // measure 32
0031
0000
0000
0000
0201
0000
0000
0000
2300
0000
0000
3001
0000
0010
0000
1000
,  // measure 33
0001
0000
0000
0000
1001
0000
0000
0000
1100
0000
0000
0000
0011
0000
0000
0001
,  // measure 34
1000
0001
0000
1000
0010
0000
0100
0001
0100
0000
0001
1000
0000
0100
0000
0010
,  // measure 35
0000
0100
1000
0010
0100
0000
0000
0000
0101
0000
0000
0000
1010
0000
0000
1000
,  // measure 36
0001
1000
0000
0001
0010
0000
0100
1000
0100
0000
1000
0001
0000
0100
0000
0010
,  // measure 37
0000
0100
0001
0010
0100
0000
0010
0000
0110
0000
0000
0000
1001
0000
0000
0001
,  // measure 38
0100
0001
0000
0100
0010
0000
1000
0001
1000
0000
0001
0010
0000
0100
0000
0010
,  // measure 39
0000
0001
1000
0010
0100
0000
0000
0000
0110
0000
0000
0000
1001
0000
0000
1000
,  // measure 40
0100
1000
0000
0100
0010
0000
0001
2000
0002
0000
0000
0000
3003
0000
0000
0000
,  // measure 41
1000
0001
1000
0001
1000
0000
0000
0000
1100
0000
0000
0101
0000
0000
1100
0000
,  // measure 42
0000
1010
0000
0000
0010
0000
0100
0000
0101
0000
0000
1100
0000
0000
0101
0000
,  // measure 43
0000
0011
0000
0000
0010
0000
0100
0000
1000
0010
1000
0010
0100
0001
0100
0001
,  // measure 44
0010
0100
0010
0100
1000
0010
0100
0001
1000
0000
0000
0000
1100
0000
0010
0000
,  // measure 45
0101
0000
0010
1000
0000
0001
0000
1000
0100
0000
1000
0001
1000
0000
0010
0000
,  // measure 46
0001
0010
0000
0100
0000
0010
0000
1000
0001
0000
0010
0000
0110
0000
1000
0000
,  // measure 47
0110
0000
0001
1000
0000
0001
0000
0100
0010
0000
1000
0001
1000
0000
0100
0000
,  // measure 48
0010
0100
0000
1000
0000
0001
0000
1000
0010
0000
0100
0000
0101
0000
0010
0000
,  // measure 49
1100
0000
0010
0001
0000
1000
0000
0001
0100
0000
0001
1000
0001
0000
0010
0000
,  // measure 50
1000
0010
0000
0100
0000
0010
0000
0001
1000
0000
0010
0000
0110
0000
0001
0000
,  // measure 51
0110
0000
1000
0001
0000
1000
0000
0100
0010
0000
0001
1000
0001
0000
0100
0000
,  // measure 52
0010
0100
0000
0001
0000
1000
0000
0001
0010
0000
0100
0000
0110
0000
0000
0000
,  // measure 53
1001
0000
0000
0010
0000
0100
0000
0010
0100
0000
0000
0000
0110
0000
1001
0000
,  // measure 54
1000
0001
0000
0100
0000
0010
0000
0100
0001
0000
1000
0000
1100
0000
0010
0000
,  // measure 55
0101
0000
0010
1000
0000
0001
0000
1000
0100
0000
0010
0100
0010
0000
0001
0000
,  // measure 56
0100
0010
0000
0100
0000
1000
0000
0100
0001
0000
1000
0000
1100
0000
0000
0000
,  // measure 57
0011
0000
0000
0101
0000
0101
0000
0010
2000
0000
0000
0000
3001
0000
1000
0000
,  // measure 58
0100
0001
0000
0100
0000
1000
0000
0010
0100
0010
0100
0000
0101
0000
0000
0000
,  // measure 59
1010
0000
0000
1100
0000
1100
0000
0010
0002
0000
0000
0000
1003
0000
0001
0000
,  // measure 60
0100
1000
0000
0100
0000
0001
0000
0010
0100
0010
0001
0000
0101
0000
1000
0000
,  // measure 61
0011
0000
1000
0001
0000
0100
0000
1000
0100
0000
0001
0000
1000
0100
1000
0000
,  // measure 62
0001
0100
0001
0000
0010
0100
0010
0000
0002
0000
1003
0000
1010
0000
0001
0000
,  // measure 63
1100
0000
0001
1000
0000
0010
0000
0100
0010
0000
1000
0000
0001
1000
0001
0010
,  // measure 64
0000
0100
1000
0000
0020
0000
0230
0000
0302
0000
1003
0000
1100
0000
0001
0000
,  // measure 65
1010
0000
0001
1000
0000
0100
0000
0001
0100
0000
1000
0000
0020
0000
0230
0000
,  // measure 66
0301
0000
0010
1000
0000
0010
0100
0000
2000
0000
3001
0000
0202
0000
0303
2200
,  // measure 67
0000
3300
2020
0000
3030
0022
0000
0033
0220
0000
0330
0000
2002
0000
0000
0000
,  // measure 68
3003
0000
0000
0000
1000
0010
0001
0010
2000
0000
0000
0000
3001
0000
0000
0000
;
