#TITLE:The Lost Girls;
#SUBTITLE:;
#ARTIST:Flying Lotus;
#TITLETRANSLIT:;
#SUBTITLETRANSLIT:;
#ARTISTTRANSLIT:;
#GENRE:;
#CREDIT:Minxyz;
#MUSIC:The Lost Girls.ogg;
#BANNER:The Lost Girls BN.jpg;
#BACKGROUND:The Lost GIrls BG.jpg;
#CDTITLE:;
#SAMPLESTART:0.000;
#SAMPLELENGTH:0.000;
#SELECTABLE:YES;
#OFFSET:-0.210;
#BPMS:0.000=130.023;
#STOPS:;
#BGCHANGES:;
#FGCHANGES:;

//--------------- dance-single - Minxyz ----------------
#NOTES:
     dance-single:
     Minxyz:
     Beginner:
     8:
     0,0,0,0,0:
0000
0000
0000
0000
,
0000
0000
0000
0000
,
0000
0000
0000
0000
,
0000
0000
0000
0000
,
0000
0000
0000
0000
,
0000
0000
0000
0000
,
0000
0000
0000
0000
,
0000
0000
0000
0000
,
0010
0100
1000
0000
,
0010
0000
0000
0100
0000
0000
0001
0000
1000
0000
0010
0000
,
0100
0010
1000
0000
,
0100
0000
0000
0010
0000
0000
0001
0000
1000
0010
0000
0000
,
1000
0010
0100
0000
,
0001
0000
0000
0010
0000
0000
0100
0000
0010
0000
0001
0000
,
1000
0100
0010
0000
,
0001
0100
0010
0100
,
0001
0000
0000
0000
0010
0000
0100
0000
1000
0000
0010
0000
,
0100
0000
1000
0000
0100
0000
0001
0000
0010
0000
0100
0000
,
0010
0000
0001
0000
1000
0000
0010
0000
0000
0000
0000
0000
,
0100
0000
0000
0000
0000
0000
0001
0000
1000
0000
0010
0000
,
1000
0000
0000
0000
0100
0000
0010
0000
0001
0000
1000
0000
,
0010
0000
0001
0000
0010
0000
1000
0000
0100
0000
0000
0000
,
0010
0000
0011
0000
,
0110
0000
1100
0000
,
0010
1000
0100
0000
,
0010
0000
0000
0001
0000
0000
0100
0000
0100
0010
0000
0000
,
1000
0001
0100
0000
,
0001
0000
0000
1000
0000
0000
0010
0000
0010
0100
0000
0000
,
0001
0010
0100
0000
,
1000
0000
0000
0010
0000
0000
0100
0000
0100
0010
0000
0000
,
1000
0010
0100
0000
,
0001
0000
0000
0010
0000
0010
0100
0000
0100
1000
0000
0000
,
0001
0000
0000
0000
0000
0000
0010
0000
0100
0000
1000
0000
,
0001
0000
0100
0000
1000
0000
0100
0000
0001
0000
0010
0000
,
0100
0000
0000
0010
0000
0000
0001
0000
1000
0000
0001
0000
,
0010
0000
0000
0000
0000
0000
0100
0000
1000
0000
0100
0000
,
1000
0000
0000
0010
0000
0000
0100
0000
0010
0000
1000
0000
,
0001
0000
0010
0000
1000
0000
0010
0000
0000
0000
0001
0000
,
0100
0000
0000
0001
0000
0000
0000
0000
1000
0000
0010
0000
,
1000
0000
0000
0000
0001
0000
0100
0000
0000
0110
0000
0000
,
1001
0101
1100
1010
,
0011
0000
0000
0110
0000
0000
0010
0000
0000
0001
0000
1000
,
0100
1010
0011
0101
,
1100
0000
0000
0110
0000
0000
0100
0000
0000
1000
0000
0001
,
0010
0011
1010
1100
,
0101
0000
0000
0110
0000
0000
1100
0000
0000
1000
0000
0010
,
1000
0000
0000
0100
0000
0000
0010
0000
0001
0000
1000
0000
,
0001
0000
0100
0000
0010
0000
1000
0000
0000
0100
0000
0000
,
0010
0000
0000
0100
0000
0000
1000
0000
1000
0001
0000
0000
,
0100
0000
0000
0010
0000
0000
0100
0000
0100
0010
0000
0000
,
1000
0000
0000
0001
0000
0000
0010
0000
0010
0100
0000
0000
,
1000
0000
0000
0001
0000
0000
0100
0000
0100
0010
0000
0000
,
0100
0000
0000
0010
0000
0010
0100
0000
0000
0001
0000
0000
,
1000
0000
0000
0100
0000
0100
0010
0000
0000
0001
0000
0000
,
1000
0000
0000
0010
0000
0010
0100
0000
0000
0001
0000
0000
,
1000
0000
0100
0010
0000
0000
0001
0000
0000
1000
0000
0010
,
0100
0000
0000
0001
0000
0010
0100
0000
0000
1000
0000
0000
,
0010
0000
0000
0100
0000
0001
1000
0000
0000
0100
0000
0000
,
0010
0000
0000
0001
0000
1000
0100
0000
0000
1000
0000
0001
,
0100
0000
0000
0010
0000
0000
0100
0000
0000
0001
0000
0100
,
0010
0000
0000
1000
0000
0001
0010
0000
0000
0001
0000
1000
,
0010
0000
0000
1000
0000
1000
0100
0000
0000
0010
0000
0000
,
0011
1001
1010
0110
,
0001
0000
0001
1000
0000
1000
0010
0000
0010
0100
0000
0100
,
0010
0000
0000
0000
;

//--------------- dance-single - Minxyz ----------------
#NOTES:
     dance-single:
     Minxyz:
     Easy:
     10:
     0,0,0,0,0:
0000
0000
0000
0000
,
0000
0000
0000
0000
,
0000
0000
0000
0000
,
0000
0000
0000
0000
,
0000
0000
0000
0000
,
0000
0000
0000
0000
,
0000
0000
0000
0000
,
0000
0000
0000
0000
,
0100
0000
0000
0010
0000
0000
1000
0000
1000
0001
0000
0000
,
0010
0000
0100
0010
0000
0100
0010
0000
0000
0001
0000
0000
,
0010
0000
0000
0100
0000
0000
1000
0000
1000
0001
0000
0000
,
0100
0000
0010
0100
0000
0010
0100
0000
0000
0010
0000
0000
,
0010
0000
0000
0100
0000
0000
0001
0000
0001
1000
0000
0000
,
0100
0000
0010
0100
0000
0010
0100
0000
0000
1000
0000
0000
,
0100
0000
0000
0010
0000
0000
0001
0000
0001
1000
0000
0000
,
0010
0000
0100
0010
0000
0100
0010
0000
0000
0010
0000
0000
,
0100
0000
0000
0000
0001
0000
0010
0000
0000
0100
0000
0000
,
1000
0000
0100
0000
0001
0000
0100
0000
1000
0000
0010
0000
,
0100
0000
0001
0000
0010
0000
0100
0000
1000
0000
0000
0001
,
0010
0000
0100
0000
1000
0000
0010
0000
0000
0000
0100
0000
,
0100
0000
0000
0000
0001
0000
0010
0000
0100
0000
1000
0000
,
0100
0000
0001
0000
0100
0000
1000
0000
0020
0000
0030
0100
,
0001
0000
0010
0000
0100
0000
1000
0000
0010
0000
0000
0100
,
0010
0000
1000
0000
0001
0000
0200
0000
0000
0300
0000
0000
,
0010
0000
0000
1000
0000
0000
0001
0000
0001
0100
0000
0000
,
0001
0000
0000
0010
0000
0010
0100
0000
0000
1000
0000
0000
,
0100
0000
0000
1000
0000
0000
0010
0000
0010
0100
0000
0000
,
0001
0000
0000
0010
0000
0000
0100
0000
0100
1000
0000
0000
,
0100
0000
0000
1000
0000
0000
0001
0000
0001
0010
0000
0000
,
0001
0000
0000
0100
0000
0100
0010
0000
0000
1000
0000
0000
,
0010
0000
0000
1000
0000
0000
0100
0000
0100
0010
0000
0000
,
0001
0000
0000
0100
0000
0000
0010
0000
0010
1000
0000
0000
,
0100
0000
0000
0000
0010
0000
0001
0000
0100
0000
0010
0000
,
1000
0000
0010
0000
0001
0000
0010
0000
1000
0000
0100
0000
,
0010
0000
0000
0001
0000
0001
0010
0000
0001
0000
1000
0000
,
0100
0000
0000
0000
0000
0000
1000
0000
0001
0000
0010
0000
,
0100
0000
0100
0000
1000
0000
0010
0000
0100
0000
0001
0000
,
0100
0000
1000
0000
0100
0000
0001
0000
0010
0000
0100
0000
,
1000
0000
0000
2000
0000
0000
3000
0000
0010
0000
1000
0000
,
0100
0000
0001
0000
1000
0000
0010
0000
0001
0000
0100
0000
,
0010
0000
0000
0100
0000
0001
1000
0000
0000
0010
0000
1000
,
0001
0000
0000
0100
0000
0000
0201
0300
0000
0210
0300
0000
,
1200
0300
0000
0100
0000
0010
1000
0000
0000
0010
0000
0100
,
0001
0000
0000
0020
0030
0000
1020
0030
0000
0120
0030
0000
,
0001
1000
0000
0100
0000
0010
0100
0000
0000
0010
0000
0001
,
0100
0000
0000
0102
0003
0000
1002
0003
0000
0012
0003
0000
,
0010
0100
0000
1000
0000
0000
0001
0000
0100
0000
1000
0000
,
0001
0000
0010
0000
1000
0000
0100
0000
0000
0010
0000
0000
,
0001
0000
0000
0010
0000
0001
0100
0000
0000
1000
0000
0000
,
0100
0000
0001
1000
0000
0000
0100
0000
0010
0001
0000
1000
,
0100
0000
0000
1000
0000
0100
0010
0000
0000
0100
0000
1000
,
0010
0000
0000
0100
0000
0001
1000
0000
0000
0010
0000
0100
,
0001
0000
0000
0010
0000
0001
0100
0000
0000
1000
0000
0100
,
0010
0000
0000
1000
0000
0100
0001
0000
0000
0100
0000
0000
,
1000
0000
0000
0010
0000
0100
0001
0000
0000
0010
0000
0100
,
1000
0000
0000
0100
0000
0010
0001
0000
0000
1000
0000
0000
,
0010
0000
0010
0100
0000
0000
0001
0000
0001
1000
0000
0000
,
0100
0000
0100
0010
0000
0000
0001
0000
0001
0010
0000
0000
,
0001
1000
0001
1000
0000
0000
0100
0000
0100
1000
0000
0000
,
0010
0000
0010
0100
0000
0000
0010
0000
0010
1000
0000
0000
,
0100
0010
0100
0010
0000
0000
0001
0000
0001
0100
0000
0000
,
0010
0000
0010
0100
0000
0000
0001
0000
0001
0010
0000
0000
,
0100
0000
0100
1000
0000
0000
0100
0000
0100
0010
0000
0000
,
0001
0010
0001
0010
0000
0000
0100
0010
0100
0010
0100
0010
,
0100
0000
0000
0000
;

//--------------- dance-single - Minxyz ----------------
#NOTES:
     dance-single:
     Minxyz:
     Medium:
     12:
     0,0,0,0,0:
0000
0000
0000
0000
,
0000
0000
0000
0000
,
0000
0000
0000
0000
,
0000
0000
0000
0000
,
0000
0000
0000
0000
,
0000
0000
0000
0000
,
0000
0000
0000
0000
,
0000
0000
0000
0000
,
1000
0000
1000
0100
0000
0100
0010
0000
0010
0001
0000
0001
,
0100
0000
0100
0010
0000
0010
1000
0000
0000
1001
0000
0000
,
0001
0000
0001
0100
0000
0100
0010
0000
0010
1000
0000
1000
,
0100
0000
0100
0010
0000
0010
0001
0000
0001
0100
0000
0000
,
1000
0000
1000
0100
0000
0100
0001
0000
0001
0010
0000
0010
,
1000
0000
1000
0010
0000
0001
0010
0000
0000
0100
0000
0000
,
0001
0000
0001
0100
0000
0100
1000
0000
1000
0010
0000
0010
,
0001
0000
0001
0010
0000
0010
1000
0000
0000
1010
0000
0000
,
1002
0000
0000
0003
0100
0010
1000
0000
0100
0000
0010
0000
,
0001
0000
1000
0000
0000
0010
1000
0000
0010
0000
0100
0000
,
0001
0000
0010
0000
0100
1000
0100
0000
0010
0000
0001
0100
,
0001
0000
0100
0000
0010
1000
0010
0000
0100
0000
0001
0010
,
0001
0000
0000
0000
1000
0000
0010
0000
0100
0000
0001
0000
,
0010
0000
0100
0000
1000
0000
0001
0000
0100
0000
0010
0100
,
0010
0000
1000
0000
0100
0010
0100
0000
1000
0000
0001
1000
,
0001
0000
0010
0000
0001
0100
0010
0000
0000
0110
0000
0000
,
0101
0000
0000
1001
0000
0000
0011
0000
0010
0100
0000
0000
,
1100
0000
0000
1001
0000
0000
1010
0000
0010
0100
0000
0000
,
0001
1000
0000
1010
0000
0000
1000
0000
0100
0010
0000
0000
,
0011
0000
0000
1001
0000
0000
0101
0000
0100
0010
0000
0000
,
1010
0000
0000
1001
0000
0000
1100
0000
0100
0010
0000
0000
,
0011
0000
0000
1001
0000
0000
0101
0000
0100
0010
0000
0000
,
1000
0001
0000
0101
0000
0000
0001
0000
0010
0100
0000
0000
,
1100
0000
0000
1001
0000
0000
1010
0000
0010
0100
0010
1000
,
0001
0000
0000
0010
0100
0010
0100
0000
1000
0000
0010
0000
,
0100
0000
0010
0000
0100
0000
0001
0000
1000
0000
0001
0000
,
0101
0000
0000
0110
0000
0010
1000
0000
0100
0000
0010
0000
,
0001
0000
0000
0000
0000
0000
0010
0000
0001
0000
1000
0000
,
0100
0000
0010
0000
0100
1000
0100
0000
0010
0000
0100
0000
,
0010
0000
0001
0000
0100
0000
0010
0000
0000
0000
0100
0001
,
0100
0000
0000
0110
0000
0000
0000
0000
1000
0000
0100
0000
,
0001
0000
1000
0000
0010
0000
0001
0000
1000
0000
0010
0000
,
0100
0000
0000
0001
0000
1000
0100
0000
0000
1000
0000
0001
,
0010
0000
0000
0001
0000
1000
0010
0000
1000
0100
0010
0001
,
0100
0010
1000
0001
0000
0100
0010
0000
0000
0100
0000
0001
,
1000
0000
0000
0100
0000
1000
0001
0010
0100
1000
0010
0100
,
0001
0000
0000
1000
0000
0001
0010
0000
0000
0001
0000
1000
,
0100
0000
0000
1000
0000
0001
0100
0000
0001
0010
0100
1000
,
0100
0000
0000
0010
0000
0001
0100
0000
0010
0000
0100
0000
,
1000
0000
0100
0000
0001
0000
0010
0000
0000
0100
0000
0000
,
0010
0000
0010
0001
0000
0000
1000
0000
1000
0010
0000
0000
,
1000
0100
1000
0100
0000
0000
0010
0001
0010
0001
0000
0000
,
1000
0000
1000
0010
0000
0000
0100
0000
0100
0001
0000
0000
,
0010
0000
0010
0100
0000
0000
1000
0010
1000
0010
0000
0000
,
0100
0001
0100
0001
0000
1000
0100
0000
0000
1000
0000
0010
,
0100
0000
0000
0010
0000
0100
0001
0000
0000
0010
0000
0100
,
1000
0000
0000
0010
0000
1000
0001
0000
0000
0100
0000
0001
,
0010
0000
0000
0100
0000
1000
0001
0000
0000
0010
0000
0001
,
0100
0010
0100
0010
0000
0000
0100
0001
0100
0001
0000
0000
,
1000
0100
1000
0100
0000
0000
0010
0100
0010
0100
0000
0000
,
1000
0100
0010
0001
0010
0100
1000
0010
0100
0001
0100
0010
,
1000
0000
0010
0100
0000
0000
0010
1000
0010
1000
0000
0000
,
0001
0010
0100
1000
0100
0010
0001
0100
0010
1000
0010
0100
,
0001
0000
0000
0010
0000
0001
0100
0000
0000
0010
0000
1000
,
0100
0000
0000
1000
0000
0100
0010
0000
0000
0001
0000
0100
,
0001
0100
0010
0100
1000
0100
0001
0010
0100
0010
1000
0010
,
0001
0000
0000
0000
;

//--------------- dance-single - Minxyz ----------------
#NOTES:
     dance-single:
     Minxyz:
     Hard:
     14:
     0,0,0,0,0:
0000
0000
0000
0000
,
0000
0000
0000
0000
,
0000
0000
0000
0000
,
0000
0000
0000
0000
,
0000
0000
0000
0000
,
0000
0000
0000
0000
,
0000
0000
0000
0000
,
0000
0000
0000
0000
,
0010
0000
1000
0100
0000
0010
0001
0000
1000
0010
0000
0100
,
0010
0000
1000
0100
0000
0000
1000
0000
0010
0000
0010
0000
,
0001
0010
0100
0001
0000
0010
0100
0000
1000
0010
0000
0100
,
0001
0000
1000
0100
0000
0010
0100
0000
1000
0010
0000
0010
,
0100
0000
0001
0010
0000
0100
1000
0000
0001
0100
0000
0010
,
0100
0000
0001
0010
0000
0100
1000
0000
0100
0000
0100
0000
,
0001
0100
0010
0001
0000
0100
0010
0000
1000
0100
0000
0010
,
0001
0000
0001
0010
0000
0100
0010
0000
0001
0100
0001
0010
,
0200
0000
0000
0300
1000
0001
0000
0100
0000
0100
0000
0100
,
0010
0000
1000
0000
0100
0000
0001
0000
1000
0000
0000
0010
,
0001
0000
0100
0000
1000
0000
0110
0000
0001
0000
0000
0000
,
0101
0000
0000
1000
0010
0100
0101
0000
0000
0000
0010
0100
,
1000
0000
0001
0000
1000
0001
0010
0000
0100
0000
0000
0001
,
0100
0000
1000
0000
0010
0000
0100
0000
0001
0000
0000
1000
,
0100
0000
0010
0000
0001
0100
0010
0000
1000
0000
0001
0010
,
0100
0000
1000
0000
0000
0000
1010
0000
0000
0000
1000
0010
,
0100
0000
0100
0001
0000
0001
0010
0000
0010
0100
0000
0100
,
1000
0000
0001
0010
0000
0010
1000
0000
0000
0010
0000
0001
,
1000
0100
0000
0010
0000
0010
0001
0000
0001
1000
0000
1000
,
0100
0000
0100
0001
0000
0001
0100
0000
1000
0010
0000
0001
,
0010
0000
1000
0001
0000
0100
0001
0000
1000
0100
0000
0010
,
0001
0000
1000
0010
0000
0100
0001
0000
0100
0001
0000
0010
,
0001
1000
0001
0100
0000
0010
1000
0000
0001
0100
0000
0010
,
1000
0000
0010
0100
0000
0001
1000
0000
1000
0010
0100
0010
,
0200
0000
0000
0301
1000
0001
0000
0100
0000
0100
0000
0100
,
0010
0000
1000
0000
0100
0010
0001
1000
0100
0001
0100
1000
,
0010
0000
0000
1000
0000
1000
0100
0000
0001
0000
1000
0000
,
0010
0000
0001
0000
0000
0000
1000
0010
1000
0010
0100
0010
,
0100
0001
1000
0100
0010
0000
1000
0000
0010
0000
0001
0000
,
0010
0000
1000
0000
0010
0000
0001
1000
0100
0001
0100
1000
,
0010
0000
0000
1001
0000
0000
1010
0000
2000
3000
0200
0300
,
0002
0003
2000
3000
0020
0030
0002
0003
1000
0001
0100
0010
,
1000
0000
1000
0010
0000
0010
0100
0000
0000
0101
0000
0100
,
0001
0000
0000
0011
0000
0010
0100
0000
0010
0001
1000
0010
,
0100
0001
0100
0001
0000
0001
1000
0000
0000
1100
0000
0100
,
0010
0000
0000
0011
0000
0001
1000
0010
0100
0010
1000
0100
,
0010
0001
0100
0010
0000
0010
1000
0000
0000
1100
0000
0100
,
0010
0000
0000
0011
0000
0000
1000
0001
0010
1000
0001
0010
,
0001
1000
0100
1000
0000
1000
0100
0000
0002
0003
0200
0300
,
2000
0000
3000
0000
0002
0000
0003
0000
0020
0000
0030
0000
0002
0000
0000
0000
0000
0000
2000
0000
0000
3003
0000
0000
,
1010
0000
0000
0000
0010
0000
0100
0000
0000
0000
0001
0000
0010
0000
0000
0000
0001
0000
0200
0300
0000
0000
0000
0000
,
0010
0000
1000
0000
0010
0000
1000
0000
0010
0000
1000
0000
0002
0003
0100
0000
0001
0000
0100
0000
0001
0000
0100
0000
,
0002
0003
0000
0000
0010
0000
0001
0000
0000
0000
0100
0000
0001
0000
0000
0000
1000
0000
0020
0030
0000
0000
1000
0000
,
0100
0000
0000
0000
2000
3000
0010
0000
0000
0000
0100
0000
0001
0000
0010
0000
0001
0000
0010
0000
0001
0000
0010
0000
,
0200
0300
1000
0000
0100
0000
1000
0000
0100
0000
1000
0000
0100
0000
0010
0000
0001
0000
2000
3000
0010
0000
0100
0000
,
0001
0000
0000
0000
0010
0000
1000
0000
0000
0000
0010
0000
0002
0003
0000
0000
1000
0000
0100
0000
0000
0000
0001
0000
,
0200
0300
1000
0000
0000
0000
0010
0000
0100
0000
0001
0000
1000
0000
0000
0000
1000
0000
0020
0030
0100
0000
0010
0000
,
0100
0000
0000
0000
0002
0003
0010
0000
0100
0000
0010
0000
0200
0300
0000
0000
0100
0000
1000
0000
0000
0000
0001
0000
,
0100
0001
0100
0001
0100
0001
1000
0010
1000
0010
1000
0010
,
1000
0100
1000
0100
1000
0100
0010
0001
0010
0001
0010
0001
,
1000
0010
0100
0010
0001
0010
1000
0100
0010
0100
0001
0100
,
1000
0010
0100
0010
0100
0010
0100
0001
0100
0001
0100
0001
,
1001
0100
0010
0100
0001
0100
1000
0010
0100
0010
0001
0010
,
1000
0100
0001
0100
1000
0001
0100
1000
0100
0001
1000
0010
,
1000
0010
0001
0010
1000
0001
0010
1000
0010
0001
0010
0100
,
1000
0100
0001
0100
1000
0010
0001
0010
1000
0100
0010
0100
,
0220
0000
0000
0000
0000
0330
0000
0000
;

//--------------- dance-double - Minxyz ----------------
#NOTES:
     dance-double:
     Minxyz:
     Medium:
     13:
     0,0,0,0,0:
00000000
00000000
00000000
00000000
,
00000000
00000000
00000000
00000000
,
00000000
00000000
00000000
00000000
,
00000000
00000000
00000000
00000000
,
00000000
00000000
00000000
00000000
,
00000000
00000000
00000000
00000000
,
00000000
00000000
00000000
00000000
,
00000000
00000000
00000000
00000000
,
10000000
00000000
10000000
01000000
00000000
01000000
00100000
00000000
00100000
00001000
00000000
00001000
,
00010000
00000000
00010000
00000100
00000000
00000100
00000010
00000000
00000000
00000011
00000000
00000000
,
00001000
00000000
00001000
00000010
00000000
00000010
00000100
00000000
00000100
00001000
00000000
00001000
,
00010000
00000000
00010000
00100000
00000000
00100000
01000000
00000000
01000000
00010000
00000000
00000000
,
10000000
00000000
10000000
00100000
00000000
00100000
01000000
00000000
01000000
00001000
00000000
00001000
,
00010000
00000000
00010000
00000010
00000000
00000010
00000100
00000000
00000000
00000101
00000000
00000000
,
00001000
00000000
00001000
00000100
00000000
00000100
00000010
00000000
00000010
00001000
00000000
00001000
,
00010000
00000000
00010000
01000000
00000000
01000000
00100000
00000000
00100000
00010000
00000000
00000000
,
10020000
00000000
00000000
00030000
01000000
00100000
10000000
00000000
01000000
00000000
00100000
00000000
,
00001000
00000000
00010000
00000000
00000000
00000100
00001000
00000000
00000010
00000000
00010000
00000000
,
00010000
00000000
00001000
00000000
00000100
00000001
00000100
00000000
00000010
00000000
00010000
00001000
,
00010000
00000000
01000000
00000000
10000000
00100000
10000000
00000000
00100000
00000000
00010000
00001000
,
00010000
00000000
00000000
00000000
00000001
00000000
00000100
00000000
00000010
00000000
00001000
00000000
,
00000100
00000000
00000010
00000000
00000001
00000000
00001000
00000000
00000010
00000000
00010000
00001000
,
00010000
00000000
01000000
00000000
00100000
00010000
00100000
00000000
01000000
00000000
00100000
10000000
,
00100000
00000000
00010000
00000000
01000000
00100000
00010000
00000000
00000000
00001000
00000000
00000000
,
00011000
00000000
00000000
00010100
00000000
00000000
00001100
00000000
00000100
00000010
00000000
00000000
,
00000011
00000000
00000000
00001001
00000000
00000000
00000101
00000000
00000100
00000010
00000000
00000000
,
00010000
00100000
00000000
10100000
00000000
00000000
10000000
00000000
01000000
00100000
00000000
00000000
,
00110000
00000000
00000000
10010000
00000000
00000000
01010000
00000000
01000000
00100000
00000000
00000000
,
00011000
00000000
00000000
00101000
00000000
00000000
00110000
00000000
00100000
01000000
00000000
00000000
,
11000000
00000000
00000000
10010000
00000000
00000000
10100000
00000000
00100000
01000000
00000000
00000000
,
00001000
00000100
00000000
00000101
00000000
00000000
00000001
00000000
00000010
00000100
00000000
00000000
,
00001100
00000000
00000000
00001001
00000000
00000000
00001010
00000000
00000010
00000100
00001000
00010000
,
00100000
00000000
00000000
00100000
01000000
00100000
01000000
00000000
00010000
00000000
00100000
00000000
,
01000000
00000000
00100000
00000000
01000000
00000000
00010000
00000000
00001000
00000000
00010000
00000000
,
00010100
00000000
00000000
00000110
00000000
00000010
00000001
00000000
00000010
00000000
00000100
00000000
,
00001000
00000000
00000000
00000000
00000000
00000000
00000010
00000000
00010000
00000000
01000000
00000000
,
00100000
00000000
00100000
00000000
01000000
10000000
01000000
00000000
00100000
00000000
01000000
00000000
,
00100000
00000000
00010000
00000000
01000000
00000000
00100000
00000000
00000000
00000000
00010000
00001000
,
00010000
00000000
00000000
00011000
00000000
00000000
00000000
00000000
00010000
00000000
00001000
00000000
,
00000100
00000000
00010000
00000000
00001000
00000000
00000010
00000000
00000100
00000000
00000001
00000000
,
00000010
00000000
00000000
00000100
00000000
00010000
00001000
00000000
00000000
00100000
00000000
00010000
,
10000000
00000000
00000000
00010000
00000000
10000000
00100000
00000000
10000000
01000000
00100000
00010000
,
00100000
00001000
00010000
00001000
00000000
01000000
00010000
00000000
00000000
01000000
00000000
00010000
,
10000000
00000000
00000000
01000000
00000000
00010000
00001000
00010000
00000100
00000010
00000001
00001000
,
00000100
00000000
00000000
00000010
00000000
00000001
00000100
00000000
00000000
00001000
00000000
00100000
,
00010000
00000000
00000000
01000000
00000000
00001000
00010000
00000000
00100000
01000000
10000000
01000000
,
00100000
00000000
00000000
10100000
00000000
10000000
01000000
00000000
00100000
00000000
01000000
00000000
,
10000000
00000000
01000000
00000000
00010000
00000000
00001000
00000000
00000000
00000100
00000000
00000000
,
00000001
00000000
00000001
00000010
00000000
00000000
00001000
00000000
00001000
00010000
00000000
00000000
,
01000000
10000000
01000000
10000000
00000000
00000000
00100000
00010000
00100000
00010000
00000000
00000000
,
10000000
00000000
10000000
00100000
00000000
00000000
00010000
00000000
00010000
00001000
00000000
00000000
,
00000010
00000000
00000100
00001000
00000000
00000000
00000001
00000010
00000001
00000010
00000000
00000000
,
00000100
00001000
00000100
00001000
00000000
00010000
00100000
00000000
00000000
01000000
00000000
01000000
,
10000000
00000000
00000000
00100000
00000000
01000000
00010000
00000000
00000000
00100000
00000000
01000000
,
10000000
00000000
00000000
00100000
00000000
00010000
00001000
00000000
00000000
00010000
00000000
00000100
,
00001000
00000000
00000000
00000100
00000000
00000010
00000001
00000000
00000000
00001000
00000000
00000010
,
00010000
00001000
00010000
00001000
00000000
00000000
00100000
00010000
00100000
00010000
00000000
00000000
,
10000000
01000000
10000000
01000000
00000000
00000000
00100000
01000000
00100000
01000000
00000000
00000000
,
10000000
01000000
00100000
00010000
00000000
00000000
00001000
00000100
00000010
00000001
00000010
00000100
,
00001000
00000000
01000000
00100000
00000000
00000000
00001000
00010000
00001000
00010000
00000000
00000000
,
00001000
00000100
00000010
00000001
00000010
00000100
00001000
00100000
01000000
10000000
00100000
01000000
,
00010000
00000000
00000000
00100000
00000000
00010000
01000000
00000000
00000000
00001000
00000000
00010000
,
00000100
00000000
00000000
00010000
00000000
00000010
00001000
00000000
00000000
00000001
00000000
00000010
,
00000100
00010000
00001000
00100000
00010000
10000000
01000000
00010000
00001000
00010000
00001000
00010000
,
00011000
00000000
00000000
00000000
;

//--------------- dance-double - Minxyz ----------------
#NOTES:
     dance-double:
     Minxyz:
     Hard:
     15:
     0,0,0,0,0:
00000000
00000000
00000000
00000000
,
00000000
00000000
00000000
00000000
,
00000000
00000000
00000000
00000000
,
00000000
00000000
00000000
00000000
,
00000000
00000000
00000000
00000000
,
00000000
00000000
00000000
00000000
,
00000000
00000000
00000000
00000000
,
00000000
00000000
00000000
00000000
,
00100000
00000000
00001000
00010000
00000000
00000100
00001000
00000000
00000001
00000010
00000000
00000001
,
00000100
00000000
00001000
00010000
00000000
00100000
10000000
00000000
01000000
00000000
00010000
00000000
,
00000100
00000010
00000001
00000100
00000000
00001000
00010000
00000000
00100000
10000000
00000000
01000000
,
10000000
00000000
00100000
01000000
00000000
00001000
00010000
00000000
00000010
00001000
00000000
00000001
,
00000100
00000000
00001000
00010000
00000000
00100000
10000000
00000000
10000000
00100000
00000000
10000000
,
01000000
00000000
00010000
00001000
00000000
00000010
00000001
00000000
00000100
00000000
00001000
00000000
,
00100000
00010000
01000000
00100000
00000000
00010000
00001000
00000000
00000010
00000001
00000000
00000100
,
00000001
00000000
00000010
00000100
00000000
00010000
00001000
00000000
00100000
00001000
00010000
00001000
,
00020000
00000000
00000000
00030000
00000100
00001000
00000000
00000010
00000000
00000100
00000000
00001000
,
00010000
00000000
00100000
00000000
00100000
00000000
00100000
00000000
10000000
00000000
00000000
10000000
,
01000000
00000000
00100000
00000000
00010000
00000000
01010000
00000000
00001000
00000000
00000000
00000000
,
00110000
00000000
00000000
00010000
00100000
01000000
10000000
00000000
00000000
00000000
00100000
01000000
,
00020000
00000000
10030000
00000000
01000000
00010000
00001000
00000000
00000100
00000000
00000000
00000010
,
00000100
00000000
00000100
00000000
00000100
00000000
00001000
00000000
00020000
00000000
00030000
00001000
,
00010000
00000000
00100000
00000000
00010000
00001000
00000100
00000000
00000010
00000000
00001000
00000100
,
00000010
00000000
00000001
00000000
00000000
00000000
00001001
00000000
00000000
00000000
00001000
00000010
,
00010000
00000000
00010000
00001000
00000000
00001000
01000000
00000000
01000000
00100000
00000000
00100000
,
10000000
00000000
10000000
01000000
00000000
01000000
00100000
00000000
00000000
00110000
00000000
00001000
,
00010000
00000100
00000000
00001000
00000000
00001000
00000010
00000000
00000010
00000100
00000000
00000100
,
00000001
00000000
00000001
00000010
00000000
00000010
00001000
00000000
00001000
00010000
00000000
00100000
,
00001000
00000000
00001000
00000010
00000000
00000010
00000100
00000000
00000100
00000001
00000000
00000001
,
00000010
00000000
00000010
00000100
00000000
00000100
00001000
00000000
00001000
00000010
00000000
00000010
,
00010000
00001000
00010000
00001000
00000000
00001000
00100000
00000000
00100000
01000000
00000000
01000000
,
10000000
00000000
10000000
00100000
00000000
00100000
01000000
00000000
00100000
01000000
00001000
00010000
,
00002000
00000000
00003000
00100000
00010000
00001000
00000000
00000010
00000000
00000001
00000000
00000010
,
00001000
00000000
00000100
00000000
00000010
00000001
00000100
00001000
00010000
00100000
00010000
00001000
,
00000100
00000000
00000000
00001000
00000000
00100000
00010000
00000000
10000000
00000000
10000000
00000000
,
10000000
00000000
10000000
00000000
00000000
00000000
10000000
01000000
00100000
01000000
00010000
00001000
,
00010000
00001000
00010000
00001000
00100000
00001000
00010000
00000000
01000000
00000000
10000000
00000000
,
00100000
00000000
01000000
00000000
00100000
00000000
10000000
01000000
00010000
00001000
00000010
00001000
,
00010000
00000000
00000000
00101000
00000000
00000000
00011000
00000000
00020000
00030000
02000000
03000000
,
20000000
30000000
02000000
03000000
00020000
00030000
00002000
00003000
00000100
00000010
00000100
00000010
,
00000100
00000000
00000100
00001000
00000000
00001000
00100000
00000000
00000000
00110000
00000000
00010000
,
10000000
00000000
00000000
11000000
00000000
10000000
01000000
00000000
01000000
00100000
00010000
01000000
,
00100000
10000000
01000000
00100000
00000000
00001000
00010000
00000000
00000000
00010100
00000000
00000100
,
00000010
00000000
00000000
00000011
00000000
00000001
00000010
00000001
00000100
00001000
00000100
00000010
,
00010000
00001000
00010000
00001000
00000000
00001000
00000100
00000000
00000000
00000110
00000000
00000010
,
00001000
00000000
00000000
00001001
00000000
00000000
00001000
00000100
00000010
00000100
00000010
00000001
,
00000100
00000010
00001000
00000010
00000000
00010000
00001000
00000000
00020000
00030000
00002000
00003000
,
00000200
00000300
00000002
00000003
00000200
00000300
00002000
00003000
00000000
00020000
00000000
00030000
,
00001000
00000000
00000000
00000000
00100000
00000000
00010000
00000000
00000000
00000000
01000000
00000000
00100000
00000000
00000000
00000000
10000000
00000000
00020000
00030000
00000000
00000000
00000000
00000000
,
10000000
00000000
01000000
00000000
10000000
00000000
01000000
00000000
10000000
00000000
01000000
00000000
00200000
00300000
00010000
00000000
00100000
00000000
00010000
00000000
00100000
00000000
00010000
00000000
,
00200000
00300000
00000000
00000000
00001000
00000000
00010000
00000000
00000000
00000000
00000100
00000000
00001000
00000000
00000000
00000000
00000100
00000000
00000020
00000030
00000000
00000000
00000001
00000000
,
00001000
00000000
00000000
00000000
00000020
00000030
00001000
00000000
00000000
00000000
00000100
00000000
00000010
00000000
00000001
00000000
00000010
00000000
00000001
00000000
00000010
00000000
00000001
00000000
,
00002000
00003000
00000100
00000000
00001000
00000000
00000100
00000000
00001000
00000000
00000100
00000000
00001000
00000000
00000100
00000000
00000001
00000000
00000200
00000300
00001000
00000000
00000010
00000000
,
00000001
00000000
00000000
00000000
00000001
00000000
00001000
00000000
00000000
00000000
00001000
00000000
00020000
00030000
00000000
00000000
00010000
00000000
00100000
00000000
00000000
00000000
10000000
00000000
,
02000000
03000000
10000000
00000000
00000000
00000000
10000000
00000000
01000000
00000000
00100000
00000000
00010000
00000000
00000000
00000000
00010000
00000000
00002000
00003000
00000010
00000000
00000100
00000000
,
00000001
00000000
00000000
00000000
00000020
00000030
00000100
00000000
00010000
00000000
00000010
00000000
00002000
00003000
00000000
00000000
00000010
00000000
00010000
00000000
00000000
00000000
00001000
00000000
,
00100000
00010000
00100000
00010000
00100000
00010000
10000000
01000000
10000000
01000000
10000000
01000000
,
10000000
00100000
10000000
00100000
10000000
00100000
01000000
00010000
01000000
00010000
01000000
00010000
,
10000000
01000000
00100000
00010000
00001000
00000100
00000010
00000001
00000010
00000001
00000010
00000001
,
00000010
00000100
00000010
00000100
00000010
00000100
00001000
00000010
00001000
00000010
00001000
00000001
,
00001001
00000100
00000010
00001000
00010000
00100000
01000000
10000000
01000000
10000000
01000000
10000000
,
01000000
00010000
00001000
00000010
00001000
00010000
01000000
10000000
00100000
00010000
00001000
00000100
,
00001000
00010000
00001000
00010000
00001000
00100000
00010000
10000000
01000000
00100000
00001000
00010000
,
00000100
00001000
00000010
00000100
00000010
00000001
00001000
00000100
00000010
00001000
00010000
01000000
,
10000000
00000000
00000000
00000000
;
