#VERSION:0.83;
#TITLE:天ぷらイントロドン!!;
#SUBTITLE:;
#ARTIST:山本真央樹 feat.すわひでお;
#TITLETRANSLIT:Tempura introdon!!;
#SUBTITLETRANSLIT:;
#ARTISTTRANSLIT:Maoki Yamamoto feat. Hideo Suwa;
#GENRE:;
#CREDIT:chronon;
#MUSIC:Tempura introdon!!.ogg;
#BANNER:Tempura introdon!!.png;
#BACKGROUND:Tempura introdon!!-bg.png;
#CDTITLE:;
#SAMPLESTART:72.850;
#SAMPLELENGTH:18.667;
#SELECTABLE:YES;
#OFFSET:0.483;
#BPMS:0.000=180.000;
#STOPS:;
#BGCHANGES:;
#FGCHANGES:;

//--------------- dance-single - chronon ----------------
#NOTEDATA:;
#STEPSTYPE:dance-single;
#DESCRIPTION:chronon;
#DIFFICULTY:Beginner;
#METER:3;
#RADARVALUES:0,0,0,0,0;
#NOTES:
0000
0000
0000
0000
,
0000
0000
0000
0000
,
0000
0000
0000
0000
,
0000
0000
0000
0000
,
1001
0000
0000
0000
,
0000
0000
0000
0000
0000
0000
0000
0000
0M00
00M0
0000
0000
0000
0000
0000
0000
,
1001
0000
0000
0000
,
0000
0000
0000
0000
0000
0000
0000
0000
0M00
00M0
0000
0000
0000
0000
0000
0000
,
1001
0000
0000
0000
0000
0000
0000
0000
0000
0000
0000
0000
0M00
00M0
0000
0000
,
0000
0000
0001
0000
,
1000
0000
0001
0000
,
0000
2002
0000
0000
,
0000
0000
3003
0000
,
0000
0000
1000
0000
,
0100
0000
1000
0000
,
0000
0000
0001
0000
,
0100
0000
0001
0000
,
0000
0000
1000
0000
,
0010
0000
1000
0000
,
0000
0000
0001
0000
,
1000
0000
0001
0000
,
0000
0000
0001
0000
,
0010
0000
0001
0000
,
0000
0000
1000
0000
,
0010
0000
1000
0000
,
0000
0000
0001
0000
,
0100
0000
0001
0000
,
0000
0000
1000
0000
,
0001
0000
1000
0000
,
0000
0000
0000
0000
,
0000
0000
0000
0000
,
0000
0000
0000
0000
,
0000
0000
0000
0000
,
0000
0000
0000
0000
,
0000
0000
0000
0000
,
0000
0000
0000
0000
,
0000
0000
0000
0000
,
0000
0000
0001
0000
,
1000
0000
1000
0000
,
0000
0000
0001
0000
,
0010
0000
0010
0000
,
0000
0000
0001
0000
,
0010
0000
0100
0000
,
0000
0000
0010
0000
,
0100
0000
1000
0000
,
0000
0000
1000
1000
,
0000
0001
0001
0000
,
1001
0000
0000
0000
,
0000
0000
0000
0000
0000
0000
0000
0000
0000
0000
00M0
0000
,
0M00
0000
0001
0000
,
0001
0000
0001
0000
,
0000
0000
1000
0000
,
1000
0000
1000
0000
,
2002
0000
0000
0000
,
0000
0000
3003
0000
,
0001
0000
0010
0000
,
0100
0100
0100
0000
,
1000
0000
0001
0000
,
1000
0000
0000
0000
,
1000
0000
0010
0000
,
0100
0100
0100
0000
,
0001
0000
1000
0000
,
0001
0000
0000
0000
,
0010
0010
0010
0000
,
0100
0000
1000
0000
,
0100
0100
0100
0000
,
1000
0000
0001
0000
,
1001
0000
0000
0000
,
0000
0000
0000
0000
,
1000
0000
0010
0000
,
1000
0000
0000
0000
,
0001
0000
0100
0000
,
0001
0000
0000
0000
,
1000
0000
0100
0000
,
1000
0000
0000
0000
,
0001
0000
0010
0000
,
0001
0000
1000
0000
,
0001
0001
0000
1000
,
1000
0000
0001
0001
,
0000
1000
1000
0000
,
1001
0000
0MM0
0000
,
0000
0000
0000
0000
0000
0000
0000
0000
0M00
00M0
0000
0000
0000
0000
0000
0000
,
1001
0000
0000
0000
0000
0000
0000
0000
0000
0000
0000
0MM0
0000
0000
0000
0000
,
0000
0000
0000
0000
0000
0000
0000
0000
0M00
00M0
0000
0000
0000
0000
0000
0000
,
1001
0MM0
0000
0000
,
0M00
00M0
0000
0000
0000
0000
0000
0000
1000
0000
0000
0000
0000
0000
0000
0000
,
0001
0000
1000
0000
,
0000
2002
0000
0000
,
0000
0000
3003
0000
,
0000
0000
0001
0001
,
0000
1000
1000
0000
,
0000
0000
0000
0000
0000
0000
0000
0000
0000
0000
0000
00M0
0M00
00M0
0M00
00M0
,
0M00
00M0
0M00
00M0
0M00
00M0
0M00
00M0
0M00
00M0
0M00
00M0
0M00
0000
0000
0000
,
0000
0000
0000
0000
,
0000
0000
0000
0000
,
1001
0000
0000
0000
;

//--------------- dance-single - chronon ----------------
#NOTEDATA:;
#STEPSTYPE:dance-single;
#DESCRIPTION:chronon;
#DIFFICULTY:Easy;
#METER:7;
#RADARVALUES:0,0,0,0,0;
#NOTES:
0000
0000
0000
0000
,
0000
0000
0000
0000
,
0000
0000
0000
0000
,
0000
0000
0000
0000
,
1001
0000
0000
0000
,
0000
0000
0000
0000
0000
0000
0000
0000
0M00
00M0
0000
0000
0000
0000
0000
0000
,
1001
0000
0000
0000
,
0000
0000
0000
0000
0000
0000
0000
0000
0M00
00M0
0000
0000
0000
0000
0000
0000
,
1001
0000
0000
0000
0000
0000
0000
0000
0000
0000
0000
0000
0M00
00M0
0000
0000
,
0000
0000
0001
0000
,
0100
0000
0000
0010
0000
0000
1000
0000
,
0001
2002
0000
0000
,
0000
0000
3003
0000
,
0000
0000
1000
0100
,
0000
0100
0000
0010
0000
0000
0010
0000
,
0001
1000
0001
0100
,
0000
0100
0000
0010
0000
0000
0010
0000
,
1000
0001
1000
0100
,
0000
0100
0000
0010
0000
0000
0010
0000
,
0001
1000
0001
0000
,
0100
0000
0010
0010
,
0010
0000
1000
0010
,
0000
0010
0000
0100
0000
0000
0100
0000
,
0001
1000
0200
0000
,
0000
0300
0100
0010
,
0001
1000
0020
0000
,
0000
0030
0010
0100
,
0001
1000
0200
0000
,
0000
0300
0010
0010
,
0010
0001
1000
0000
,
0000
0000
0000
0000
,
0000
0000
0000
0000
,
0000
0000
0000
0000
,
0000
0000
0000
0000
,
0000
0000
0000
0000
,
0000
0000
0000
0000
,
0000
0000
0000
0000
,
0000
0000
0001
0000
,
1000
0000
0100
0000
,
0010
0000
0001
0000
,
1000
0000
0010
0000
,
0100
0000
0001
0100
,
0001
0100
0010
1000
,
0010
1000
0001
1000
,
0001
1000
0100
0100
,
0100
0100
1000
0100
,
0020
0000
0031
0000
0100
0000
0020
0030
,
1001
0000
0000
0000
,
0000
0000
0000
0000
0000
0000
0000
0000
0000
0000
00M0
0000
,
0M00
0000
0000
0000
0000
1000
0000
0000
,
0000
0010
0000
0000
0100
0000
0001
0000
,
0000
0000
0000
0000
0000
0001
0000
0000
,
0000
0010
0000
0000
0100
0000
1000
0000
,
2002
0000
0000
0000
,
0000
0000
3003
0000
,
0001
1000
0001
0100
,
0010
0010
0010
0000
,
1000
0001
1000
0100
,
0010
0010
0010
0000
,
0001
0010
0100
0000
,
1000
0100
0010
0000
,
0001
0100
0010
0000
,
1000
0010
0100
0000
,
0001
0100
0001
0100
,
0001
1000
0001
0000
,
1000
0100
1000
0100
,
1000
0001
1000
0000
,
1001
0000
1000
0010
,
0100
0001
1000
0000
,
0001
0000
0010
0100
0000
0000
0010
0100
,
0000
1000
0001
1000
,
1000
0000
0010
0100
0000
0000
0010
0100
,
0000
0001
1000
0001
,
0001
0000
0010
0100
0000
0000
0010
0100
,
0000
1000
0001
1000
,
1000
0000
0010
0100
0000
0000
0010
0100
,
0010
0010
0010
1000
,
0001
0100
0020
1030
,
0100
0020
0031
0100
,
0020
0000
1030
0000
0100
0000
0020
0030
,
1001
0000
0MM0
0000
,
2000
0000
0000
0000
0000
0000
3000
0000
0M00
00M0
0000
0000
0000
0000
0000
0000
,
1001
0000
0000
0000
0000
0000
0000
0000
0000
0000
0000
0MM0
0000
0000
0000
0000
,
MMMM
0000
MMMM
0000
MMMM
0000
0000
0000
0M00
00M0
0000
0000
0000
0000
0000
0000
,
1001
0000
0MM0
0000
0000
0000
0002
0003
,
0M00
00M0
0000
0000
0000
0000
0000
0000
1000
0000
0000
0000
0000
0000
0000
0000
,
0010
0000
0000
0100
0000
0000
0001
0000
,
1000
2002
0000
0000
,
0000
0000
3003
0000
,
0000
0000
0001
0010
,
0200
1300
0010
0200
,
0300
0000
0000
0000
0000
0000
0000
0000
0000
0000
0000
M000
000M
M000
000M
M000
,
000M
M000
000M
M000
000M
M000
000M
M000
000M
M000
000M
M000
000M
0000
0000
0000
,
0000
0000
0000
0000
,
0000
0000
0000
0000
,
0110
0000
0000
0000
;

//--------------- dance-single - chronon ----------------
#NOTEDATA:;
#STEPSTYPE:dance-single;
#DESCRIPTION:chronon;
#DIFFICULTY:Medium;
#METER:12;
#RADARVALUES:0,0,0,0,0;
#NOTES:
0000
0000
0000
0000
,
0000
0000
0000
0000
,
0000
0000
0000
0000
,
0000
0000
0000
0000
,
1001
1001
0000
0000
0000
0000
0000
0000
,
0000
0000
0000
0000
0000
0000
0000
0000
0M00
00M0
0000
0000
0000
0000
0000
0000
,
1001
1001
0000
0000
0000
0000
0000
0000
,
0000
0000
0000
0000
0000
0000
0000
0000
0M00
00M0
0000
0000
0000
0000
0000
0000
,
1001
0000
1001
0000
0000
0000
0000
0000
0000
0000
0000
0000
0M00
00M0
0000
0000
,
0000
0000
0000
0000
1000
0100
0010
0001
,
1000
0001
0100
0010
1000
0000
0100
0000
,
0010
2002
0000
0000
,
0000
0000
3003
0000
0001
0100
0100
0010
,
1000
1000
0001
0000
1000
0010
0200
0010
,
0000
0301
0020
0100
0000
0031
0010
0200
,
0001
0000
1300
0000
0001
0010
0200
0010
,
0000
1300
0020
0100
0000
1030
0010
0200
,
1000
0000
0301
0000
1000
0010
0200
0010
,
0000
0301
0020
0100
0000
0031
0010
0100
,
1000
0000
0000
0001
0000
0000
1000
0000
0000
0000
0020
0000
0000
0000
0000
0000
,
1030
0010
0100
0000
0001
0100
0010
1000
,
0001
0000
1000
0000
0010
1000
0200
0010
,
0000
1300
0020
0100
0000
1030
0010
0100
,
1000
0100
0010
0100
0001
0000
1000
0000
,
0001
0000
1000
0100
0010
0100
0001
0100
,
0010
0100
1000
0001
1000
0000
0001
0000
,
1000
0000
0010
0100
1000
0100
0010
0100
,
0001
1000
0001
0000
1000
0000
0001
0000
,
1000
0000
0001
0000
1000
0100
0010
0001
,
1000
0001
0200
0000
,
0302
0000
2003
0000
,
3200
0320
0230
0000
,
2300
0000
3002
0000
,
0203
0320
2030
0000
,
3002
0023
0230
2300
,
3002
0203
0320
0000
,
2030
3002
2000
0000
,
3003
0000
1000
0100
,
0010
0100
1000
0001
,
0100
0100
0001
0100
,
0010
0100
0001
1000
,
0100
0000
0200
0000
1300
0100
1000
0000
,
0001
0010
0001
0000
1000
0010
1000
0000
,
0001
0100
0001
0000
1000
0000
0010
0000
,
0100
0000
0001
0000
1000
0100
0010
0001
,
1000
0001
1000
0001
1000
0010
0100
0001
,
0020
0000
0031
0010
0100
1000
0020
0030
,
1001
1001
0000
0000
0000
0000
0000
0000
,
0000
0000
0000
0000
0000
0000
0000
0000
0000
0000
00M0
0000
,
0M00
0000
0000
0000
0000
1000
0100
0000
,
0100
0010
0000
0010
0001
0000
0100
0000
,
0001
0100
0001
0100
0000
0001
0100
0000
,
0100
0010
0000
0010
1000
0000
0100
0000
,
1100
0000
1000
0100
1000
0100
0010
0001
,
0010
0001
1000
0001
1000
0000
0001
0000
,
0100
0010
1000
0100
0000
0100
0010
0001
,
0020
0230
2300
3002
,
1003
0010
0100
0000
0001
0100
0010
0000
,
1000
0100
0010
0000
0001
0010
0100
0000
,
0001
0100
0010
0100
0000
0100
1000
0010
,
1000
0010
0100
0010
0000
0010
0100
0010
,
0001
0010
0100
0010
0000
0010
1000
0100
,
1000
0100
0010
0001
,
1001
0000
1000
0010
1000
0001
0100
0000
,
0001
0000
0001
0010
0001
1000
0100
0000
,
1000
0100
0010
0100
1000
0010
0100
0010
,
1000
0010
0100
0001
1000
0000
0001
0000
,
1001
0000
0000
1000
0100
0010
0001
1000
,
0001
0000
1000
0000
0001
0000
1000
0000
0000
0020
0000
0000
,
1030
0010
0100
0001
0000
0001
0010
0100
,
0000
0100
1000
0200
0001
0000
1300
0000
,
0001
0010
0100
1000
0000
1000
0010
0100
,
0000
0100
0001
0200
1000
0000
0301
0000
,
1000
0010
0100
0001
0000
0001
0010
0100
,
0000
0100
1000
0200
0010
0000
1300
0000
,
0001
0100
0010
1000
0000
1000
0100
0010
,
0001
0010
0100
1000
0001
0000
1000
0000
,
0001
0010
0100
1000
0020
0000
1030
0010
,
0100
0001
0020
0000
0031
0010
0100
1000
,
0020
0000
1030
0010
0100
0001
0020
0030
,
1001
1001
0000
0000
0MM0
0000
0000
0000
,
2000
0000
0000
0000
0000
0000
3000
0000
0M00
00M0
0000
0000
0000
0000
0000
0000
,
1001
0000
1001
0000
0000
0000
0000
0000
0000
0000
0000
0MM0
0000
0000
0000
0000
,
MMMM
0000
MMMM
0000
MMMM
0000
MMMM
0000
0M00
00M0
0000
0000
0000
0000
0000
0000
,
1001
1001
0MM0
0000
0000
0000
0002
0003
,
0M00
00M0
0000
0000
0000
0000
0000
0000
0001
0000
0100
0000
0010
0000
1000
0000
,
0001
1000
0100
0010
0001
0000
0100
0000
,
0010
2002
0000
0000
,
0000
0000
3003
0000
1000
0010
0010
0100
,
0001
0001
1000
0000
0001
0100
0010
1000
,
0200
0000
1300
0100
0010
0001
0200
0000
,
0000
0000
0000
0000
0000
0000
0300
0000
0000
0000
0000
M000
00M0
M000
00M0
M000
,
00M0
M000
00M0
M000
00M0
M000
00M0
M000
00M0
M000
00M0
M000
00M0
0000
0000
0000
,
0000
0000
0000
0000
,
0000
0000
0000
0000
,
0101
0101
0000
0000
0000
0000
0000
0000
;

//--------------- dance-single - chronon ----------------
#NOTEDATA:;
#STEPSTYPE:dance-single;
#DESCRIPTION:chronon;
#DIFFICULTY:Hard;
#METER:15;
#RADARVALUES:0,0,0,0,0;
#NOTES:
0000
0000
0000
0000
,
0000
0000
0000
0000
,
0000
0000
0000
0000
,
0000
0000
0000
0000
,
1001
1001
0000
0000
0000
0000
0000
0000
,
0000
0000
0000
0000
0000
0000
0000
0000
0M00
00M0
0000
0000
0000
0000
0000
0000
,
1001
1001
0000
0000
0000
0000
0000
0000
,
0000
0000
0000
0000
0000
0000
0000
0000
0M00
00M0
0000
0000
0000
0000
0000
0000
,
1001
0000
1001
0000
0000
0000
0000
0000
0000
0000
0000
0000
0M00
00M0
0000
0000
,
0000
0000
0000
0000
0001
0100
0010
1000
,
0001
0010
0100
1000
0001
0100
0001
1000
,
0100
1000
0020
0000
0000
0000
0000
0000
,
0000
0000
0000
0000
0000
0000
0000
0000
1030
0010
0100
0001
1000
0000
0001
0010
,
0100
1000
0001
0000
1000
0100
0010
0001
1000
0000
0100
0010
0100
0000
1000
0000
,
0001
0000
0100
0010
0100
0000
0001
0000
1000
0000
0100
0000
0010
0000
0002
0000
,
0100
0000
0000
0000
1003
0000
0000
0000
0001
0000
0100
0010
0100
0000
0001
0000
,
1000
0000
0100
0010
0100
0000
1000
0000
0001
0000
0100
0000
0010
0000
2000
0000
,
0100
0000
0000
0000
3001
0000
0000
0000
1000
0000
0100
0010
0100
0000
1000
0000
,
0001
0000
0100
0010
0100
0000
0001
0000
1000
0000
0100
0000
0010
0000
0002
0000
,
0100
0000
0000
2003
0000
0000
0010
0000
0000
0000
3001
1000
0001
0000
0100
0000
,
0010
0000
1000
0001
1000
0000
0010
0000
1000
0000
0100
0000
0010
0000
0001
0000
,
0100
0000
0010
0000
1000
0000
0100
0000
0010
0000
0001
0100
0001
0000
1000
0000
,
0010
0000
1000
0100
1000
0000
0001
0000
1000
0000
0100
0000
0010
0000
0001
0000
,
1000
0010
0100
0010
0002
0000
0013
0100
,
0000
0000
0001
1000
0001
0000
1000
0000
0001
0000
0010
0000
0100
0000
1000
0000
,
0001
0100
0010
0100
2000
0000
3100
0010
,
0000
0000
1000
0001
1000
0000
0001
0000
1000
0000
0100
0000
0010
0000
0001
0000
,
1000
0010
0100
0010
0002
0000
0013
0100
,
0000
0000
0001
1000
0001
0000
0100
0000
0001
0000
0010
0000
0100
0000
1000
0000
,
0010
0100
0001
0010
0200
0000
0000
0000
,
2300
0000
3002
0000
,
0203
0320
0230
0000
,
0302
0000
2003
0000
,
3200
0320
0032
0000
,
2003
3020
0230
0302
,
2003
3200
0320
0000
,
0032
2003
0002
0000
,
3003
0000
0001
0100
,
0010
0100
0001
1000
,
0100
0100
1000
0100
,
0010
0100
1000
0001
,
0100
0000
0200
0000
0301
0100
0001
0100
,
0010
1000
0010
1000
0001
0010
0001
0010
,
0100
1000
0100
1000
0001
1000
0010
0100
,
0001
1000
0100
0010
0001
1000
0010
0100
,
0001
0000
1000
0000
0100
0000
0010
0000
0001
0000
0001
0010
0100
0000
0100
1000
,
0020
0000
0000
0000
1030
0000
1000
0010
0100
0000
0100
0001
0020
0000
0030
0000
,
1001
1001
0000
0000
0000
0000
0000
0000
,
0000
0000
0000
0000
0000
0000
0000
0000
0000
0000
00M0
0000
,
0M00
0000
0000
0000
0000
1000
1100
0000
,
0001
0011
0000
1000
1010
0000
0110
0000
,
0100
0001
0100
0001
1000
0000
0100
1000
0100
1000
0001
0000
0011
0000
0000
0000
,
1000
1100
0000
0001
0101
0000
0110
0000
,
2002
0000
0000
0000
,
0000
0000
0000
3003
,
1000
0010
0100
0000
0001
0000
0100
0010
1000
0000
0001
0000
1000
0000
0100
0000
,
0010
0100
1000
0000
0010
0100
0001
0000
0010
0100
1000
0000
0010
0100
0001
0000
,
0100
0000
0001
0000
1000
0000
0100
0010
0100
0000
1000
0000
0001
0000
0100
0000
,
0010
0100
1000
0100
0010
0100
0001
1000
,
0001
0100
0010
0000
1000
0000
0010
0100
0001
0000
1000
0000
0001
0000
0010
0000
,
0100
0010
0001
0000
0100
0000
0010
0100
0001
0000
0010
0000
0100
0000
1000
0000
,
0001
1000
0010
0000
0100
0000
0001
1000
0100
0000
0010
0000
0001
0000
1000
0000
,
0001
0000
0100
0000
0010
0000
1000
0000
0001
1000
0100
0000
1000
0100
0010
0000
,
0001
0000
1000
0000
0001
0100
0001
0000
1000
0000
0001
0000
1000
0100
1000
0000
,
0001
0000
1000
0000
0001
0010
0001
0000
1000
0000
0001
0000
1000
0010
1000
0000
,
0001
0100
0010
0000
1000
0000
0001
0000
1000
0100
0010
0000
0001
0000
1000
0000
,
0100
0010
0001
0000
1000
0000
0001
0000
0100
0010
1000
0000
0001
0000
1000
0000
,
2002
0000
3003
1000
0100
0010
0001
1000
,
0010
1000
0001
0010
0001
1000
0100
0000
0000
0020
0000
0000
,
0031
0000
0010
0100
0010
0000
0001
0000
1000
0000
0010
0100
0010
0000
0100
0001
,
0100
0000
0001
1000
0001
0000
0010
0000
0001
0010
0001
0010
0100
0000
1000
0001
,
1000
0000
0100
0010
0100
0000
1000
0000
0001
0000
0100
0010
0100
0000
0010
1000
,
0010
0000
1000
0001
1000
0000
0100
0000
1000
0100
1000
0100
0010
0000
0001
1000
,
0001
0000
0100
0010
0100
0000
0001
0000
1000
0000
0100
0010
0100
0000
0010
0001
,
0010
0000
0001
1000
0001
0000
0100
0000
0001
0100
0001
0100
0010
0000
1000
0001
,
1000
0000
0010
0100
0010
0000
1000
0000
0001
0000
0010
0100
0010
0000
0100
0000
,
1000
0010
0100
0001
0010
0100
1000
0010
,
1000
0000
1000
0010
0100
0000
0100
0001
0020
0000
0000
0000
0031
0000
0001
0010
,
0100
0000
0100
1000
0020
0000
0000
0000
1030
0000
1000
0010
0100
0000
0100
0001
,
0020
0000
0000
0000
0031
0000
0001
0010
0100
0000
0100
1000
0020
0000
0030
0000
,
1001
1001
0000
0000
0MM0
0000
0000
0000
,
2000
0000
0000
0000
0000
0000
3000
0000
0M00
00M0
0000
0000
0000
0000
0000
0000
,
1001
0000
1001
0000
0000
0000
0000
0000
0000
0000
0000
0MM0
0000
0000
0000
0000
,
MMMM
MMMM
MMMM
MMMM
MMMM
MMMM
MMMM
MMMM
0M00
00M0
0000
0000
0000
0000
0000
0000
,
1001
1001
0MM0
0000
0000
0000
0002
0003
,
0M00
00M0
0000
0000
0000
0000
0000
0000
1000
0000
0100
0000
0010
0000
0001
0000
,
1000
0010
0100
0001
1000
0100
1000
0001
,
0100
0001
0020
0000
0000
0000
0000
0000
,
0000
0000
0000
0000
0000
0000
0000
0000
0031
0010
0100
1000
0001
0000
1000
0010
,
0100
0001
1000
0000
0001
0100
0010
1000
0001
0000
0001
0100
0010
0000
0010
1000
,
0200
0000
0000
0000
1300
0000
1000
0100
0010
0000
0010
0001
0200
0000
0000
0000
,
0000
0000
0000
0000
0000
0000
0300
0000
0000
0000
0000
M000
00M0
M000
00M0
M000
,
00M0
M000
00M0
M000
00M0
M000
00M0
M000
00M0
M000
00M0
M000
00M0
0000
0000
0000
,
0000
0000
0000
0000
,
0000
0000
0000
0000
,
0101
0101
0000
0000
0000
0000
0000
0000
;

//--------------- dance-single - mine ----------------
#NOTEDATA:;
#STEPSTYPE:dance-single;
#DESCRIPTION:mine;
#DIFFICULTY:Edit;
#METER:1;
#RADARVALUES:0,0,0,0,0;
#NOTES:
0000
0000
0000
0000
,
0000
0000
0000
0000
,
0000
0000
0000
0000
,
0000
0000
0000
0000
,
0000
0000
0000
0000
,
0000
0000
0000
0000
,
0000
0000
0000
0000
,
0000
0000
0000
0000
,
0000
0000
0000
0000
,
0000
0000
0000
0000
,
0000
0000
0000
0000
,
0000
0000
0000
0000
,
0000
0000
0000
0000
,
0000
0000
0000
0000
,
0000
0000
0000
0000
,
0000
0000
0000
0000
,
0000
0000
0000
0000
,
0000
0000
0000
0000
,
0000
0000
0000
0000
,
0000
0000
0000
0000
,
0000
0000
0000
0000
,
0000
0000
0000
0000
,
0000
0000
0000
0000
,
0000
0000
0000
0000
,
0000
0000
0000
0000
,
0000
0000
0000
0000
,
0000
0000
0000
0000
,
0000
0000
0000
0000
,
0000
0000
0000
0000
,
0000
0000
0000
0000
,
0000
0000
0000
0000
,
0000
0000
0000
0000
,
0000
0000
0000
0000
,
0000
0000
0000
0000
,
0000
0000
0000
0000
,
0000
0000
0000
0000
,
0000
0000
0000
0000
,
0000
0000
0000
0000
,
0000
0000
0000
0000
,
0000
0000
0000
0000
,
0000
0000
0000
0000
,
0000
0000
0000
0000
,
0000
0000
0000
0000
,
0000
0000
0000
0000
,
0000
0000
0000
0000
,
0000
0000
0000
0000
,
0000
0000
0000
0000
,
0000
0000
0000
0000
,
0000
0000
0000
0000
,
0000
0000
0000
0000
,
0000
0000
0000
0000
,
0000
0000
0000
0000
,
0000
0000
0000
0000
,
0000
0000
0000
0000
,
0000
0000
0000
0000
,
0000
0000
0000
0000
,
0000
0000
0000
0000
,
0000
0000
0000
0000
,
0000
0000
0000
0000
,
0000
0000
0000
0000
,
0000
0000
0000
0000
,
0000
0000
0000
0000
,
0000
0000
0000
0000
,
0000
0000
0000
0000
,
0000
0000
0000
0000
,
0000
0000
0000
0000
,
0000
0000
0000
0000
,
0000
0000
0000
0000
,
0000
0000
0000
0000
,
0000
0000
0000
0000
,
0000
0000
0000
0000
,
0000
0000
0000
0000
,
0000
0000
0000
0000
,
0000
0000
0000
0000
,
0000
0000
0000
0000
,
0000
0000
0000
0000
,
0000
0000
0000
0000
,
0000
0000
0000
0000
,
0000
0000
0000
0000
,
0000
0000
0000
0000
,
0000
0000
0000
0000
,
0000
0000
0000
0000
,
0000
0000
0000
0000
,
0000
0000
0000
0000
,
0000
0000
0000
0000
,
0000
0000
0000
0000
,
0000
0000
0000
0000
,
0000
0000
0000
0000
,
0000
0000
0000
0000
,
0000
0000
0000
0000
,
0000
0000
0000
0000
,
0000
0000
0000
0000
,
0000
0000
0000
0000
,
0000
0000
0000
0000
,
0000
0000
0000
0000
,
0000
0000
0000
0000
,
0000
0000
0000
0000
,
0M00
0000
0000
0000
;
