#VERSION:0.83;
#TITLE:TAPIOCA (Bumble Edit);
#SUBTITLE:to the dark side OwO;
#ARTIST:USAO;
#TITLETRANSLIT:;
#SUBTITLETRANSLIT:;
#ARTISTTRANSLIT:;
#GENRE:fast;
#ORIGIN:;
#CREDIT:;
#BANNER:banner.png;
#BACKGROUND:bg.png;
#PREVIEWVID:;
#JACKET:jacket.png;
#CDIMAGE:cdtitle.png;
#DISCIMAGE:;
#LYRICSPATH:;
#CDTITLE:;
#MUSIC:USAO - TAPIOCA.ogg;
#OFFSET:0.000000;
#SAMPLESTART:66.439003;
#SAMPLELENGTH:18.732000;
#SELECTABLE:YES;
#BPMS:0.000=205.000;
#STOPS:;
#DELAYS:;
#WARPS:;
#TIMESIGNATURES:0.000=4=4;
#TICKCOUNTS:0.000=4;
#COMBOS:0.000=1;
#SPEEDS:0.000=1.000=0.000=0;
#SCROLLS:0.000=1.000;
#FAKES:;
#LABELS:0.000=Song Start;
#BGCHANGES:;
#FGCHANGES:0.000=lua=1.000=0=0=1=====,
;
#KEYSOUNDS:;
#ATTACKS:
;

//---------------dance-single - SPACE GOBLIN!!!----------------
#NOTEDATA:;
#CHARTNAME:;
#STEPSTYPE:dance-single;
#DESCRIPTION:SPACE GOBLIN!!!;
#CHARTSTYLE:;
#DIFFICULTY:Medium;
#METER:10;
#RADARVALUES:0.465986,0.538936,0.109250,0.241912,0.000000,418.000000,404.000000,14.000000,31.000000,0.000000,3.000000,0.000000,0.000000,0.000000,0.465986,0.538936,0.109250,0.241912,0.000000,418.000000,404.000000,14.000000,31.000000,0.000000,3.000000,0.000000,0.000000,0.000000;
#CREDIT:;
#NOTES:
0000
0000
0000
0000
,
0000
0000
0000
0000
,
0000
0000
0000
0000
,
0000
0000
0000
0000
,
1000
0000
0100
0000
0010
0000
0001
0010
,
0001
1000
0010
0100
,
0001
1000
0001
0000
0100
0000
0010
0000
,
1001
1100
0101
0000
,
0000
0000
0000
0000
,
1000
0100
0010
0000
0100
0000
1000
0000
,
0001
0100
0010
0100
,
0001
1000
0100
0010
,
0100
0001
1100
0101
,
0001
0010
0100
0000
0010
0000
0001
0000
,
1000
0001
0100
0010
,
0100
0010
0100
0000
0001
0000
1000
0000
,
0100
0000
1001
0110
,
1000
0000
0000
0000
0010
0000
1000
0000
0002
0000
0000
0000
0000
0000
0000
0003
,
1000
0100
1000
0001
,
0100
0001
0100
0000
0002
0000
0003
1000
,
0002
0000
0003
1000
0001
0000
1000
0000
,
0100
0000
0000
0000
0010
0000
0000
0000
0002
0000
0000
0000
0000
0000
0000
0003
,
1000
0001
0100
0010
,
2000
0000
3000
0001
0010
0000
0001
0000
,
1000
0010
0100
0000
,
2000
0000
3101
0000
,
0000
0002
1103
0000
,
2000
0000
3011
0000
,
0000
0000
1000
0000
0100
0000
0010
0100
,
1000
0010
0100
0010
,
1000
0001
0010
0100
,
1000
0010
0100
0001
,
1000
0000
0000
0000
,
0001
0010
0100
0000
0010
0000
0001
0000
,
1000
0010
0100
0010
,
1000
0001
0010
0100
,
0010
0001
1000
0001
,
1000
0100
0010
0000
0100
0000
1000
0000
,
0001
1000
0010
0100
,
0010
0100
0010
0000
1000
0000
0001
0000
,
0010
0000
0100
0010
0100
0000
1000
0000
,
0010
0100
0001
0010
,
0001
1000
0100
0010
,
0001
1000
0001
1000
,
0010
0000
0000
0000
0100
0000
0000
0000
0001
0000
0000
0000
2000
0000
0000
3000
,
0001
0010
0001
1000
,
0010
0100
0001
0100
,
0001
1000
0100
0020
,
0000
0000
0000
0000
0000
0000
0000
0000
0000
0000
0000
0030
0100
0000
0000
0000
,
0010
0000
0000
0001
1000
0000
0010
0000
,
0100
0000
0001
1000
0100
0000
0010
0000
,
0001
0000
0000
1000
0010
0000
0100
0000
,
0001
0000
0000
0010
0100
0000
1000
0000
,
0001
0000
0000
0100
0010
0000
1000
0000
,
0001
0000
0000
0010
0100
0000
1000
0000
,
0001
0100
0001
1000
,
0100
1000
0110
0001
,
1000
0000
0001
0000
2000
0000
0000
0000
0000
0000
0000
3000
0001
0000
0000
0000
,
0010
0000
0001
0000
1000
0000
0010
1000
,
0010
0000
2000
0000
3000
0001
2000
0000
,
3000
0001
1000
0000
0001
0000
0010
0000
,
0100
0000
0000
0000
2000
0000
0000
0000
0000
0000
0000
3000
0001
0000
0000
0000
,
1000
0010
0100
0002
,
0003
1000
0100
0000
1000
0000
0001
0000
,
0100
0010
0000
1000
,
0100
0000
1000
0000
0002
0000
0000
0000
0000
0000
0000
0003
1000
0000
0000
0000
,
0010
0000
1000
0000
0001
0000
0010
0001
,
0010
0000
0002
0000
0003
1000
0002
0000
,
0003
1000
0001
0000
1000
0000
0010
0000
,
0100
0000
0000
0000
0002
0000
0000
0000
0000
0000
0000
0003
1000
0000
0000
0000
,
0001
0000
0010
0000
0100
0000
1000
0010
,
0100
0000
0001
0000
1000
0000
0001
0010
,
0100
1000
0000
1000
,
0001
0000
0000
0100
0010
0000
1000
0000
,
0001
0000
0010
0000
0100
0000
0000
0000
1000
0000
0000
0000
0002
0000
0000
0003
,
0000
0100
0001
1000
0100
0000
0010
0000
,
0001
0000
0000
0000
0200
0000
0000
0300
0000
0000
0000
0000
0001
0000
0000
0000
,
1000
0000
0000
0010
0100
0000
0001
0000
,
1000
0000
0100
0000
0010
0000
0000
0000
0001
0000
0000
0000
2000
0000
0000
3000
,
0000
0010
1000
0001
0010
0000
0100
0000
,
1000
0001
0100
0010
,
1000
0001
0010
0001
,
1000
0010
0100
0001
,
1000
0100
1000
0000
0001
0100
0001
0000
,
0100
0010
0100
0000
0001
0010
0001
0000
,
1000
0010
1000
0000
0001
0100
0001
0000
,
1000
0100
1000
0000
0001
0100
0001
0000
,
1000
0100
0010
0001
,
0000
0000
0000
1001
,
0000
0000
0000
0000
,
0000
0000
0000
0001
,
0100
0000
0001
0000
2000
0000
0000
0000
0000
0000
0000
3000
0001
0000
0000
0000
,
0010
0000
0001
0000
1000
0000
0010
0100
,
0010
0000
2000
0000
3000
0001
2000
0000
,
3000
0001
0010
0000
0001
0000
0010
0000
,
0100
0000
1000
0000
0002
0000
0000
0000
0000
0000
0000
0003
1000
0000
0000
0000
,
0001
0000
0000
0000
0100
0000
0000
0000
0010
0000
0000
0000
2000
0000
0000
3000
,
0000
0001
0100
0000
0001
0000
1000
0000
,
0100
0010
0000
1000
,
0100
0000
1000
0000
0002
0000
0000
0000
0000
0000
0000
0003
1000
0000
0000
0000
,
0010
0000
1000
0000
0001
0000
0010
0001
,
0010
0000
0002
0000
0003
1000
0002
0000
,
1003
1000
1000
0010
,
0100
0000
0001
0000
2000
0000
0000
0000
0000
0000
0000
3000
0001
0000
0000
0000
,
1000
0000
0100
0000
0010
0000
0001
0010
,
0100
1000
0001
0001
,
1001
1001
0000
0000
;

//---------------dance-single - SPACE GOBLIN!!!----------------
#NOTEDATA:;
#CHARTNAME:;
#STEPSTYPE:dance-single;
#DESCRIPTION:SPACE GOBLIN!!!;
#CHARTSTYLE:;
#DIFFICULTY:Hard;
#METER:14;
#RADARVALUES:0.685602,0.718029,0.078036,0.647699,0.003902,615.000000,605.000000,10.000000,83.000000,14.000000,0.000000,0.000000,0.000000,0.000000,0.685602,0.718029,0.078036,0.647699,0.003902,615.000000,605.000000,10.000000,83.000000,14.000000,0.000000,0.000000,0.000000,0.000000;
#CREDIT:;
#NOTES:
0000
0000
0000
0000
,
0000
0000
0000
0000
,
0000
0000
0000
0000
,
0000
0000
0000
0000
,
1000
0000
0100
0000
0010
0000
0001
1000
,
0001
1000
0010
0000
1000
0000
0001
0000
,
0010
0100
1000
0001
0100
0010
1000
0001
,
0110
1001
0110
0000
,
0000
0000
0000
0000
,
0001
0100
0010
0000
1000
0001
0010
0000
,
0002
0100
2003
0100
,
3002
0100
2003
0100
,
3002
0103
0101
1100
,
0001
0100
0010
0000
2000
0000
0010
0000
,
3002
0010
2003
0010
,
3001
0100
0010
0000
1000
0000
0001
0000
,
0010
0000
0100
1000
0001
0000
0101
0000
,
1000
0000
0100
0000
1000
0000
0100
0000
0002
0000
0000
0000
0000
0000
0000
0003
,
0100
0000
1000
0000
0002
0000
0000
0003
0100
0000
0010
0000
0100
0000
1000
0000
,
0100
0000
0001
0000
0020
0000
0000
0030
0200
0000
0000
0300
0000
0000
0010
0000
,
0200
0000
0000
0300
0000
0000
1000
0000
0001
0000
0100
0000
0020
0000
0000
0030
,
1000
0000
0010
0000
0100
0000
0010
0000
0002
0000
0000
0000
0000
0000
0000
0003
,
0010
0000
1000
0000
0002
0000
0000
0003
0010
0000
0100
0000
0010
0000
1000
0000
,
0020
0000
0000
0030
0000
0000
0100
0000
1000
0000
0001
0000
0100
0000
0010
0000
,
2000
0000
0000
3000
0001
0000
0010
0000
0200
0000
0000
0300
1000
0000
0000
0000
,
0001
0000
0010
0000
0001
0000
0010
0000
2000
0000
0000
0000
0000
0000
0000
3000
,
0010
0000
0001
0000
2000
0000
0000
3000
0010
0000
0100
0000
0010
0000
0001
0000
,
0010
0000
1000
0000
0200
0000
0000
0300
0020
0000
0000
0030
0000
0000
0100
0000
,
0020
0000
0000
0030
0000
0000
0001
0000
1000
0000
0010
0000
0200
0000
0000
0300
,
0001
0100
0010
0100
1000
0100
0010
0100
,
0001
0000
0000
0000
2000
0000
0000
3000
0100
0000
0010
0000
0100
0000
0001
0000
,
0100
0000
1000
0001
0100
0010
0100
0010
,
0002
0000
0000
0003
1000
0000
0100
0000
0020
0000
0000
0030
0001
0000
0000
0000
,
1000
0010
0100
0000
0001
1000
0100
0000
,
2000
0001
3020
0100
,
2030
0100
3002
0010
,
0203
0010
2300
0001
,
3010
0100
0002
0000
1000
0000
0203
0000
,
0010
0302
0100
0103
,
0001
1000
0100
0000
0010
0000
1000
0001
,
0100
0010
0001
0010
0100
0010
1000
0000
,
0001
0010
1000
0010
,
0001
0000
1000
0010
0100
0001
1000
0100
,
1000
0001
1000
0010
1000
0001
0010
0001
,
1000
0000
0001
0000
0100
0000
0001
0000
1000
0000
0100
0000
0020
0000
0000
0030
,
0000
0001
1000
0010
0100
0001
1000
0100
,
0010
0001
1000
0100
0010
0100
0001
1000
,
0001
0100
0001
1000
0001
0010
0002
0000
,
0000
0000
0000
0000
0000
0000
0000
0003
1000
0000
0000
0000
0001
0000
0010
0000
,
0100
0010
1000
0010
0100
0010
0001
1000
,
0010
0100
0010
0001
0010
0100
0010
1000
,
0001
0010
0100
1000
0001
0100
0020
0000
,
0000
0000
0000
0000
0000
0000
0000
0000
0000
0000
0000
0030
1000
0000
0100
0000
,
0010
0100
0001
0100
0010
0100
1000
0001
,
0100
0010
0100
1000
0100
0010
0100
0001
,
1000
0100
0010
0001
1000
0010
0100
0000
,
0001
1000
0100
0000
0010
0000
0001
0010
,
0001
0000
0010
0000
2000
0000
0000
0000
0000
0000
0000
3000
0010
0000
0001
0000
,
2000
0000
0000
3000
0010
0000
0100
0000
0010
0000
0001
0000
0010
0000
1000
0000
,
0200
0000
0000
0300
0020
0000
0000
0030
0000
0000
0100
0000
0020
0000
0000
0030
,
0000
0000
0001
0000
1000
0000
0010
0000
0200
0000
0000
0300
0001
0000
0100
0000
,
0010
0000
0100
0000
2000
0000
0000
0000
0000
0000
0000
3000
0100
0000
0001
0000
,
2000
0000
0000
3000
0100
0000
0010
0000
0100
0000
0001
0000
0200
0000
0000
0300
,
0000
0000
0010
0000
0001
0000
1000
0000
0010
0000
0100
0000
0002
0000
0000
0003
,
1000
0000
0100
0000
0020
0000
0000
0030
0001
0000
0000
0000
1000
0000
0100
0000
,
1000
0000
0100
0000
0002
0000
0000
0000
0000
0000
0000
0003
0100
0000
1000
0000
,
0002
0000
0000
0003
0100
0000
0010
0000
0100
0000
1000
0000
0100
0000
0001
0000
,
0020
0000
0000
0030
0200
0000
0000
0300
0000
0000
0010
0000
0200
0000
0000
0300
,
0000
0000
1000
0000
0001
0000
0100
0000
0020
0000
0000
0030
1000
0000
0010
0000
,
0100
0010
0001
0010
0100
0010
1000
0000
,
0002
0000
0000
0003
0010
0000
0100
0000
0010
0000
1000
0000
0010
0000
0001
0000
,
1000
0010
0100
0001
1000
0000
0001
1000
,
0100
0000
0010
0000
0001
0000
0000
0000
1001
0000
0000
0000
0001
0000
2000
3000
,
0000
0000
0001
0000
0100
0000
0010
0000
1000
0000
0001
0000
0020
0000
0000
0030
,
1000
0000
0010
0000
0100
0000
0000
0000
2000
0000
0000
3000
0002
0000
0000
0003
,
0000
0000
0100
0000
0010
0000
0001
0000
0020
0000
0000
0030
1000
0000
0000
0000
,
0001
0000
0010
0000
0200
0000
0000
0300
0000
0000
0000
0000
2000
0000
0000
3000
,
0000
0000
0001
0000
2000
0000
0000
3000
0010
0000
0000
0000
0100
0000
0010
0000
,
0100
0000
1000
0000
0200
0000
0000
0300
0000
0000
0000
0000
0001
0000
1000
0000
,
0000
0000
0001
0000
1000
0000
0100
0000
0020
0000
0000
0030
0002
0000
0000
0003
,
0200
0000
0000
0300
2000
0000
0000
3000
0200
0000
0000
0300
0002
0000
0000
0003
,
2000
3000
0200
0300
0002
0003
0200
0300
,
2000
3000
0010
0000
0001
0000
0010
0100
,
0001
0100
0001
1000
0100
0010
0100
1000
,
0001
0100
0010
1000
0100
0010
0001
0100
,
0010
1000
0001
0010
0100
1000
0010
0100
,
0001
0100
0010
1000
0001
0010
0100
1000
,
0100
0010
1000
0010
0100
1000
0001
0000
,
0000
0000
0000
0000
0000
0000
0001
0100
,
0001
0000
0100
0000
0020
0000
0000
0000
0000
0000
0000
0030
0100
0000
0001
0000
,
2000
0000
0000
3000
0100
0000
0010
0000
0100
0000
0010
0000
0001
0000
0010
0000
,
0100
0010
1000
0010
0100
0010
0001
0010
,
0100
1000
0001
0100
0010
0100
1000
0100
,
0010
0100
0001
1000
0100
0010
0002
0000
,
0000
0003
1000
0000
1000
0000
0010
0000
0100
0000
0001
0000
1000
0000
0100
0000
,
0010
0001
0100
0010
0001
0010
0100
0010
,
1000
0010
0100
1000
0001
0010
0100
0010
,
1000
0010
0100
0010
0001
1000
0010
0000
,
0100
0001
1000
0000
0MM0
0000
1000
0100
,
0010
0100
0001
0100
0010
0100
1000
0100
,
0010
0001
1000
0010
0100
0010
0001
0010
,
0100
0000
0010
0000
1000
0000
0001
0000
0010
0000
0100
0000
2000
0000
0000
3000
,
0001
0100
0001
0100
0010
1000
0001
0010
,
0100
1000
0010
0100
1000
0100
0010
0100
,
0001
0100
0010
0001
1000
0100
0010
0001
,
1000
0010
0100
0001
0000
0000
1100
0000
,
0101
0110
0002
1003
,
0000
0000
0000
M00M
,
MMMM
M00M
M00M
0000
0MM0
0000
0000
0000
0000
0000
0000
0000
0000
0000
0000
0000
;

//---------------dance-single - SPACE GOBLIN!!!----------------
#NOTEDATA:;
#CHARTNAME:;
#STEPSTYPE:dance-single;
#DESCRIPTION:SPACE GOBLIN!!!;
#CHARTSTYLE:;
#DIFFICULTY:Challenge;
#METER:17;
#RADARVALUES:0.851707,1.140399,0.140465,0.327751,0.347260,764.000000,746.000000,18.000000,42.000000,16.000000,0.000000,0.000000,0.000000,0.000000,0.851707,1.140399,0.140465,0.327751,0.347260,764.000000,746.000000,18.000000,42.000000,16.000000,0.000000,0.000000,0.000000,0.000000;
#CREDIT:;
#NOTES:
// measure 0
0000
0000
0000
0000
,  // measure 1
0000
0000
0000
0000
,  // measure 2
0000
0000
0000
0000
,  // measure 3
0000
0000
0000
0000
,  // measure 4
1000
0000
0100
0000
0010
0000
0001
0000
1000
0000
0010
0000
0100
0000
0001
0100
,  // measure 5
0001
1000
0100
0010
0001
1000
0010
1000
,  // measure 6
0001
0000
0010
0100
0010
0000
0001
0000
1000
0000
0010
0000
0100
0000
0001
0000
,  // measure 7
1000
0011
1010
1001
,  // measure 8
0000
0000
0000
0000
,  // measure 9
1000
0100
0010
0000
0001
1000
0010
0000
,  // measure 10
2000
0100
3002
0100
,  // measure 11
0013
1000
0100
1000
,  // measure 12
0001
0100
0001
1000
0001
0000
0110
0000
,  // measure 13
1000
0001
1000
0000
0002
0000
0100
0000
,  // measure 14
2003
0010
3002
0010
,  // measure 15
0103
0010
0100
0000
0001
0000
1000
0000
,  // measure 16
0001
0000
0000
0000
0001
0100
0001
0000
1100
0000
0000
0000
0101
0000
0000
0000
,  // measure 17
0110
0000
0001
0000
1000
0000
0010
0000
0200
0000
0000
0300
0001
0000
0000
0000
,  // measure 18
1000
0100
0010
0000
0001
0100
0010
0100
,  // measure 19
0001
0000
1000
0100
1000
0000
0100
0000
0010
0000
0001
0000
1000
0000
0010
0000
,  // measure 20
0100
0001
1000
0100
0010
0001
1000
0010
,  // measure 21
0100
0000
0001
0000
1000
0000
0001
0000
0020
0000
0000
0030
1000
0000
0000
0000
,  // measure 22
0010
0001
1000
0001
0100
0001
1000
0100
,  // measure 23
2000
0000
0000
3000
0001
0000
0100
0000
0010
0000
0100
0000
0001
0000
1000
0000
,  // measure 24
0100
0000
0000
0000
0001
0000
0100
0000
0020
0000
0000
0030
0001
0000
0000
0000
,  // measure 25
1000
0000
0010
0000
0100
0000
0000
0000
0002
0000
0000
0003
1000
0000
0000
0000
,  // measure 26
0100
0000
0010
0000
0001
0100
0001
1000
,  // measure 27
0100
1000
0001
0000
1000
0000
0010
0000
,  // measure 28
0200
0000
0000
0300
0001
0000
1000
0000
0010
0000
1000
0000
0100
0000
0010
0000
,  // measure 29
0001
0000
0010
0000
0001
0000
1000
0000
0010
0000
0100
0000
0002
0000
0000
0003
,  // measure 30
1000
0001
1000
0000
0010
0000
0000
0000
0100
0000
0001
1000
0001
0000
1000
0000
,  // measure 31
0010
0000
0000
0000
0100
0000
0000
0000
0001
0100
0001
1000
0100
0000
0010
0001
,  // measure 32
1000
0000
0000
0110
,  // measure 33
0001
1000
0010
0000
0100
0001
1000
0000
,  // measure 34
0002
0100
2003
0100
,  // measure 35
3002
0100
1003
0010
,  // measure 36
0100
0000
0001
0100
0001
0000
1000
0100
1000
0000
0001
0100
0001
0000
0100
0010
,  // measure 37
0100
0001
1000
0000
0001
1000
0200
0000
,  // measure 38
0010
2300
0001
3200
,  // measure 39
0010
0302
1000
0103
,  // measure 40
0001
0100
0001
1000
0100
0000
0010
0000
0001
0000
1000
0000
0010
0000
0100
0000
,  // measure 41
0001
0100
0001
1000
0100
0010
0001
0010
,  // measure 42
0100
1000
0001
0100
0010
1000
0001
0010
,  // measure 43
0001
1000
0001
0010
0001
1000
0010
1000
,  // measure 44
0001
0000
1000
0000
0010
0000
1000
0000
0001
0000
0010
0000
0200
0000
0000
0300
,  // measure 45
1000
0100
0010
0001
1000
0010
0100
0001
,  // measure 46
1000
0100
1000
0001
0100
0001
1000
0100
,  // measure 47
0010
0100
1000
0001
0100
0010
0200
0000
,  // measure 48
0000
0000
0000
0000
0000
0000
0000
0300
0010
0000
0000
0000
1000
0000
0001
0000
,  // measure 49
0100
0000
0001
0000
1000
0000
0010
1000
0001
0000
0010
0000
0100
0000
0010
0000
,  // measure 50
0001
0000
0010
0000
0100
0000
1000
0100
1000
0000
0001
0000
0100
0000
0010
0000
,  // measure 51
1000
0000
0001
0000
0010
0000
0001
0010
0001
0000
1000
0000
0001
0000
0100
0000
,  // measure 52
0010
0000
0100
0000
0001
0000
1000
0010
0100
0000
0010
0000
1000
0000
0001
0000
,  // measure 53
0010
0000
0100
0000
0010
0000
0001
0010
0100
0000
0010
0000
0001
0000
1000
0000
,  // measure 54
0010
0000
0100
0010
1000
0001
0100
0010
1000
0001
1000
0000
0100
0000
0010
0000
,  // measure 55
0001
1000
0010
0100
0001
1000
0100
0000
,  // measure 56
0010
0001
1100
0000
0101
0000
1000
0001
,  // measure 57
1000
0000
0001
0100
0001
0000
1000
0100
1000
0000
0001
0010
0001
0000
1000
0001
,  // measure 58
1000
0100
0010
0001
0010
0001
1000
0010
,  // measure 59
1000
0000
0010
0000
0100
0001
0100
0001
,  // measure 60
1000
0000
0100
0000
1001
0000
0000
0000
0110
0000
0000
0000
1000
0000
0001
1000
,  // measure 61
0001
0000
0100
0001
0100
0000
0001
1000
0001
0000
1000
0100
1000
0000
0001
0000
,  // measure 62
0100
0001
1000
0001
1000
0100
1000
0001
,  // measure 63
0010
0000
0000
0000
0100
0000
0000
0000
1000
0000
0001
0000
0100
0010
1000
0010
,  // measure 64
0100
0001
1000
0000
0001
0000
0010
0000
0100
0000
1000
0000
0001
0000
0100
0010
,  // measure 65
0100
0000
0001
0100
0001
0000
1000
0100
1000
0000
0100
0010
0100
0000
0010
0001
,  // measure 66
0010
0000
0001
0000
1000
0000
0010
0000
0100
0000
0001
0000
1000
0000
0100
1000
,  // measure 67
0100
0000
1000
0000
0001
0000
0100
0000
0010
0000
0100
0001
0100
0000
0001
0000
,  // measure 68
1000
0000
0000
0000
0101
0000
0000
0000
1100
0000
0000
0000
1000
0000
0001
0010
,  // measure 69
0001
0000
1000
0010
1000
0000
0001
0100
0001
0000
1000
0100
1000
0000
1000
0001
,  // measure 70
1000
0000
0001
0000
0100
0000
0010
0000
1000
0000
0001
0000
0010
0000
0100
1000
,  // measure 71
0100
0000
1000
0000
0001
0000
0100
0010
0100
0000
0000
0000
0001
0000
1000
0000
,  // measure 72
0100
0000
0010
0000
0001
0000
0000
0000
0110
0000
0000
0000
1000
0000
0002
0003
,  // measure 73
0000
0000
1000
0000
0010
0000
0100
0000
0001
0000
1000
0000
0200
0000
0000
0300
,  // measure 74
0010
0000
0100
0000
0010
0000
0000
0000
0002
0000
0000
0003
2000
0000
0000
3000
,  // measure 75
0000
0000
0010
0000
0100
0000
0010
0000
0200
0000
0000
0300
0001
0000
0000
0000
,  // measure 76
1000
0000
0100
0000
0020
0000
0000
0030
0000
0000
0000
0000
0002
0000
0000
0003
,  // measure 77
0000
0000
1000
0000
0002
0000
0000
0003
0100
0000
0000
0000
0010
0000
0100
0000
,  // measure 78
0010
0000
0100
0000
0002
0000
0000
0003
0000
0000
0000
0000
1000
0000
0001
0000
,  // measure 79
0000
0000
1000
0000
0001
0000
0100
0000
0020
0000
0000
0030
2000
0000
0000
3000
,  // measure 80
0020
0000
0000
0030
0002
0000
0000
0003
0020
0000
0000
0030
2000
0000
0000
3000
,  // measure 81
0002
0003
0020
0030
0200
0300
2000
3000
,  // measure 82
0002
0003
0100
0000
1000
0000
0100
0010
,  // measure 83
1000
0010
1000
0001
0010
0100
0010
0001
,  // measure 84
1000
0000
0010
0000
0100
0000
1000
0000
0100
0010
0100
0010
1000
0000
0001
0000
,  // measure 85
0010
0000
0100
0000
1000
0000
0001
0000
0100
0000
0010
0000
0100
0001
1000
0100
,  // measure 86
0010
0000
0001
0000
1000
0000
0010
0000
0100
0000
0001
0000
1000
0100
0010
0001
,  // measure 87
1000
0010
0100
0001
1000
0100
1000
0001
0100
0001
1000
0001
1000
0000
0000
0000
,  // measure 88
0100
0000
0010
0100
0010
0000
0001
0000
1000
0000
0010
0000
0100
0000
0000
0000
,  // measure 89
0000
0000
0000
0000
,  // measure 90
0000
0000
0000
0000
0000
0000
1000
0001
,  // measure 91
0100
0000
0001
0100
0001
0000
1000
0100
1000
0000
0100
0010
0100
0000
1000
0001
,  // measure 92
0100
0001
0010
0100
1000
0010
0100
0001
,  // measure 93
1000
0000
0100
0000
0010
0000
0001
0000
0100
0000
0010
0100
0010
0000
1000
0010
,  // measure 94
1000
0000
0001
0010
0001
0000
0100
0010
0100
0000
0001
0000
0010
0000
0100
0000
,  // measure 95
1000
0000
0010
0100
0010
0000
1000
0001
1000
0000
0001
0010
0001
0000
1000
0010
,  // measure 96
1000
0000
0010
0000
0100
0000
0001
0000
1000
0000
0100
1000
0100
0000
0010
0100
,  // measure 97
0010
0001
0010
0100
1000
0001
0100
0000
,  // measure 98
0010
1000
0001
0000
MMMM
0000
0001
1000
,  // measure 99
0010
0000
1000
0010
1000
0000
0001
0010
0001
0000
0010
0100
0010
0000
0001
1000
,  // measure 100
0010
1000
0100
0010
0001
0100
0010
1000
,  // measure 101
0001
0000
0010
0000
0100
0000
1000
0000
0010
0000
0100
0010
0100
0000
0001
0100
,  // measure 102
0001
0000
1000
0100
1000
0000
0010
0100
0010
0000
1000
0000
0100
0000
0010
0000
,  // measure 103
0001
0000
0100
0010
0100
0000
0001
1000
0001
0000
1000
0100
1000
0000
0001
0100
,  // measure 104
0001
0100
0010
1000
0001
0000
0010
0100
,  // measure 105
0010
0100
0001
1000
0100
0000
1100
0000
,  // measure 106
0101
0000
0000
0000
0110
0000
0000
0000
0002
0000
0000
0003
1000
0000
0000
0000
,  // measure 107
0000
0000
0000
M00M
,  // measure 108
MMMM
M00M
M00M
0000
0MM0
0000
0000
0000
0000
0000
0000
0000
0000
0000
0000
0000
;
