#VERSION:0.83;
#TITLE:Take me back;
#SUBTITLE:;
#ARTIST:YUKIYANAGI;
#TITLETRANSLIT:;
#SUBTITLETRANSLIT:;
#ARTISTTRANSLIT:;
#GENRE:;
#ORIGIN:;
#TAGS:;
#CREDIT:;
#BANNER:Take me back.png;
#BACKGROUND:Take me back-bg.png;
#PREVIEWVID:;
#JACKET:Take me back-jacket.png;
#CDIMAGE:;
#DISCIMAGE:;
#LYRICSPATH:;
#CDTITLE:;
#MUSIC:Take me back.ogg;
#OFFSET:-0.032539;
#SAMPLESTART:82.334862;
#SAMPLELENGTH:15.000000;
#SELECTABLE:YES;
#BPMS:0.000000=175.000000
;
#STOPS:;
#DELAYS:;
#WARPS:;
#TIMESIGNATURES:0.000000=4=4
;
#TICKCOUNTS:0.000000=4
;
#COMBOS:0.000000=1
;
#SPEEDS:0.000000=1.000000=0.000000=0
;
#SCROLLS:0.000000=1.000000
;
#FAKES:;
#LABELS:0.000000=Song Start
;
#BGCHANGES:;
#KEYSOUNDS:;
#ATTACKS:
;

//---------------dance-single - ----------------
#NOTEDATA:;
#CHARTNAME:;
#CHARTHASH:1751672893;
#STEPSTYPE:dance-single;
#BANNER:;
#DESCRIPTION:;
#CHARTSTYLE:;
#DIFFICULTY:Beginner;
#METER:3;
#METERF:3.000000;
#LASTSECONDHINT:126.203964;
#RADARVALUES:0.165196,0.278135,0.083138,0.000000,0.000000,153.000000,142.000000,11.000000,0.000000,0.000000,0.000000,0.000000,0.000000,0.000000,0.165196,0.278135,0.083138,0.000000,0.000000,153.000000,142.000000,11.000000,0.000000,0.000000,0.000000,0.000000,0.000000,0.000000;
#CREDIT:dj VERTICAI;
#NOTES:
0000
0000
0000
0000
,
0000
0000
0000
0000
,
0000
0000
0000
0000
,
0000
0000
0000
0000
,
1000
0000
0000
0000
,
0001
0000
0000
0000
,
1000
0000
0000
0000
,
0010
0000
0100
0000
,
0001
0000
0000
0000
,
0001
0000
0000
0000
,
1000
0000
0000
0000
,
1000
0000
0000
0000
,
0001
0000
0000
0000
,
1000
0000
0000
0000
,
0001
0000
1000
0000
,
0110
0000
0000
0000
,
1001
0000
1000
1000
,
0000
0000
0001
0001
,
0000
0000
1000
1000
,
0000
0001
0001
0001
,
0000
0000
0010
0010
,
0000
0000
0100
0100
,
0000
0000
0010
0010
,
0010
0000
0010
0000
,
1001
0000
0001
0001
,
0000
0000
1000
1000
,
0000
0000
0010
0010
,
0000
0100
0100
0100
,
0000
0000
0001
0001
,
0000
0000
1000
1000
,
0000
0000
0100
0100
,
0010
0000
0010
0000
,
0110
0000
0000
0000
,
0000
0000
0000
0000
,
0000
0000
0000
0000
,
0000
0000
0000
0000
,
1000
0000
1000
0000
,
0100
0000
0000
0000
,
0001
0000
0001
0000
,
0100
0000
0000
0000
,
1000
0000
0100
0000
,
0001
0000
0100
0000
,
0010
0000
0000
0000
,
0010
0000
0000
0000
,
0001
0000
0001
0000
,
0100
0000
0000
0000
,
1000
0000
1000
0000
,
0100
0000
0000
0000
,
0001
0000
0100
0000
,
1000
0000
0100
0000
,
0010
0000
0000
0000
,
0010
0000
0000
0000
,
1000
0000
0000
0000
,
0100
0000
0000
0000
,
0010
0000
0000
0000
,
0001
0000
0000
0000
,
0001
0000
0000
0000
,
0100
0000
0000
0000
,
0010
0000
0000
0000
,
0110
0000
0000
0000
,
1001
0000
0000
0000
,
1000
1000
1000
0000
,
0001
0001
0001
0000
,
1000
1000
1000
0000
,
0110
0000
0000
0000
,
0010
0010
0010
0000
,
0100
0100
0100
0000
,
0010
0010
0010
0000
,
1000
0000
1000
0000
,
0010
0000
0000
0000
,
0100
0000
0100
0000
,
0001
0000
0000
0000
,
0010
0000
0001
0000
,
0010
0000
0100
0000
,
1000
0000
0000
0000
,
0001
0000
0000
0000
,
1001
0000
0000
0000
,
0000
0000
0000
0000
,
1000
0000
0000
0000
,
0001
0000
0000
0000
,
1000
0000
1000
0000
,
0001
0000
0001
0000
,
1000
0000
0001
0000
,
0110
0000
0000
0000
,
1001
0000
1000
1000
,
0000
0000
0001
0001
,
0000
0000
1000
1000
,
0000
0000
0001
0001
,
0000
0000
0100
0100
,
0000
0000
0010
0010
,
0000
0000
0100
0100
,
0100
0000
0000
0000
,
1001
0000
0000
0000
;

//---------------dance-single - ----------------
#NOTEDATA:;
#CHARTNAME:;
#CHARTHASH:3710533814;
#STEPSTYPE:dance-single;
#BANNER:;
#DESCRIPTION:;
#CHARTSTYLE:;
#DIFFICULTY:Easy;
#METER:8;
#METERF:8.000000;
#LASTSECONDHINT:128.946808;
#RADARVALUES:0.320675,0.355226,0.052906,0.188950,0.000000,297.000000,290.000000,7.000000,25.000000,0.000000,0.000000,0.000000,0.000000,0.000000,0.320675,0.355226,0.052906,0.188950,0.000000,297.000000,290.000000,7.000000,25.000000,0.000000,0.000000,0.000000,0.000000,0.000000;
#CREDIT:dj VERTICAI;
#NOTES:
0000
0000
0000
0000
,
0000
0000
0000
0000
,
0000
0000
0000
0000
,
0000
0000
0000
0000
,
1000
0001
0100
0100
,
0001
0001
1000
1000
,
0001
1000
0100
0100
,
0020
0000
0130
0000
,
1000
0100
0010
0100
,
0100
0010
0010
0100
,
1000
0001
0100
0010
,
0010
0100
0100
0001
,
1000
0100
0010
0010
,
0001
0100
0010
0010
,
1000
0001
0010
0100
,
1000
1000
1000
1001
,
0001
0100
0100
0100
,
0010
0100
0100
0100
,
0001
0100
0100
0100
,
0010
0010
0010
0110
,
1000
0100
0100
0100
,
0010
0100
0100
0100
,
1000
0100
0100
0100
,
0010
0100
0010
0100
,
1000
0100
0100
0100
,
1000
0001
0001
0001
,
1000
0010
0010
0010
,
0100
0100
0100
0010
,
0100
0001
0100
0001
,
1000
0100
1000
0100
,
1000
1000
0001
0001
,
0010
0001
0100
0010
,
2000
0000
0000
0000
,
0000
0000
0000
0000
,
3000
0000
0000
0000
,
0000
0000
0000
0000
,
0001
0100
0001
0010
,
0200
0000
0300
0000
,
1000
0010
1000
0100
,
0020
0000
0030
0000
,
0001
0010
0100
1000
,
0100
1000
0001
0100
,
0020
0000
0030
0000
,
0200
0000
0300
0000
,
0001
0100
0010
1000
,
0200
0000
0300
0000
,
1000
0010
0100
0001
,
0020
0000
0030
0000
,
0001
0100
0100
0001
,
1000
0100
0010
0100
,
2000
0000
3000
0000
,
0002
0000
0003
0000
,
1000
0010
1000
0010
,
0100
0100
0001
0100
,
0010
0010
1000
0010
,
0100
0100
0001
1000
,
0100
1000
0001
0010
,
0001
0001
0010
0100
,
1000
0000
0100
0000
0000
0010
0000
0000
,
0022
0000
0000
0033
,
0001
0100
0001
0100
,
0010
0010
1000
0100
,
0010
0010
0001
0100
,
0010
0010
1000
0001
,
1000
0100
0001
0100
,
0010
0010
0100
1000
,
0010
0010
0100
0001
,
0010
0010
0100
1000
,
0002
0003
0001
1000
,
0020
0000
0030
0000
,
2000
3000
0001
0100
,
0020
0000
0030
0000
,
1000
0100
1000
0001
,
0100
0001
1000
0100
,
0020
0000
0000
0030
,
0001
1000
1000
0001
,
0010
0100
1000
0010
,
1000
0100
1000
0010
,
0100
0001
0010
0001
,
0100
0001
1000
0100
,
0010
0010
0010
0001
,
0100
0100
0100
0010
,
1000
0010
0001
0010
,
0200
0000
0300
1001
,
2000
3000
0100
0010
,
0012
0003
0100
0010
,
2010
3000
0100
0010
,
0001
0010
0100
1000
,
0020
0030
1000
0001
,
0020
0030
0001
1000
,
0010
1000
0001
0100
,
0001
0001
1000
1000
,
2002
0000
0000
0000
,
0000
0000
0000
0000
,
3003
0000
0000
0000
;

//---------------dance-single - ----------------
#NOTEDATA:;
#CHARTNAME:;
#CHARTHASH:1510116378;
#STEPSTYPE:dance-single;
#BANNER:;
#DESCRIPTION:;
#CHARTSTYLE:;
#DIFFICULTY:Medium;
#METER:12;
#METERF:12.000000;
#LASTSECONDHINT:128.946808;
#RADARVALUES:0.473995,0.568362,0.287204,0.377900,0.000000,439.000000,401.000000,38.000000,50.000000,0.000000,0.000000,0.000000,0.000000,0.000000,0.473995,0.568362,0.287204,0.377900,0.000000,439.000000,401.000000,38.000000,50.000000,0.000000,0.000000,0.000000,0.000000,0.000000;
#CREDIT:dj VERTICAI;
#NOTES:
0000
0000
0000
0000
,
0000
0000
0000
0000
,
0000
0000
0000
0000
,
0000
0000
0000
0000
,
1000
0000
0001
0000
1000
0010
0100
0000
,
0001
0100
0010
0000
1000
0010
0100
0000
,
0001
0000
0001
0010
0100
0000
0100
1000
,
0010
0000
0000
0010
0100
0000
0000
0000
,
2001
0100
0100
0001
,
0001
0010
0010
3002
,
1000
0100
0100
1000
,
1000
0010
0010
1003
,
0102
1000
0013
1000
,
2100
0001
3010
0001
,
0100
0011
0100
1010
,
0001
0000
0001
0000
0001
1000
0002
0000
,
1003
0000
1100
0000
0010
0001
0010
0001
,
0010
0000
0101
0000
1000
0010
1000
0010
,
1000
0000
1100
0000
0010
0001
0010
0001
,
0010
0000
0100
1000
0001
1000
0001
0000
,
0110
0000
1001
0000
0100
0001
0100
0001
,
0100
0000
1010
0000
1000
0100
1000
0100
,
1000
0000
0011
0000
0001
0100
0001
0100
,
0002
0000
2003
0000
3100
0010
0001
1000
,
0002
0000
0003
0000
1000
0010
1000
0010
,
0100
0000
0011
0000
1000
0100
1000
0100
,
0010
0000
0101
0000
0010
0001
0010
0001
,
1000
0000
0010
1000
0010
1000
0001
0000
,
0100
0000
0110
0000
0010
1000
0010
1000
,
0100
0000
0110
0000
0010
0001
0010
0001
,
0100
0000
0110
0000
1000
0001
1000
0001
,
0020
0001
0230
0010
,
2300
0000
0000
0000
,
0000
0000
0000
0000
,
3000
0000
0000
0000
,
0000
0000
0000
0000
0000
0000
1000
0001
,
0200
0320
0230
0302
,
0023
0000
0000
0000
0030
0000
0001
1000
,
0200
0320
0230
2300
,
3002
0000
0000
0000
0003
0000
1000
0001
,
0020
0100
0032
0100
,
1003
0000
0001
0000
0010
0100
0010
0000
,
2002
0000
0000
3000
,
0010
0000
1000
0000
0103
0000
0100
0010
,
2000
0100
3002
0100
,
0023
0000
0000
0000
0030
0000
0100
0010
,
0002
0010
2003
0010
,
3001
1000
0200
0000
0300
0000
0100
1000
,
0010
0010
0100
0100
,
0002
0000
0203
0000
0320
0000
1030
0001
,
2000
0000
0000
0000
3000
0000
0100
1000
,
0001
0011
1000
1010
,
1000
0100
0001
0100
,
2000
0010
0000
0001
0000
3100
0000
1000
,
0002
0010
0000
1000
0000
0103
0000
0001
,
2000
0010
0000
0001
0000
3010
0000
0010
,
1000
0010
0001
0010
,
2000
0001
0000
0010
0000
3100
0000
0100
,
1000
0000
0001
0000
0100
0010
0000
0010
,
2000
0000
0000
0000
0100
0100
3001
0000
,
1000
1001
0001
1001
,
1000
0010
0000
0100
0000
0010
0000
1000
,
0001
0010
0000
0100
0000
0010
0000
0001
,
1000
0010
0000
0100
0000
0001
0000
1000
,
0001
1001
1000
1001
,
0001
0010
0000
0100
0000
1000
0000
0001
,
1000
0010
0000
0100
0000
0001
0000
1000
,
0001
0010
0000
0100
0000
0010
0001
1000
,
0002
0100
2003
0100
,
3010
0000
0010
0000
0010
0000
1000
0001
,
2000
0100
3002
0100
,
0013
0000
0010
0000
0010
0000
0100
1000
,
0001
0101
1000
1100
,
0002
0000
2003
0000
3010
1000
0010
0100
,
0001
0001
1000
1000
,
0001
0010
0100
0000
1000
0100
0010
0001
,
0020
0000
0000
0000
,
0000
0000
0000
0030
,
1002
0100
1000
0013
,
2001
0100
0001
3010
,
0001
0000
1000
0000
0001
0100
0010
0000
,
1000
0000
0001
0000
1000
0100
0010
0000
,
0001
0100
0010
0000
1000
0100
0010
0000
,
0011
1100
0101
1010
,
1001
0000
0001
0000
1000
0010
0100
0010
,
1000
0000
0011
0000
0010
0001
1000
0001
,
0010
0000
0101
0000
1000
0100
0010
0100
,
1000
0000
0001
0010
0100
0010
0001
0000
,
1000
0000
1000
0000
0001
0100
0010
0100
,
0001
0000
0100
0000
0010
1000
0100
1000
,
0010
0000
0010
0000
1000
0001
0010
0100
,
1000
1100
1001
0101
,
2000
0000
0000
0000
,
0000
0000
0000
0000
,
3000
0000
0000
0000
;

//---------------dance-single - ----------------
#NOTEDATA:;
#CHARTNAME:;
#CHARTHASH:3426552001;
#STEPSTYPE:dance-single;
#BANNER:;
#DESCRIPTION:;
#CHARTSTYLE:;
#DIFFICULTY:Hard;
#METER:14;
#METERF:14.000000;
#LASTSECONDHINT:128.946808;
#RADARVALUES:0.649989,0.745975,0.249414,0.294762,0.071801,602.000000,569.000000,33.000000,39.000000,0.000000,0.000000,0.000000,0.000000,0.000000,0.649989,0.745975,0.249414,0.294762,0.071801,602.000000,569.000000,33.000000,39.000000,0.000000,0.000000,0.000000,0.000000,0.000000;
#CREDIT:dj VERTICAI;
#NOTES:
0000
0000
0000
0000
,
0000
0000
0000
0000
,
0000
0000
0000
0000
,
0000
0000
0000
0000
,
1000
0100
0010
0100
1000
1000
0010
0100
,
0001
0001
0010
0100
1000
1000
0010
0100
,
0001
1000
0001
0001
0010
0100
1000
1000
,
0010
0000
0000
0010
0200
0000
0300
0000
,
0001
0100
0010
0100
1000
0100
0001
0010
,
1000
0010
0001
0100
1000
0100
0001
0001
,
1000
0001
0010
1000
0010
0001
0100
1000
,
0100
0001
0010
0100
1000
1000
1001
0000
,
1000
0001
0100
0001
0010
0001
0010
0001
,
0100
0001
1000
0010
1000
0010
1000
0010
,
0100
0000
0010
1000
0001
0000
0000
0000
0010
0000
0100
1000
0001
0000
0000
0000
,
0010
0000
0100
0000
0100
0000
0010
0000
0001
1000
0001
1000
0002
0000
0000
0000
,
0103
0000
0100
0010
1000
1000
1000
1000
,
0001
1000
0100
0010
0001
0001
0001
0001
,
2000
0000
3010
0100
0001
0001
0001
0010
,
0100
1000
1000
1000
1000
0010
0101
0000
,
1001
0000
1000
0100
0010
0010
0010
0010
,
0100
1000
0001
1000
0100
0100
0100
0100
,
0020
0000
0031
0010
1000
0010
0001
0100
,
0010
0000
1000
0000
0010
0000
0100
0000
0001
0000
0100
0000
0010
0100
0010
0100
,
0002
0000
1003
0010
1000
1000
1000
1000
,
0100
0010
0001
0100
0100
0100
0100
0001
,
2000
0000
3001
0001
0010
0010
0010
0010
,
0100
1000
0001
0001
0001
1000
1100
0000
,
1001
1000
0001
0100
0010
0010
0010
0010
,
0110
0100
0001
1000
0100
0100
0100
0100
,
1000
0001
0010
0100
0010
0001
1000
0010
,
0200
0001
1000
0001
,
0320
0000
0000
0000
,
0000
0000
0000
0000
,
0000
0000
0000
0000
,
0000
0000
0000
0000
0030
0100
0010
1000
,
0002
0010
0100
0010
,
2003
0000
0000
0000
3000
0000
1000
0001
,
2000
0100
0010
0100
,
3001
1000
0002
0000
0003
0000
0001
0100
,
0020
1000
0230
0001
,
0310
0000
0110
0000
0001
1000
0001
0010
,
0200
1000
0320
0001
,
0230
0000
0001
0000
2300
0000
3001
1000
,
0010
0201
0310
1002
,
0203
0000
0000
0000
0300
0000
0100
0001
,
0010
2100
3001
0021
,
0130
1000
0200
0000
0300
0000
1000
0100
,
0020
0001
0230
0010
,
2300
0000
3002
0000
0013
0001
0010
0100
,
2000
0000
0000
0000
3000
0000
0001
1000
,
0001
0101
0110
1010
,
0010
1000
0001
1000
0001
1000
0001
0010
,
0100
1000
0100
0010
0001
1000
0001
0010
,
0100
1000
0100
0010
0001
1000
0001
0100
,
0010
1000
0010
0100
0001
1000
0100
0010
,
0001
0100
0010
0100
0010
0100
0010
1000
,
0001
0010
0100
0010
0001
1000
0001
0100
,
0010
0000
1000
0010
1000
0000
0001
0000
0100
0000
0001
0010
0001
0000
0010
0000
,
0100
1100
1001
0101
,
0001
0100
0010
0100
1000
0100
0010
0100
,
0002
0100
0000
1000
0000
0013
0000
0001
,
2000
0010
0000
0001
0000
3100
0000
1000
,
0002
0010
0000
1000
0000
0100
0000
0013
,
0001
0010
0100
0010
1000
0010
0100
0010
,
0002
0100
0000
1000
0000
0013
0000
0001
,
2000
0100
0000
0001
0000
3010
0000
1000
,
0001
1100
0000
0011
0000
1010
0010
0100
,
0001
0000
0000
0001
0100
0000
0010
0000
1000
0000
0000
1000
0100
0000
0010
0000
,
0001
0010
1000
0010
0001
0100
1000
0100
,
0010
0000
0000
0010
1000
0000
0100
0000
0010
0000
0000
0010
0001
0000
0100
0000
,
0010
0100
0010
0000
0100
0000
0001
0000
1000
0000
0010
0000
1000
0000
0001
0000
,
0010
0000
0000
0010
0001
0000
1000
0000
0100
0000
0000
1000
0001
0000
0100
0000
,
0010
0000
0101
0000
1010
1000
0001
1000
,
0100
0011
1100
1010
,
0101
0001
0100
0010
1000
0001
0010
0100
,
1000
1000
0001
0001
1000
0010
1100
0000
,
0001
0100
0011
0000
1000
0010
1100
0001
,
0010
0000
0001
0010
0101
0000
1000
0100
,
1010
0000
0100
1000
0001
0010
0001
1000
,
0010
0020
0000
0100
1000
1000
1030
0010
,
0100
0200
0000
0010
0001
0001
0301
0100
,
0001
0000
0010
0100
1000
0000
0001
0000
1000
0000
0010
0100
0001
0000
1000
0000
,
0010
0000
0100
0000
0100
0000
0010
0000
1000
0001
1000
0001
2000
0000
0000
0000
,
3001
0100
0010
0100
0001
0001
0001
0001
,
0010
0100
1000
0010
1000
1000
1000
1000
,
0001
0100
0001
1000
0010
0010
0010
0010
,
1000
0001
0010
0010
0010
0100
0110
0000
,
1001
1000
0100
0001
1000
0010
0001
1000
,
0001
0001
0100
1000
0001
0010
1000
0001
,
0010
0001
0100
0010
1000
1000
1000
1000
,
0002
0100
0010
0100
,
2003
0000
0000
0000
,
0000
0000
0000
0000
,
3000
0000
0000
0000
;

//---------------dance-single - ----------------
#NOTEDATA:;
#CHARTNAME:Take me b(r)ack(et);
#CHARTHASH:261127203;
#STEPSTYPE:dance-single;
#BANNER:;
#DESCRIPTION:;
#CHARTSTYLE:;
#DIFFICULTY:Challenge;
#METER:16;
#METERF:16.000000;
#LASTSECONDHINT:128.946808;
#RADARVALUES:0.743924,0.959111,0.544177,0.309878,0.192729,689.000000,617.000000,72.000000,41.000000,0.000000,0.000000,0.000000,0.000000,0.000000,0.743924,0.959111,0.544177,0.309878,0.192729,689.000000,617.000000,72.000000,41.000000,0.000000,0.000000,0.000000,0.000000,0.000000;
#CREDIT:dj VERTICAI;
#NOTES:
0000
0000
0000
0000
,
0000
0000
0000
0000
,
0000
0000
0000
0000
,
0000
0000
0000
0000
,
1000
0100
0001
0100
1000
0010
1000
0100
,
0010
0001
0010
0100
1000
0010
1000
0010
,
0001
0010
1000
0100
1000
0010
0100
0001
,
0010
0000
0000
0010
0100
0000
1001
0000
,
1000
0010
0100
0001
0020
0100
0031
0010
,
0020
0100
0031
0010
0100
1000
0001
0100
,
0010
1000
0020
0100
1030
0010
0020
0100
,
1030
0000
0010
0000
0100
0000
0001
0000
1000
0000
0100
0000
0010
0100
0010
0100
,
0010
0001
0100
0001
0010
0100
1000
0001
,
0100
0010
1000
0010
0100
0001
0010
0100
,
1000
0000
0100
1000
0100
0000
1000
0000
0001
0000
0100
0001
0100
0000
0001
0000
,
0010
0000
0010
0000
0010
0000
0100
0000
1000
0001
0010
0001
2000
0000
0000
0000
,
3010
1000
0001
1000
0101
0010
0101
1000
,
1000
0010
0100
0001
1100
0010
1100
0001
,
0010
0010
0100
1000
0101
0010
0101
1000
,
0001
0001
1100
0001
1100
0010
0110
0000
,
1001
0000
1000
0001
1010
0100
1010
0001
,
0100
0100
0010
1000
0011
0100
0011
1000
,
0002
0000
0013
0001
1010
0001
1010
0100
,
0010
0000
0000
0000
1001
0000
0000
0000
1100
0000
1000
0000
0100
0010
0100
0010
,
0200
0000
1300
0100
1010
0001
1010
0100
,
1000
1000
0010
0100
0011
1000
0011
0100
,
0001
1000
0010
1000
0101
0010
0101
1000
,
0001
0001
1100
0010
1100
0001
0020
0000
,
0130
0000
0000
0000
0100
0000
1000
0000
0010
1000
0010
0000
1010
0000
1000
0000
,
0001
0000
1000
0000
0100
0000
0010
0000
0001
0010
0001
0000
0011
0000
0010
0000
,
0001
0010
1000
0010
0001
0100
1000
0100
,
0010
0000
0100
0000
0001
0000
0100
0010
0100
0010
0100
0000
0001
0000
1000
0000
,
0200
0000
0000
0000
,
0000
0000
0000
0000
,
0000
0000
0000
0000
,
0000
0000
0000
0000
0300
0100
1000
0001
,
0010
1100
0010
0101
,
0220
0000
0000
0000
0330
0000
0010
1000
,
0001
1100
1000
0101
,
0001
1000
0002
0000
0000
0000
0000
0000
0003
0000
0000
0000
0010
0000
0100
0000
,
1000
1001
0110
1001
,
2000
0000
3020
0000
1030
0001
1000
0010
,
0200
0000
0000
0000
0000
0000
0000
1000
,
0000
0010
0000
0001
0300
0001
1000
0100
,
0010
1100
1001
0101
,
2020
0000
0000
0000
3030
0000
0010
1000
,
0001
0011
1001
1010
,
1000
0001
2000
0000
0000
0000
0000
0000
3000
0000
0000
0000
1000
0000
0100
0000
,
0010
0110
1001
0110
,
0002
0000
0203
0000
0301
1000
0001
0010
,
0200
0000
0000
0000
0300
0000
0100
1000
,
0001
0101
0110
1010
,
1000
0001
0100
0001
1000
0100
1000
0001
,
0020
0001
0000
0100
0000
1000
0030
0001
,
0200
0001
0000
0010
0000
1000
0300
0001
,
0020
0001
0000
0100
0000
1000
0030
0001
,
0010
0000
0001
0010
0001
0000
1000
0000
0010
0000
1000
0010
1000
0000
0001
0000
,
0100
0101
0000
1001
0000
1100
0000
1000
,
0100
0000
0010
0001
1000
0000
0010
0000
0100
0000
0010
1000
0001
0000
1000
0000
,
0020
0230
0302
0023
,
0130
1000
0100
1000
0001
0010
0001
1000
,
0100
0000
1000
0010
1000
0000
0100
1000
0100
0000
1000
0000
0001
0000
0010
0000
,
0100
0000
0010
0001
0010
0000
0001
0100
0001
0000
1000
0000
0001
0000
0010
0000
,
0100
0000
1000
0010
1000
0000
0100
1000
0100
0000
1000
0000
0010
0000
1000
0000
,
0001
0100
0001
0100
0010
1000
0010
0100
,
0001
0000
0010
0100
1000
0000
0100
0010
0001
0000
1000
0000
0010
0000
0001
0000
,
0010
0000
0100
0010
1000
0000
0010
0100
0001
0000
1000
0000
0100
0000
1000
0000
,
0001
0000
0010
0100
1000
0000
0100
0010
0001
0000
1000
0000
1001
0000
0000
0000
,
0001
0100
1000
0001
0010
1000
0001
0010
,
0200
0000
1000
0001
0000
0000
0001
1000
0000
0000
0300
0000
0100
0000
1000
0000
,
0001
0010
1000
0001
0100
1000
0001
0100
,
0020
0000
1000
0001
0000
0000
0001
1000
0000
0000
0030
0000
0010
0000
0100
0000
,
0001
0001
0010
0010
0100
0100
1000
1000
,
0020
0000
0100
0000
1030
0010
1000
0001
,
0200
0010
0000
0001
0000
1000
0000
0001
,
0302
0010
0000
1000
0000
0100
0000
0010
,
0013
0001
0010
0100
0020
0100
0031
1000
,
0020
0100
1030
0001
0020
0100
0031
1000
,
0010
1000
0200
0010
1300
0001
0200
0010
,
0301
0000
1000
0000
0001
0000
0010
0000
1000
0000
0010
0000
0001
1000
0001
1000
,
0001
0010
0100
1000
0100
0010
0001
1000
,
0010
0100
0001
0100
0010
1000
0001
0010
,
0100
0000
0010
0001
1000
0000
0010
1000
0001
0000
0100
0001
1000
0000
0001
1000
,
0100
0000
0100
0000
0100
0000
0010
0000
0100
1000
0100
0010
0002
0000
0000
0000
,
0103
0001
0100
0010
1100
0011
1100
0011
,
1000
0001
0010
0100
1010
0101
1010
0101
,
0010
0001
0100
0010
1100
0011
1100
0001
,
1000
0101
1010
0101
1000
0010
0110
0000
,
1001
0000
1000
0000
0100
0000
0001
0000
0100
0000
1000
0100
1000
0000
0001
0000
,
1001
0000
0001
0000
0100
0000
1000
0000
0100
0000
0001
0000
0100
0010
0100
0010
,
1000
0000
1000
0000
0001
1000
0001
1000
0100
0000
0100
0000
0010
0100
0010
0100
,
1000
0000
1000
0000
0001
0000
0001
0000
0100
0001
0100
0010
1000
0000
0000
0000
,
0202
0000
0000
0000
,
0000
0000
0000
0000
,
0303
0000
0000
0000
;
