#VERSION:0.83;
#TITLE:THE DETONATOR;
#SUBTITLE:;
#ARTIST:teranoid VS L.E.D.-G;
#TITLETRANSLIT:;
#SUBTITLETRANSLIT:;
#ARTISTTRANSLIT:;
#GENRE:;
#CREDIT:;
#MUSIC:THE DETONATOR.ogg;
#BANNER:the-detonator-bn.png;
#BACKGROUND:the-detonator-bg.png;
#CDTITLE:;
#SAMPLESTART:24.971;
#SAMPLELENGTH:11.098;
#SELECTABLE:YES;
#OFFSET:0.000;
#BPMS:0.000=173.000;
#STOPS:68.000=1.040
,165.000=1.040
;
#BGCHANGES:;
#FGCHANGES:;

//--------------- dance-single - EmeraldX ----------------
#NOTEDATA:;
#STEPSTYPE:dance-single;
#DESCRIPTION:EmeraldX;
#DIFFICULTY:Beginner;
#METER:4;
#RADARVALUES:0,0,0,0,0;
#NOTES:
0000
0000
0000
0000
,
0000
0000
0000
0000
,
1001
0000
0000
0000
,
0000
0000
0000
0000
,
0000
0000
0000
0000
,
0000
0000
0000
0000
,
0100
0000
0100
0000
,
0100
0000
0100
0000
,
0100
0000
0000
0000
,
0010
0000
0000
0000
,
1000
1000
0000
0000
,
0001
0001
0000
0000
,
1000
0000
0001
0000
,
1000
0000
0000
0000
,
0001
0001
0001
0000
,
1000
1000
1000
0000
,
0001
0000
1000
0000
,
0000
0100
0100
0000
,
0000
0010
0010
0000
,
0000
0100
0100
0000
,
0000
0010
0010
0000
,
0000
1000
1000
0000
,
0000
0001
0001
0000
,
0000
1000
1000
0000
,
0000
0001
0000
1000
,
0000
0001
0001
0000
,
0000
1000
1000
0000
,
0000
0010
0010
0000
,
0000
0100
0100
0000
,
0000
0001
0001
0000
,
0000
0010
0010
0000
,
0000
0100
0100
0000
,
0000
1000
0000
0000
,
0000
0001
0000
0001
,
0000
0001
0000
1000
,
0000
0010
0000
0010
,
0000
0100
0000
0100
,
0000
0010
0000
0010
,
0000
0010
0000
1000
,
0000
0001
0000
0001
,
0000
1000
0000
0001
,
0000
0000
0010
0000
,
0100
0000
0010
0000
,
0100
0000
1000
0000
,
0001
0000
0010
0000
,
0100
0000
0010
0000
,
0100
0000
1000
0000
,
0001
0000
1000
0000
,
0000
0000
0010
0010
,
0000
0000
0010
0010
,
0000
0000
0100
0100
,
0000
0000
0100
0100
,
0000
0000
0010
0010
,
0000
0000
0100
0000
,
0000
0000
0001
0000
,
1000
0000
0001
0000
,
0000
0000
1000
0000
,
0000
0000
1000
0000
,
0000
0000
0001
0000
,
0000
0000
0200
0000
,
0000
0000
0300
0000
,
0000
0000
0010
0000
,
0000
0000
1000
0000
,
0000
0000
0001
0000
,
0000
0000
1001
0000
,
0000
0000
0000
0000
,
0000
0000
0000
0000
,
0000
0000
0000
0000
,
0000
0000
0000
0000
,
0000
0000
0000
0000
,
0000
0000
0000
0000
,
0000
0000
0000
0000
,
0000
0000
1001
0000
,
0000
0000
1001
0000
,
0000
0000
1001
0000
,
0000
0000
1000
0000
,
0001
0000
1000
0000
,
1000
0000
1000
0000
,
1000
0000
0002
0000
,
0000
0000
0003
0000
,
0000
0000
0100
0000
,
0100
0000
0010
0000
,
0010
0000
1000
0000
,
1000
0000
0001
0000
,
0001
0000
1000
0000
,
0100
0000
1000
0000
,
0100
0000
0010
0000
,
0001
0000
0010
0000
,
0001
0000
1000
1000
,
1000
0000
1000
1000
,
1000
0000
0001
0001
,
0001
0000
0001
0001
,
0001
0000
0100
0000
,
0010
0000
1000
0000
,
0001
0000
0100
0000
,
0010
0000
0100
0000
,
0000
0000
1001
0000
;

//--------------- dance-single - EmeraldX ----------------
#NOTEDATA:;
#STEPSTYPE:dance-single;
#DESCRIPTION:EmeraldX;
#DIFFICULTY:Easy;
#METER:7;
#RADARVALUES:0,0,0,0,0;
#NOTES:
0000
0000
0000
0000
,
0000
0000
0000
0000
,
1001
0000
0000
0000
,
0000
0000
0000
0000
,
0000
0000
0000
0000
,
0000
0000
0000
0000
,
0010
0010
0010
0000
,
0100
0100
0100
0000
,
0001
1000
0100
0010
,
0100
0000
0010
0000
,
0001
0001
0100
0000
,
0010
0010
1000
0000
,
0100
0010
0001
1000
,
0010
0100
0010
0000
,
1000
1000
1000
1000
,
0001
0001
0001
0001
,
1000
0100
0010
0001
,
0000
1000
1000
0010
,
0100
0010
0010
0100
,
0001
0100
0100
0001
,
1000
0001
0001
1000
,
0100
0010
0010
0001
,
0100
0010
0010
1000
,
0001
0100
0100
0001
,
1000
0100
0100
0020
,
0000
0031
1000
0001
,
0100
0010
1000
0001
,
1000
0100
0010
0001
,
1000
0010
0100
0010
,
0010
1000
0001
0100
,
0010
1000
0001
1000
,
0100
0010
0001
1000
,
0001
2002
0000
0000
,
3003
1000
0001
0100
,
0001
1000
0001
0010
,
0010
0001
0100
0001
,
1000
0100
0100
1000
,
1000
0010
0100
0010
,
1000
0010
0100
0001
,
0001
0100
0010
0100
,
0001
0100
0010
1000
,
0001
0000
1000
0100
,
0010
0001
0001
0010
,
0100
1000
0001
0100
,
0010
1000
0001
0100
,
0010
1000
1000
0010
,
0100
0001
1000
0100
,
0010
0100
0010
0010
,
0020
0000
0031
0001
,
1000
0010
0100
0100
,
0010
1000
0001
0001
,
0010
0100
1000
1000
,
0002
1003
0001
0001
,
2000
0000
3001
0000
1001
0000
0000
1000
,
0000
0020
1030
0100
,
0010
0001
1000
0010
,
0100
0100
0100
0000
0010
0000
0000
0000
,
1000
0000
0001
0000
,
0010
0000
0100
0000
,
0010
0000
0200
0000
,
0000
0000
1300
0000
,
0001
0000
0010
0000
,
0100
0000
1000
0000
,
0001
0000
0100
0010
,
1000
0001
1001
0000
,
0000
0000
0000
0000
,
0000
0000
0000
0000
,
0000
0000
0000
0000
,
0000
0000
0000
0000
,
0000
0000
0000
0000
,
0000
0000
0000
0000
,
0000
0000
0000
0000
,
0000
0000
1001
0000
,
0000
0000
0110
0000
,
0000
0000
1001
0000
,
0000
0000
0000
1000
0000
0001
0000
1000
,
0001
0000
1000
1000
,
0100
0100
0010
0010
,
0001
0001
1000
0010
,
0100
0001
0010
0000
,
0000
0000
0100
1000
,
0001
0100
1000
0100
,
0001
0010
1000
0010
,
0001
0100
0010
1000
,
0100
0001
0100
0100
,
0010
0001
1000
0010
,
0100
0010
1000
1000
,
0001
0001
0010
0001
,
1000
0000
0010
0000
0100
0000
0000
0010
,
0000
0010
0000
0000
1000
0000
0000
0001
,
0000
0001
0000
0000
1000
0000
0000
0100
,
0000
0100
0000
0000
0010
0000
0000
0001
,
0000
0001
0000
0000
1000
0000
1000
0000
,
1000
1000
0010
0100
,
0001
1000
0100
0100
,
0010
0010
0001
1000
,
0001
1000
1001
0000
;

//--------------- dance-single - EmeraldX ----------------
#NOTEDATA:;
#STEPSTYPE:dance-single;
#DESCRIPTION:EmeraldX;
#DIFFICULTY:Medium;
#METER:10;
#RADARVALUES:0,0,0,0,0;
#NOTES:
0000
0000
0000
0000
,
0000
0000
0000
0000
,
0020
0000
0000
0000
,
0000
0000
0000
0000
,
0000
0000
0000
0000
,
0000
0000
0000
0030
,
1001
1001
1100
1100
,
1001
0101
0110
1010
,
0001
0010
0100
1000
,
0010
0100
0020
1000
,
1030
0001
1000
0000
0100
0000
0010
0000
,
0001
1000
0001
0000
0100
0000
0010
0000
,
1000
1000
1000
0000
0001
0010
0001
0000
,
1000
0100
0010
0010
,
0001
0100
0010
1000
,
0001
1000
0100
0010
,
0001
1000
0001
0000
1000
0001
1000
0000
,
0010
0110
0110
0010
,
1000
1001
1001
0001
,
0100
0101
0101
0001
,
1000
0000
1100
0000
1100
0000
1000
0001
,
0100
0110
0110
0010
,
1000
1001
1001
0001
,
0010
0011
0011
0001
,
1000
1010
1010
1002
,
2003
3001
0101
1000
,
1100
0001
0100
0010
,
1000
0001
0011
1000
,
1010
0000
0001
0000
0100
0000
0010
1000
,
0001
1000
1001
0001
,
1001
1000
0010
0100
,
0001
0010
0110
0100
,
0110
2002
0000
0000
,
3003
0000
0001
1000
0100
0000
1000
0001
,
0100
0000
0001
1000
0100
0000
0010
0000
,
0001
0000
1000
0001
0010
0000
0001
1000
,
0010
0110
1001
0100
,
0010
0000
1000
0001
0010
0000
0010
0001
,
1000
0000
0010
1000
0001
0000
0101
0000
,
1100
0000
0001
0100
0010
0000
1000
0100
,
0010
0002
0203
0320
,
2030
0000
3001
0000
1000
0100
0010
0100
,
1000
0000
0001
0000
0100
0010
1000
0000
,
0100
0010
0001
0000
1000
0010
0100
0000
,
0010
0000
0010
0000
1000
0001
0010
0000
,
0001
1000
0010
0000
1000
0001
0100
0000
,
0101
0000
1010
0000
0001
0100
0010
0000
,
1000
0100
0010
0000
0002
0000
2003
0000
,
3020
0000
0230
0000
0301
0001
0001
0000
,
1000
0000
0100
0100
1000
0000
0010
0000
,
0100
0000
0001
0000
1000
0000
0100
0100
,
0100
0000
0010
0001
0010
0000
0001
0000
,
0100
0010
1000
0000
0001
0000
1000
0000
,
0100
0010
0001
0000
1001
0000
0000
0110
,
0000
1001
0001
1000
,
0010
0000
0100
0000
0001
1000
0001
1000
,
0001
0001
0001
0000
1000
0000
0100
0000
,
0010
0001
1000
0010
,
0100
0001
1000
0001
,
0010
0100
2000
3002
,
0023
0000
0031
1000
,
0010
0100
0001
1000
,
0100
0010
0001
0001
,
1000
1000
0010
0100
,
0001
1000
0001
0000
1001
0000
0000
0000
,
0000
0000
0000
0000
,
0000
0000
1000
0000
,
0000
0000
0010
0000
,
0100
0000
0010
0000
,
0000
0000
1000
0000
,
0001
0000
0010
0000
,
0000
0000
0100
0000
,
1000
0000
1001
0000
,
0000
0000
0000
0110
0110
0000
0000
0000
,
0000
0000
1000
0001
1001
0000
0000
0000
,
0000
0000
0000
1001
0000
0110
0000
1001
,
1001
0000
0001
1000
,
0100
0000
0010
0000
0001
1000
0010
0000
,
0100
0001
1000
0000
0010
0100
0010
0100
,
0010
0100
0010
0100
0010
0000
0000
0000
,
0000
0000
0000
0000
0100
0001
0000
1000
,
0000
0100
0000
1000
0000
0001
0000
0100
,
0000
0010
0000
1000
0001
0010
0000
0001
,
0000
1000
0000
0010
0000
0100
0000
0001
,
1000
0001
1000
0100
0010
0010
0010
0000
,
0001
0100
0000
0001
0000
1000
0100
0000
,
1000
0010
0000
1000
0000
0001
0100
0000
,
0010
1000
0000
0001
1000
0000
0100
0000
,
0220
0000
0330
0000
0001
1000
0000
0010
,
0000
0010
0000
0100
0001
1000
0000
0100
,
0000
0100
0000
1000
0001
0010
0000
0001
,
0000
0001
2000
0000
3001
0100
0000
0010
,
0000
0100
0000
0001
1000
0000
1000
0000
,
0100
0000
0100
0000
0010
0001
1000
0000
,
0010
1000
0001
0000
0100
0010
1000
0100
,
0020
0032
2003
0000
,
0000
3001
0220
0000
,
0000
0000
0000
0000
,
0000
0000
0000
0000
,
0000
0000
0000
0000
,
0000
0330
0000
0000
;

//--------------- dance-single - EmeraldX ----------------
#NOTEDATA:;
#STEPSTYPE:dance-single;
#DESCRIPTION:EmeraldX;
#DIFFICULTY:Hard;
#METER:14;
#RADARVALUES:0,0,0,0,0;
#NOTES:
0000
0000
0000
0000
,
0000
0000
0000
0000
,
2002
0000
0000
0000
,
0000
0000
0000
0000
,
0000
0000
0000
0000
,
0000
0000
3003
0000
,
0110
0000
0010
1000
0001
0000
0100
0000
,
0001
0010
0001
0010
0100
1000
0001
0000
,
1000
0010
0100
0010
1000
0001
0100
0000
,
0010
1000
0010
1000
0001
0010
0100
1000
,
0001
0100
0001
1000
0001
0010
0001
0100
,
0010
1000
0010
0100
0010
0001
0010
1000
,
0001
0010
0100
1000
0001
0100
1000
0100
,
0010
0100
0001
1000
0100
0010
0001
1000
,
0001
0001
1000
1000
0010
0010
1000
0001
,
0100
0100
0100
0001
1000
1000
0001
0001
,
1000
0000
0100
0000
0010
0000
0001
0000
1000
0001
1000
0001
1000
0001
1000
0001
,
2000
3000
0000
0000
1001
0000
0000
0000
0101
0000
0100
0000
0010
0000
1000
0000
,
0001
0010
0011
0000
1001
1000
0010
1000
,
0001
0100
0110
0000
1010
1000
0100
0010
,
0100
0000
1000
0000
1001
0000
0000
0000
0101
0000
0100
0000
0010
0100
0010
0000
,
0100
0010
0100
0000
0110
0000
0000
0000
1010
0000
1000
0000
0001
0000
0010
0000
,
0001
1000
1100
0000
0101
0100
0010
1000
,
0001
0000
0010
0001
0010
0000
0100
0000
0010
0000
0001
0000
1000
0000
0000
0000
,
0010
0000
0000
1000
0000
0000
0001
0000
0000
0100
0000
0000
0001
0000
0000
1000
0000
0000
0010
0000
0000
0000
0010
0000
,
1000
0000
0001
0000
1000
0000
0100
0000
0000
0000
0000
0000
0110
0000
0000
0010
0000
0000
0001
0000
0000
1000
0000
0000
,
0010
0100
0110
0000
0110
0100
0001
0010
,
1000
0010
0011
0000
1100
1000
0010
0100
,
0010
0000
1000
0000
1001
0000
0000
0000
0011
0000
0001
0000
1000
0001
1000
0000
,
0001
1000
0001
0000
1001
0000
0000
0000
1010
0000
1000
0000
0100
0000
0010
0000
,
0100
1000
1100
0000
0101
0100
0010
0001
,
0010
1000
1100
0000
0101
0100
0001
1000
,
0100
1000
2002
0000
0000
0000
0000
0000
,
3003
0000
0000
0000
0001
0000
1000
0000
0100
0010
0100
0000
1000
0000
0001
0000
,
0100
0010
0100
0000
0001
0000
1000
0000
0010
0100
0010
0000
1000
0000
0001
0000
,
1000
0000
0100
0000
0010
0000
0001
0000
1000
0001
1000
0000
0010
0000
1000
0000
,
0001
1000
0001
0000
1000
0000
0010
0100
0010
0000
1000
0000
0001
0000
0010
0000
,
1000
0000
0010
0000
0001
0000
1000
0000
0010
0100
0010
0000
1000
0000
0001
0000
,
0010
0100
0010
0000
0001
0000
1000
0000
0100
0010
0100
0000
1000
0000
0001
0000
,
0100
0000
0001
0000
1000
0000
0010
0000
1000
0001
1000
0000
0100
0000
1000
0000
,
0001
1000
0001
0000
2000
0000
3010
0000
0002
0000
0013
0000
2000
0000
3200
0000
,
0310
0000
0000
0000
0001
0000
0000
0000
0010
0000
0000
0000
0002
0000
0000
0003
0000
0000
0000
0000
0000
0000
0000
0000
1001
0000
0000
0000
0000
0000
1000
0000
0000
0000
0000
0000
0001
0000
0000
0100
0000
0000
0001
0000
0000
0000
0000
0000
,
1000
0000
0001
0010
0001
0000
1000
0000
0010
0000
0100
0000
0010
1000
0010
0000
,
0100
0000
0010
0000
0100
0001
0100
0000
0001
0000
1000
0001
1000
0000
0001
0000
,
1000
0000
0100
0000
0001
0000
0100
0000
1000
0000
0010
0000
0100
0001
0100
0000
,
0010
0000
1000
0000
0100
1000
0100
0000
1000
0000
0001
0000
1000
0010
1000
0000
,
0001
0000
0010
0000
1000
0000
0010
0000
0001
0000
1000
0000
0001
0100
0001
0000
,
1000
0000
0001
0000
1000
0010
1000
0000
0010
0000
0010
0000
1000
0000
1000
0000
,
0001
0000
0010
0000
0100
1000
0100
0000
1100
0000
1000
0000
1000
0000
0000
0000
,
0001
0100
1000
0100
0101
0000
1100
0000
,
0011
0001
0100
0010
0110
0000
1001
0000
,
0110
0010
1000
0001
0101
0000
1100
0000
,
1000
0001
1000
0000
0001
1000
0001
0000
1001
0000
0000
0000
0011
0000
0000
0000
,
1100
1000
1001
0000
0022
0000
0033
0220
,
0000
0330
2200
3300
1001
0001
1000
1000
,
0010
0100
0010
1000
0002
0013
2000
3010
,
0002
0003
0000
0000
0002
0003
0000
0000
0002
0003
0000
0000
0000
0000
0000
0000
1001
0000
0000
0000
0000
0000
0000
0000
1000
0000
0000
0000
0000
0000
0000
0000
,
1010
1000
0011
0001
,
1100
1001
0101
1000
,
1100
0000
0000
0000
0001
0000
0000
0000
1000
0010
1000
0000
0001
0010
0001
0000
,
1000
0001
1000
0001
1000
0001
1000
0001
1000
0000
0000
0000
1000
0000
0000
0000
,
0001
0001
0010
0001
,
1000
0001
0100
0100
,
0010
0010
1000
0001
,
0010
0100
0010
0100
0010
0000
0000
0000
1001
0000
0000
0000
0000
0000
0000
0000
,
0000
0000
0000
0000
,
0000
0000
1000
0100
,
1000
1000
0000
0001
0000
0010
0001
0000
,
1000
0001
0000
0100
0000
0001
0010
0000
,
0001
1000
0000
0001
0000
1000
0010
0000
,
1000
0001
0000
1000
0000
0100
0100
0000
,
0010
0010
0000
0001
0000
1000
0010
0000
,
1000
0001
0010
0100
0110
0000
0000
0000
,
0000
0000
1000
0001
1001
0000
0000
0000
,
0000
0000
0000
0000
1000
0010
1000
0010
1000
0000
0000
0000
0000
0000
0000
0000
,
0000
0000
0000
0011
0000
1001
0000
1010
,
0110
0000
0000
0000
0000
0000
1000
0001
1000
0000
1000
0000
0100
0000
0100
0000
,
0010
0010
0001
0001
1000
1000
0010
0010
,
0100
0100
0001
0001
1000
0100
0001
0100
,
1000
0001
1000
0001
1000
0001
1000
0001
1000
0000
0000
0000
0000
0000
0000
0000
,
0000
0000
0000
0000
0001
0010
0100
0001
,
0100
1000
0010
0100
1000
0100
0001
1000
,
0001
0010
1000
0010
0001
1000
0010
0100
,
1000
0100
0001
0010
0100
0001
0100
1000
,
0010
0001
0010
0100
0110
0010
0010
0000
,
1000
0001
0010
0001
0100
0010
0010
0000
,
1000
0100
0010
0001
0101
0100
0010
0010
,
1010
0000
1000
0000
1001
0000
0001
0000
0101
0000
0000
0100
0000
0000
0010
0000
,
1000
0000
0001
1000
0000
0000
0001
0000
0011
0000
0010
0000
0100
0000
1100
0000
,
0000
1001
0000
0100
0101
0001
0010
0011
,
0000
0000
1001
0000
0000
0000
1000
0010
1000
0000
0001
0000
0010
0000
0011
0000
,
0000
1001
0000
1000
1010
1000
0100
0010
,
0110
0010
0011
0001
1001
1000
0001
0001
,
0100
0100
0010
0010
1000
0010
0001
0010
,
1000
0000
0001
0000
1000
0000
0100
0000
0010
0001
0010
0000
0001
1000
0001
0000
,
2000
3010
0200
0301
1000
0100
0001
0100
,
1000
0010
0110
0000
2002
0000
0000
0000
,
0000
0000
0000
0000
,
0000
0000
0000
0000
,
0000
0000
0000
0000
,
0000
3003
0000
0000
;

//--------------- dance-single - EmeraldX ----------------
#NOTEDATA:;
#STEPSTYPE:dance-single;
#DESCRIPTION:EmeraldX;
#DIFFICULTY:Challenge;
#METER:17;
#RADARVALUES:0,0,0,0,0;
#NOTES:
0000
0000
0000
0000
,
0000
0000
0000
0000
,
0220
0000
0000
0000
,
0000
0000
0000
0000
,
0000
0000
0000
0000
,
0000
0000
0000
0000
0330
0010
1000
0001
,
1001
0000
0011
0001
1001
0000
1010
0000
,
0110
0000
0100
0000
0001
0000
1000
0000
0100
0000
0010
0100
0010
0000
0001
0000
,
1000
0000
0010
0000
0100
0000
0001
0000
0010
0000
0001
0000
0100
0000
0010
0100
,
0010
0000
1000
0000
0001
0000
1000
0000
0100
0000
0010
0001
0010
0000
0100
0000
,
1100
1000
0001
0100
0001
0010
0100
0001
,
0100
0000
1000
0000
1000
0000
0010
0000
1000
0000
0001
0000
0100
0000
0001
1000
,
0100
0100
0100
1000
0001
1000
0010
0100
,
0001
0000
0000
0000
0000
0000
0010
0000
0000
0001
0000
0000
1000
0000
0000
0000
0000
0000
0001
0000
0000
0000
0000
0000
0200
0000
0000
0000
0000
0000
0000
0000
0000
0000
0000
0000
0310
0000
0000
0000
1000
0000
0000
0000
0010
0000
0000
0000
,
1000
0000
1000
0000
0001
0000
0001
0000
0010
0000
0010
0000
0010
0000
0010
0001
,
1000
0000
1000
0000
0100
0000
0010
0000
0001
1000
0001
0000
1000
0000
0010
0000
,
0100
0001
0100
0001
1000
0010
1000
0010
1000
0100
0010
0001
0100
0010
1000
0001
,
0020
0030
0000
0000
1100
0000
1000
0000
1001
0000
0001
0000
0010
0000
0001
0000
,
1000
0010
0100
0010
0110
0100
0001
1000
,
0100
0000
0010
0001
1000
0000
0001
0000
0011
0000
0010
0000
0100
0000
0100
0000
,
1000
0000
0001
0100
0010
0000
1000
0100
0010
0000
0001
0000
1000
0010
1000
0010
,
0100
0010
1000
0001
0010
0000
0001
0000
1001
0000
1000
0000
0010
0000
1000
0000
,
0001
0010
0001
0100
0110
0010
1000
0100
,
1000
0000
0001
0100
0010
0000
1000
0000
0001
0000
0010
0000
0100
0000
1000
0000
,
0010
0000
0000
0000
0000
0000
0100
0000
0000
0001
0000
0000
2000
0000
0000
0000
0000
0000
3100
0000
0000
0000
0000
0000
0002
0000
0000
0000
0000
0000
0103
0000
0000
0000
0000
0000
1000
0000
0000
0000
0000
0000
0000
0000
0010
0000
0000
0000
,
0100
0000
0001
0000
0010
0000
0110
0000
0000
0100
0000
0000
1100
0000
0000
1000
0000
0000
0001
0000
0000
0100
0000
0000
,
0010
0001
0010
1000
1001
0001
0010
1000
,
0010
0010
0001
1000
1010
0010
0100
1000
,
0100
0000
0100
0000
0010
0000
0100
0000
0110
0000
0010
0000
1000
0001
1000
0001
,
0010
0001
0100
0010
1000
0000
0001
0000
0101
0000
0100
0000
0010
0000
1000
0000
,
0100
0001
0100
1000
1010
0010
0100
1000
,
0100
0000
0010
0100
0001
0000
0010
0000
0110
0000
0100
0000
1000
0000
0002
0000
,
0013
0000
0000
0200
0000
0000
1300
0000
0000
0000
0001
0000
0000
0000
0100
0000
0000
0000
0020
0000
0000
0000
0000
0000
,
0000
0000
0000
0000
1030
0000
0001
0000
1000
0100
0010
0000
0100
0000
1000
0000
,
0001
0100
0010
0100
0001
0000
1000
0000
0100
0010
0001
0000
1000
0000
0010
0100
,
0001
0000
1000
0001
0010
0000
0100
0000
0100
1000
0001
0000
0100
0000
0010
0000
,
0010
1000
0001
0000
1000
0001
1000
0001
1000
0000
0001
0000
1000
0100
1000
0000
,
0001
0100
0001
0000
1000
0000
0001
0000
1000
0010
0100
0000
0001
0000
1000
0001
,
0020
0000
0130
0000
1000
0000
0001
0000
0100
0010
1000
0000
0010
0000
0100
0001
,
1000
0000
1000
0010
0100
0000
0010
0000
0100
0001
1000
0000
0100
0010
0100
1000
,
0001
0000
0000
1000
0000
0000
0000
0000
0000
1000
0000
0000
0002
0000
0000
0000
0000
0000
1003
0000
0000
0100
0000
0000
0020
0000
0000
0000
0000
0000
0130
0000
0000
1000
0000
0000
0001
0000
0000
0000
1000
0000
0000
0000
0010
0000
0000
0000
,
0100
0000
0000
0000
0001
0000
0000
0000
1000
0000
0000
0000
0200
0000
0000
0300
0000
0000
0000
0000
0000
0000
0000
0000
0010
0000
0000
0000
0000
0000
0001
0000
0000
0000
0000
0000
1000
0000
0000
0010
0000
0000
0100
0000
0000
0000
0000
0000
,
1000
0000
0100
0001
1000
0000
0001
0000
0010
0000
0001
0000
1000
0010
0100
0000
,
0010
0000
0001
0000
0010
1000
0001
0000
1000
0000
0100
0010
0001
0000
1000
0000
,
0002
0000
0013
0000
2000
0000
3010
0000
0001
0000
1000
0000
0001
0100
1000
0000
,
0100
0000
0001
0000
1000
0100
0010
0000
1000
0000
0010
0000
0001
1000
0010
0000
,
0100
0000
1000
0100
0001
0000
0010
0000
0001
0000
1000
0000
0010
1000
0001
0000
,
0010
0000
1000
0000
0010
0001
1000
0000
0001
0100
0001
0100
0001
1000
0010
1000
,
0010
0100
0000
0100
0010
1000
0001
1000
0001
0000
0001
0000
0011
0000
0010
0000
,
0100
0000
1000
0000
0010
0000
0100
0001
1000
0000
0001
0000
0101
0000
0100
0000
,
0010
0000
0010
0000
1000
0001
0100
0000
0010
0000
1000
0001
0010
0000
0010
0000
,
0100
0000
1000
0000
0001
0000
0100
0001
1000
0000
0001
0000
0010
0000
0001
0000
,
1000
0010
1000
0010
0100
0001
0100
0001
1000
0000
0000
0100
0010
0000
0100
0000
,
1000
0000
1000
0000
1001
0000
0000
0000
0010
0001
0010
0001
0010
0000
0001
1000
,
0001
1000
0001
0000
1000
0010
1000
0010
0100
0000
0100
0000
0001
0000
0001
0000
,
1000
0001
1000
0001
1000
0100
1000
0100
1000
0001
0100
0010
1000
0001
0010
0100
,
2000
3000
0000
0000
2000
3000
0000
0000
2002
3003
0000
0000
0000
0000
0000
0000
1001
0000
0000
0000
0000
0000
0000
0000
0001
0000
0000
0000
0000
0000
0000
0000
,
0100
0100
0010
1000
,
0010
0010
0100
0001
,
1000
0000
0000
0000
1000
0000
0000
0000
0001
0010
0001
0010
0100
1000
0100
1000
,
0001
1000
0001
1000
0001
1000
0001
1000
0001
0000
0000
0000
1000
0000
0000
0000
,
0010
0100
0010
1000
,
0001
0010
0100
1000
,
0001
0000
0000
0000
0100
0000
0000
0000
0010
0000
0000
0000
0100
0010
0100
0010
,
1000
0001
0010
0100
0010
0000
0000
0000
0110
0000
0000
0000
0000
0000
0000
0000
,
0000
0000
0000
0000
,
0000
0000
2000
0000
,
0001
0000
0000
3002
0000
0010
0010
0000
,
0100
0100
0100
0203
0000
0001
0000
0000
,
0010
0000
0000
0320
0000
1000
1000
0000
,
0100
0100
0000
2030
0000
3200
0010
0000
,
0320
0001
0000
0032
0000
1000
2003
0000
,
3010
0020
0100
0130
0110
0000
0000
0000
,
0000
0000
0000
0110
1001
0000
0000
0000
,
0000
0000
0000
0000
1000
0100
0010
0001
1000
0000
0000
0000
0000
0000
0000
0000
,
0000
0000
0000
0101
0000
1100
0000
0101
,
1100
0000
0000
0000
0000
0000
1000
0001
0100
0000
0010
0000
1000
0000
0010
0000
,
0100
0001
0100
0010
1010
1000
0001
0010
,
0011
0000
0001
0000
1000
0000
0100
0000
1000
0001
1000
0001
0100
0001
0100
0001
,
1000
0010
0100
0010
1000
0001
0100
0010
2000
0000
0000
0000
0000
0000
0000
0000
,
0000
0000
0000
0000
0000
0000
0000
0000
3001
0000
0010
0001
1000
0000
0001
0100
,
0010
0000
1000
0001
0100
0000
0010
1000
0001
0000
1000
0100
0010
0000
0001
1000
,
0010
0000
1000
0010
0100
0000
0100
0000
0100
0000
0001
1000
0100
0000
0010
0001
,
1000
0000
0010
1000
0001
0000
0100
0010
1000
0000
0001
0010
0100
0000
1000
0001
,
0200
0000
0310
0000
2000
0000
3001
0100
0010
0000
0010
0000
0010
0000
1000
0000
,
1010
0010
0100
0101
0001
1000
1100
1000
,
1001
0000
0001
0000
0010
0000
0010
0100
1000
0000
0001
0000
0001
0000
0100
0000
,
0110
0000
0010
0000
2000
0000
3010
0000
1010
0000
0000
0110
0000
0000
0101
0000
,
1001
0000
0001
0020
0000
0000
0000
0000
0130
1000
0100
0000
0010
0000
0011
0000
,
0000
0000
1001
0000
0000
0000
1000
0000
0001
0100
0001
0000
1000
0000
1010
0000
,
0000
0000
0110
0000
0100
0000
0001
0000
1000
0100
1000
0000
0001
0000
0101
0000
,
0000
0000
0110
0000
0010
1000
0010
1000
0001
0010
0001
0000
1000
0000
0010
0000
,
0110
0100
0101
0001
1001
1000
1000
0010
,
0110
0000
0100
0000
0100
0000
0001
0000
1000
0100
1000
0001
0100
0010
0100
0001
,
1000
0010
0100
0001
1000
0001
0010
0100
1000
0001
0100
0010
1000
0010
0001
0010
,
0200
0302
2003
3200
0310
0001
0010
0001
,
1000
0010
0110
0100
2002
0000
0000
0000
,
0000
0000
0000
0000
,
0000
0000
0000
0000
,
0000
0000
0000
0000
,
0000
3003
0000
0000
;
