#TITLE:Swiss Colony Beef Log;
#SUBTITLE:;
#ARTIST:Eric Cartman;
#TITLETRANSLIT:;
#SUBTITLETRANSLIT:;
#ARTISTTRANSLIT:;
#CREDIT:;
#BANNER:Swiss Colony Beef Log.png;
#BACKGROUND:Swiss Colony Beef Log-bg.png;
#LYRICSPATH:;
#CDTITLE:;
#MUSIC:Swiss Colony Beef Log.ogg;
#OFFSET:-0.371;
#SAMPLESTART:13.942;
#SAMPLELENGTH:12.000;
#SELECTABLE:YES;
#BPMS:0.000=70.161,1.000=70.160,2.000=69.622,4.000=70.457,5.000=66.274,6.000=70.361,7.000=71.703,8.000=69.216,9.000=69.215,10.000=70.320,11.000=70.318,12.000=69.546,13.000=69.540,14.000=70.189,16.000=69.443,17.000=69.441,18.000=74.286,19.000=71.709,20.000=70.070,21.000=69.830,22.000=69.551,23.000=72.222,24.000=67.865,25.000=65.706,26.000=71.589,27.000=72.848,28.000=56.437,28.500=63.353,29.000=58.511,30.000=70.915,31.000=76.700,32.000=73.005,34.000=66.977,35.000=75.814,36.000=71.192,37.000=71.190,38.000=67.987,39.000=67.986,40.000=68.905,41.000=74.621,42.000=70.428,43.000=69.665,44.000=76.669,45.000=66.965,46.000=66.176,47.000=61.141,48.000=74.070,49.000=70.423,50.000=71.043,51.000=71.206,52.000=72.618,53.000=66.251,54.000=69.075,55.000=73.207,56.000=66.828,57.000=71.035,58.000=72.116,59.000=74.708,60.000=60.383,61.000=74.453,62.000=91.472,63.000=62.152,64.000=73.051,65.000=73.058,66.000=70.314,67.000=76.015,68.000=69.445,69.000=71.367,70.000=72.192,71.000=74.201,72.000=68.220,73.000=71.202,74.000=73.744,75.000=73.851,76.000=72.535,77.000=66.965,78.000=76.015,79.000=77.534,80.000=66.336,80.750=94.689,81.000=71.207,82.000=70.314,83.000=78.124,84.000=72.116,85.000=77.350,86.000=72.788,87.000=74.012,88.000=66.054,89.000=70.407,89.750=72.788,90.000=78.266,90.250=66.369,90.500=84.203,91.000=70.481,91.500=70.718,91.750=77.134,92.000=64.987,92.250=70.794,92.500=97.094,93.000=63.774,93.500=71.394,94.000=72.788,94.250=76.633,95.000=72.096,96.000=70.139,97.000=69.050,98.000=75.000,99.000=74.014,100.000=70.314,101.000=66.965,104.000=69.445,105.000=66.965,106.000=73.051,107.000=74.727,108.000=74.820,109.000=69.843,110.000=74.012,111.000=71.198,112.000=166.091,113.000=164.113,114.000=165.251,115.000=167.925,116.000=134.104,117.000=168.535,118.000=148.028,120.000=167.915,121.000=167.904,122.000=167.915,123.000=167.904,124.000=170.457,126.000=160.714,128.000=170.457,129.000=170.446,130.000=170.457,131.000=200.166,132.000=168.428,133.000=197.360,134.000=158.453,136.000=173.077,138.000=169.550,139.000=163.505,140.000=165.821,141.000=169.909,142.000=172.625,143.000=183.343,144.000=183.648,145.000=204.545,146.000=170.457,148.000=181.457,149.000=193.322,150.000=168.396,151.000=184.957,152.000=193.974,153.000=186.944,154.000=175.779,155.000=198.574,156.000=169.572,157.000=190.675,158.000=163.041,159.000=169.735,160.000=166.908,161.000=182.332,162.000=171.451,163.000=160.714,164.000=192.115,165.000=171.907,166.000=193.960,167.000=170.457,168.000=192.703,169.000=166.373,170.000=175.779,172.000=170.457,173.000=175.779,174.000=193.974,175.000=175.779,177.000=181.457,178.000=170.446,179.000=187.500,181.000=175.791,182.000=181.444,183.000=165.447,184.000=181.444,185.000=165.447,186.000=187.500,187.000=175.779,188.000=187.500,189.000=160.714,190.000=165.437,191.000=183.839,192.000=89.094,193.000=90.856,194.000=80.460,195.000=74.103,196.000=60.000,196.250=73.803,196.500=65.482,196.750=52.152,197.000=69.451,197.750=65.076,198.000=98.247,199.000=80.357,200.000=77.055,201.000=76.015,202.000=78.827,203.000=47.814,204.000=47.813,205.000=47.814;
#STOPS:;
#BGCHANGES:;

//---------------dance-single - ----------------
#NOTES:
     dance-single:
     :
     Beginner:
     6:
     0.168,0.242,0.095,0.037,0.000: // measure 1
0000
0000
0000
0000
,  // measure 2
0000
0000
0000
0000
,  // measure 3
0000
0000
0000
0000
,  // measure 4
0000
0000
0000
0000
,  // measure 5
0000
0100
0000
0100
,  // measure 6
0000
0100
0000
0100
,  // measure 7
0001
0010
0100
0000
,  // measure 8
1000
0010
0100
0000
,  // measure 9
0001
0100
1000
0000
,  // measure 10
1000
0100
0001
0100
,  // measure 11
0010
0001
0010
0100
,  // measure 12
0010
1000
0010
0100
,  // measure 13
1001
0010
0001
0100
,  // measure 14
0001
0001
0100
0001
,  // measure 15
1000
0010
1000
0100
,  // measure 16
1000
1000
0100
1000
,  // measure 17
0001
0000
0001
0001
,  // measure 18
0100
0000
0100
0100
,  // measure 19
1000
0000
1000
1000
,  // measure 20
0010
0010
0010
0010
,  // measure 21
1001
0100
0010
0001
,  // measure 22
0000
0001
1000
0100
,  // measure 23
1001
0100
0010
1000
,  // measure 24
0010
0100
1001
0000
,  // measure 25
0001
1100
0001
1100
,  // measure 26
0001
0001
1100
0011
,  // measure 27
1000
0101
1000
0101
,  // measure 28
0010
0000
1000
0001
0100
0000
0010
0000
,  // measure 29
1001
0000
0000
0000
,  // measure 30
0000
0000
2000
0000
,  // measure 31
3100
0000
0000
0000
,  // measure 32
0000
0000
0020
0000
,  // measure 33
0031
0000
0000
0000
,  // measure 34
0000
0000
0000
0000
,  // measure 35
1002
0000
0000
1003
,  // measure 36
2001
0000
0000
3000
,  // measure 37
0000
0001
0000
1000
,  // measure 38
0000
0001
0000
1000
,  // measure 39
0000
0001
0000
1000
,  // measure 40
0100
0001
0100
0001
,  // measure 41
1000
0100
0100
0100
,  // measure 42
0001
0100
0100
0100
,  // measure 43
1000
0100
0100
0100
,  // measure 44
0001
0100
1000
0100
,  // measure 45
0001
0010
1000
0100
,  // measure 46
0001
0100
1000
0001
,  // measure 47
1000
1000
0001
0001
,  // measure 48
1000
0001
1000
0001
,  // measure 49
0010
0000
0000
0000
,  // measure 50
0100
0100
0100
0000
1000
0000
0010
0000
,  // measure 51
0002
0000
0000
0003
;

//---------------dance-single - ----------------
#NOTES:
     dance-single:
     :
     Easy:
     9:
     0.258,0.316,0.125,0.037,0.007:
0000
0000
0000
0000
,
0000
0000
0000
0000
,
0000
0000
0000
0000
,
0000
0000
0000
0000
,
1000
0000
0100
0000
1000
0010
0001
0000
,
1000
0000
0100
0000
0010
0000
1000
0100
,
0001
0000
0100
0000
0001
0010
1000
0000
,
0001
0100
0010
0000
,
1000
0100
0001
0100
1000
0000
0001
0010
,
1000
0001
0010
0001
,
0001
0100
1000
0100
0001
0000
0010
1000
,
0100
0010
1000
0010
,
1100
0001
0100
0001
0001
1000
0010
0000
,
0101
1000
0100
1000
1000
0001
0010
0000
,
1000
0100
0101
0010
1000
1000
0010
0000
,
0001
0100
1100
0010
0001
0001
0010
0000
,
0010
1000
0100
0000
0001
0100
0101
0000
,
1001
1100
0101
0000
,
0001
0100
1010
0000
0100
0010
1000
0000
,
0000
0100
0010
1000
0010
0000
0001
0000
,
0001
0100
1000
0100
0001
0000
1000
0100
,
0001
1000
0100
1000
,
1000
0100
0001
0100
1000
0000
0100
0001
,
0010
1000
0001
0100
,
1000
0100
0001
0100
0001
0100
1000
0010
,
0010
0010
0010
0100
0100
0000
1001
0000
,
0001
0100
1000
0010
0001
0000
1001
0000
,
0001
0100
1000
0010
0001
0000
0100
0000
,
1001
0000
0000
0000
,
0000
0000
2100
0000
,
3001
0000
0000
0000
,
0000
0000
0102
0000
,
1003
1000
0100
0000
,
0010
0001
0100
0000
,
0210
0000
0000
1000
,
0302
0000
0000
0003
,
0001
0000
1000
0100
0100
0000
0001
0000
,
0010
0000
0001
1000
1000
0000
0100
0000
,
1000
0000
0001
0100
0100
0000
1000
0000
,
0010
0000
1000
0000
0001
0001
0100
0000
,
1000
0100
0001
0000
1000
0010
0001
0000
,
1000
0100
0001
0000
1000
0010
0001
0000
,
0001
0100
1000
0000
0001
0010
1000
0000
,
0001
0100
1000
0000
0001
0010
1000
0000
,
0010
1000
0001
0000
0010
0001
1000
0000
,
0010
0001
0010
1000
0100
0100
0100
0000
,
1000
0100
0001
0100
,
1001
0000
0100
0100
0100
0000
0100
0000
,
1001
0000
0000
0000
,
1000
0001
1000
0001
1000
0000
0000
0000
0100
0000
0000
0000
0010
0000
0000
0000
,
0002
0000
0000
0003
;

//---------------dance-single - ----------------
#NOTES:
     dance-single:
     :
     Medium:
     11:
     0.368,0.410,0.242,0.169,0.268:
0000
0000
0000
0000
,
0000
0000
0000
0000
,
0000
0000
0000
0000
,
0000
0000
0000
0000
,
1000
0100
0010
0002
0000
0000
1003
0010
1000
0000
1000
0000
0000
0000
0001
1000
,
0001
0010
0100
1000
0000
1000
0100
0020
0000
0000
0000
0000
0000
0000
0031
0000
,
0001
0000
0000
0000
0100
0000
0000
0000
0000
0000
0010
0000
0000
0000
0000
0000
0000
0000
1000
0000
0000
0100
0000
0000
0000
0000
0000
0100
0000
0000
0000
0000
0000
0000
0000
0000
0000
0000
0000
0000
0000
0000
0000
0000
0000
0000
0000
0000
,
1000
0010
1000
0000
0000
0000
0001
0010
0001
0000
0000
0000
0000
0000
0000
0000
,
1000
0010
0100
0001
0000
0001
1000
0100
0000
0000
0000
0000
0000
0000
0010
0001
,
1000
0010
1000
0001
0000
0000
0001
0010
0000
0010
2000
0000
3000
1000
0010
0001
,
0100
1000
0100
0000
0000
0100
0001
0000
0001
1000
0100
0000
0000
0000
0000
0000
,
1000
0100
1000
0001
0000
0001
0100
0000
0010
0000
0000
0000
0000
0000
1000
0000
,
1000
0000
1000
0100
0000
0000
0000
0010
0001
0000
0001
0100
0000
0100
0010
2000
,
0000
0000
0000
3010
0000
0010
0100
0001
0000
2000
0000
3000
0000
0000
1000
0001
,
1000
0000
0001
0000
1000
0000
0001
0000
0100
0000
0000
0000
0100
0000
1000
0000
0000
0000
1000
0000
0010
0000
0000
0000
0000
0000
0000
0010
0000
0001
0000
0000
,
0001
0000
0000
0000
0000
0000
0000
0000
0000
0000
0000
0000
0000
0000
0000
0000
0000
0000
0100
0000
0000
0000
0000
0000
0000
0000
0000
0000
0000
0000
0000
0000
0010
0000
0000
0000
0000
0000
0000
0000
0000
0000
0000
0000
0000
0000
0000
0000
2000
0000
0000
0000
0000
0000
0000
0000
0000
0000
0000
0000
0000
0000
0000
0000
0000
0000
0000
0000
0000
0000
0000
0000
0000
0000
0000
0000
0000
0000
0000
0000
0000
0000
0000
0000
0000
0000
0000
0000
0000
0000
0000
0000
0000
0000
0000
0000
3200
0000
0000
0000
0000
0000
0000
0000
0000
0000
0000
0000
0000
0000
0000
0000
0000
0000
0000
0000
0000
0000
0000
0000
0000
0000
0000
0000
0000
0000
0000
0000
0000
0000
0000
0000
0000
0000
0000
0000
0000
0000
0000
0000
0000
0000
0000
0000
0000
0000
0000
0000
0000
0000
0000
0000
0000
0000
0000
0000
0000
0000
0000
0000
0000
0000
0000
0000
0000
0000
0000
0000
0001
0000
0000
0000
0000
0000
0000
0000
0000
0000
0000
0000
0000
0000
0000
0000
0000
0000
0000
0000
0000
0000
0000
0000
,
1300
0000
0000
1010
0000
0000
0100
0000
0002
0000
0000
0000
0103
0001
0010
0000
,
0100
0000
0000
1010
0000
0000
0100
0000
0002
0000
0000
0003
0001
0010
0100
1000
,
0020
0100
1030
1001
,
1200
0000
0000
0000
0000
0000
0000
0000
0000
0300
0100
0000
2000
0000
0000
0000
0000
0000
0000
0000
0000
0000
0000
0000
,
3001
0000
0001
0000
0000
0000
0100
0010
1000
0000
1000
0000
0000
0001
0010
0000
,
0010
0001
0000
1000
0010
0100
0001
0000
1100
0000
0000
0000
0001
0000
0100
0000
,
0010
0000
0100
0000
0101
0000
0000
0001
1000
0001
1000
0000
0000
0000
0000
1100
,
0000
0000
0010
0000
0001
0000
0100
0000
0010
1000
0000
0000
0001
0000
0000
0000
,
0001
0100
1000
0100
0001
0010
1000
0010
,
0001
0000
1001
0000
0000
0010
1000
0001
0000
1001
0000
0000
1100
0000
0000
0000
,
1010
0000
0000
0000
0000
0000
0010
0000
0010
0000
0100
0000
0001
0000
1000
0000
0000
0000
0100
0000
0000
0010
0000
0000
,
1000
0010
0001
0100
1000
0000
0100
0000
,
2001
0000
0000
0010
0000
0100
0000
3001
,
0000
0000
0022
0033
,
1002
0000
1000
0010
0000
1000
0000
0103
,
0000
0000
0202
0303
,
0100
0100
0010
1000
0100
0000
0000
0000
,
0010
0001
0010
0100
0000
1000
0000
0000
,
1010
0000
1000
0000
0100
0000
0010
0001
,
1001
0001
0100
0010
,
1000
0100
1000
0100
0001
0100
0001
0100
,
1000
0001
1000
0001
1000
0100
1000
0100
,
0010
0001
0010
0001
1000
0100
0010
0001
,
1000
0010
0001
1000
0100
0001
0001
0000
,
1001
0000
0011
0000
0010
0100
1000
2010
,
0000
3001
0000
0012
0000
1003
0000
0000
,
1010
0000
0001
0010
0001
1000
0010
0000
,
0100
0001
0000
0101
0000
1001
0000
1100
,
1000
0100
0001
0100
1000
0010
0001
0012
,
0000
1003
0000
1200
0000
0301
0000
0000
,
1001
0000
0001
0010
1000
0010
0100
0000
,
1100
1010
0000
1001
0000
0001
0101
0000
,
1001
0000
0000
0000
,
1000
0100
0001
0100
1000
0000
0000
0001
0100
0000
0000
0000
0010
0000
0000
0000
,
0002
0000
0000
0003
;

//---------------dance-single - ----------------
#NOTES:
     dance-single:
     :
     Hard:
     14:
     0.504,0.689,0.352,0.176,0.517:
0000
0000
0000
0000
,
0000
0000
0000
0000
,
0000
0000
0000
0000
,
0000
0000
0000
0000
,
1000
0100
1000
0002
0000
0003
0001
0100
0010
0100
0001
1000
1000
0100
0010
0100
,
1000
0001
1000
0020
0000
0130
0001
0020
0000
0000
0000
0100
0130
1000
0001
0100
,
0010
0010
1000
0001
0010
0010
0001
1000
0010
0000
0100
0001
0000
1000
0100
0000
,
0010
0001
1000
0010
0000
0000
0100
0001
1001
0000
0000
0000
0000
0000
0000
0000
,
1000
0010
0100
0010
0000
0010
1000
0100
0010
0001
1000
0010
0010
0100
0001
1000
,
0001
0100
0010
1000
0000
1000
0100
0020
0000
0130
0020
0000
0000
0031
0100
0010
,
0100
0000
0001
0000
0000
0001
1000
0000
1000
0100
0010
0100
0000
0100
1000
0000
,
1000
0010
0100
0001
0000
0010
0100
0000
0001
0000
0000
0000
0000
0001
0100
0000
,
0010
1000
0001
0100
1000
0100
0100
0000
0001
0100
1100
0010
0001
0001
0010
0000
,
0100
1000
0001
0100
1100
0001
0010
1000
1100
0000
0000
0000
1001
0000
1000
0010
,
0110
0000
0100
0000
0001
0000
0010
0000
1000
0000
0000
0000
1000
0000
0100
0000
0000
0000
0100
0000
0001
0000
0000
0000
0000
0000
0000
0001
0000
0010
0000
0000
,
0100
0000
0000
0000
0000
0000
0000
0000
0000
0000
0000
0000
0000
0000
0000
0000
0000
0000
1000
0000
0000
0000
0000
0000
0000
0000
0000
0000
0000
0000
0000
0000
0001
0000
0000
0000
0000
0000
0000
0000
0100
0000
0000
0000
0000
0000
0000
0000
0020
0000
0000
0000
0000
0000
0000
0000
0000
0000
0000
0000
0000
0000
0000
0000
0000
0000
0000
0000
0000
0000
0000
0000
0000
0000
0000
0000
0000
0000
0000
0000
0000
0000
0000
0000
1030
0000
0000
0000
0000
0000
0001
0000
0000
0000
0000
0000
0020
0000
0000
0000
0000
0000
0000
0000
0000
0000
0000
0000
0000
0000
0000
0000
0000
0000
0000
0000
0000
0000
0000
0000
0000
0000
0000
0000
0000
0000
0000
0000
0000
0000
0000
0000
0030
0000
0000
0000
0000
0000
0000
0000
0000
0000
0000
0000
0000
0000
0000
0000
0000
0000
0000
0000
0000
0000
0000
0000
0000
0000
0000
0000
0000
0000
0000
0000
0000
0000
0000
0000
1100
0000
0000
0000
0000
0000
0000
0000
0000
0000
0000
0000
0000
0000
0000
0000
0000
0000
0000
0000
0000
0000
0000
0000
,
0101
1000
0100
0011
0100
0010
1010
1000
2001
0000
0000
0000
3001
0100
0010
0000
,
1010
0000
0001
0000
0010
0000
1100
0000
0001
0000
0100
0000
0110
0000
0000
0000
1010
0000
0000
0000
0000
0000
1000
0001
1000
0000
0010
0000
0100
0000
0001
0000
,
0011
1000
0010
1000
0001
1000
0100
0100
0010
0000
0001
0100
0020
0100
0130
0000
,
0110
0000
0000
0001
0000
0000
1000
0000
0000
0001
0000
0000
0000
0000
0000
0010
0000
0000
0100
0000
0000
0010
0100
1000
0002
0000
0000
0100
0000
0000
1000
0000
0000
1000
0000
0000
0003
0000
0000
0001
0000
0000
0100
0000
0000
0000
0000
0000
,
2010
0000
3001
0000
0010
0100
1000
0001
0201
0000
1300
0000
0100
0010
1010
0000
,
1000
0100
0000
0001
0100
1000
0010
0000
0200
0000
0000
0000
0301
0010
0100
1000
,
0001
0100
0010
0000
0200
0000
0000
0001
1000
1000
0001
0301
1000
0100
0010
0011
,
0000
0001
0010
0000
0110
0000
0011
0000
1000
0010
0000
0000
0110
1000
0001
0000
,
0001
0010
1000
0010
1000
0010
0001
0100
0010
0010
0010
1000
0100
0100
0010
0001
,
0000
0101
0000
0000
0000
0001
0100
1000
0000
0210
0000
0000
1000
0000
0000
0000
,
0301
0000
0000
0000
0000
0000
0000
0000
0000
0000
0000
0000
0000
0000
0000
0000
0000
0000
0000
0000
0000
0000
0000
0000
0000
0000
0000
0000
0000
0000
0000
0000
0000
0000
0000
0000
0100
0000
0000
0000
0000
0000
0001
0000
0000
0000
0000
0000
0010
0000
0000
0000
0000
0000
0000
0000
0000
0000
0000
0000
0000
0000
0000
0000
1000
0000
0000
0000
0000
0000
0000
0000
0000
0000
0000
0000
0000
0000
0000
0000
0001
0000
0000
0000
0000
0000
0000
0000
0000
0000
0000
0000
0000
0000
0000
0000
0100
0000
0000
0000
0000
0000
0000
0000
0000
0000
0000
0000
0000
0000
0000
0000
1000
0000
0000
0000
0000
0000
0000
0000
0000
0000
0000
0000
0000
0000
0000
0000
0000
0000
0000
0000
0000
0000
0000
0000
0000
0000
0000
0000
0000
0000
0000
0000
0010
0000
0000
0000
0000
0000
0000
0000
0000
0000
0000
0000
0000
0000
0000
0000
1000
0000
0000
0000
0000
0000
0000
0000
0100
0000
0000
0000
0000
0000
0000
0000
0010
0000
0000
0000
0000
0000
0000
0000
0000
0000
0000
0000
0000
0000
0000
0000
,
0001
0010
0100
1000
1000
0100
0010
0001
0002
0000
0000
0000
1003
0000
0000
0000
,
2001
0000
0000
0100
0000
0010
0000
3100
,
0000
0000
0220
0330
,
0021
0000
0001
0100
0000
1000
0000
0130
,
0000
0000
0202
0303
,
1001
0001
0100
0010
0100
0000
0000
0000
,
0100
1000
0100
0010
0000
1000
0000
0000
,
1001
0000
0001
0000
1000
0000
0100
0010
,
0101
0100
0010
1000
,
1000
0100
0010
0001
0100
0001
1000
0010
,
1000
0100
0010
0001
0100
0001
1000
0100
,
1000
0100
0010
0001
0100
0001
1000
0010
,
1000
0100
0010
0001
0100
0100
0100
0000
,
0110
0000
1010
0000
0011
0010
0100
0000
,
1001
0100
1000
0000
1001
0100
0001
0000
,
1001
0000
1000
0100
0010
0001
1000
0000
,
0001
0010
0100
1000
0010
0000
1000
0000
,
0110
0001
1000
0001
0100
0100
0100
0100
,
0000
0001
0010
0100
0000
0100
0010
0001
,
1000
0000
1001
0001
0010
0001
1000
0000
,
1000
1001
0000
1100
0000
0100
0110
0000
,
1001
0000
0000
0001
0100
0000
1000
0000
1000
0100
0001
0000
0001
0010
1000
0000
,
0010
0010
0010
0010
0010
0000
0000
0010
0011
0000
0000
0000
0110
0000
0000
0000
,
2002
0000
0000
3003
;
