#VERSION:0.83;
#TITLE:Surf on the Light;
#SUBTITLE:;
#ARTIST:Tomoyuki Uchida;
#TITLETRANSLIT:;
#SUBTITLETRANSLIT:;
#ARTISTTRANSLIT:;
#GENRE:;
#ORIGIN:;
#CREDIT:;
#BANNER:Surf on the Light-bn.png;
#BACKGROUND:Surf on the Light-bg.png;
#PREVIEWVID:;
#JACKET:Surf on the Light-jacket.png;
#CDIMAGE:;
#DISCIMAGE:;
#LYRICSPATH:;
#CDTITLE:cdtitle.png;
#MUSIC:Surf on the Light.ogg;
#OFFSET:-0.005000;
#SAMPLESTART:63.055000;
#SAMPLELENGTH:12.000000;
#SELECTABLE:YES;
#BPMS:0.000=160.000,
276.000=150.000,
283.000=148.000,
286.000=142.000,
290.000=124.000,
292.000=113.000,
294.000=102.000,
295.000=88.000,
296.000=77.000,
296.333=71.000,
297.000=64.000,
297.667=58.000,
298.000=51.000,
298.333=43.000,
298.667=13.250;
#STOPS:;
#DELAYS:;
#WARPS:;
#TIMESIGNATURES:0.000=4=4;
#TICKCOUNTS:0.000=4;
#COMBOS:0.000=1;
#SPEEDS:0.000=1.000=0.000=0;
#SCROLLS:0.000=1.000;
#FAKES:;
#LABELS:0.000=Song Start;
#BGCHANGES:3.500=Surf on the Light.avi=1.000=0=0=1=====,
99999=-nosongbg-=1.000=0=0=0 // don't automatically add -songbackground-
;
#KEYSOUNDS:;
#ATTACKS:
;

//---------------dance-single - Highflyer----------------
#NOTEDATA:;
#CHARTNAME:Highflyer;
#STEPSTYPE:dance-single;
#DESCRIPTION:Highflyer;
#CHARTSTYLE:;
#DIFFICULTY:Easy;
#METER:7;
#RADARVALUES:0.270297,0.273154,0.016241,0.000000,0.000000,233.000000,231.000000,2.000000,0.000000,0.000000,0.000000,0.000000,0.000000,0.000000,0.270297,0.273154,0.016241,0.000000,0.000000,233.000000,231.000000,2.000000,0.000000,0.000000,0.000000,0.000000,0.000000,0.000000;
#CREDIT:Highflyer;
#NOTES:
0000
0000
0000
0000
,
0000
0000
0000
0000
,
1001
0000
0000
1000
0000
0000
0001
0000
,
0000
1000
0000
0000
0001
0000
1000
0000
,
0010
0000
0000
0100
0000
0000
0010
0000
,
0000
0100
0000
0000
0010
0000
1000
0000
,
0100
0000
0000
0010
0000
0000
0100
0000
,
0000
0010
0000
0000
0100
0000
0010
0000
,
0001
0000
1000
0000
,
0010
0100
0010
1000
,
0001
0000
0000
0010
0000
0000
0100
0000
,
0000
1000
0000
0000
0010
0000
0100
0000
,
0001
0000
0000
1000
0000
0000
0010
0000
,
0000
0100
0000
0000
0001
0000
1000
0000
,
0100
0000
0000
0010
0000
0000
0001
0000
,
0000
1000
0000
0000
0010
0000
0100
0000
,
0010
0000
0100
0000
,
0010
1000
0001
0010
,
0100
0000
0100
0000
0010
0000
0000
0100
,
0000
0000
0000
0010
0000
0000
0001
0000
,
1000
0000
0000
0010
0000
0000
0100
0000
,
0010
0000
0100
0001
,
1000
0000
0100
0000
0010
0000
0000
0100
,
0000
0000
0000
0010
0000
0000
0001
0000
,
1000
0000
0000
0010
0000
0000
0100
0010
,
0000
0000
1000
0001
,
0010
0000
0010
0000
0100
0000
0000
0010
,
0000
0000
0001
0000
0000
0000
1000
0010
,
0000
0000
1000
0001
0000
0000
1000
0010
,
0000
0000
1000
0001
0000
0000
1000
0000
,
0100
0000
0010
0000
0001
0000
0000
1000
,
0000
0000
0010
0000
0000
0000
0010
0100
,
0000
0000
0100
0010
0000
0000
1000
0100
,
0000
0000
0010
0001
,
1000
0000
0010
0000
0100
0000
0000
0010
,
0000
0000
1000
0000
0001
0000
0010
0100
,
0000
0000
0010
0001
0000
0000
1000
0001
,
0000
0000
1000
0010
0000
0000
0100
0000
,
0010
0000
1000
0000
0001
0000
0000
0010
,
0000
0000
0100
0000
0000
0000
0010
0001
,
0000
0000
1000
0010
0000
0000
1000
0001
,
0000
0000
1000
0100
,
0010
0010
0100
1000
,
0010
0000
0000
0100
0000
0010
0000
0000
,
0000
0100
0001
1000
,
0100
0000
0000
0010
0000
0000
0010
0100
,
0000
0000
1000
0100
0000
0000
1000
0010
,
0000
0000
1000
0001
,
0100
0000
0000
0010
0000
0100
0000
0010
,
0000
1000
0001
0000
0000
0000
1000
0000
,
0000
0100
0010
0100
,
1000
0000
0000
0001
0000
0000
0100
0000
,
0000
0010
0100
0010
,
1000
0000
0000
0001
0000
0000
0010
0100
,
0000
0000
0010
0001
0000
0000
1000
0001
,
0000
0000
1000
0010
,
0100
0000
0000
0010
0000
0000
0100
0000
,
0001
1000
0100
0010
,
0100
0010
0001
1000
,
0010
0000
0000
0100
0000
0000
0010
0000
,
1000
0001
0010
0100
,
1000
0000
1000
0000
1000
0000
0001
0100
,
0000
0000
0001
1000
0000
0000
0001
0100
,
0000
0000
0001
1000
0000
0000
0001
0010
,
0000
0000
0001
1000
0000
0000
0001
0100
,
0000
0010
1000
0100
,
0010
0000
0000
0100
0000
0000
0010
0000
,
0001
0000
0000
1000
0000
0000
0010
0000
,
0100
0000
0000
0010
0000
0000
1000
0000
,
0001
0000
0000
0000
0000
0000
0000
1000
,
0000
0000
0000
0001
0000
0000
0000
0010
,
0000
0000
0100
0000
,
0010
0000
0001
0000
,
1000
0000
0010
0000
,
0100
0000
0000
1001
;

//---------------dance-single - Highflyer----------------
#NOTEDATA:;
#CHARTNAME:Highflyer;
#STEPSTYPE:dance-single;
#DESCRIPTION:Highflyer;
#CHARTSTYLE:;
#DIFFICULTY:Medium;
#METER:12;
#RADARVALUES:0.516232,0.517575,0.016241,0.308579,0.085265,445.000000,443.000000,2.000000,38.000000,0.000000,0.000000,0.000000,0.000000,0.000000,0.516232,0.517575,0.016241,0.308579,0.085265,445.000000,443.000000,2.000000,38.000000,0.000000,0.000000,0.000000,0.000000,0.000000;
#CREDIT:Highflyer;
#NOTES:
0000
0000
0000
0000
,
0000
0000
0000
0000
0000
0000
0000
0000
0000
0000
0000
0000
0000
0000
0000
0000
0000
0000
0000
0000
0000
0000
0000
0000
0000
0000
0000
0000
0000
0000
0000
0000
0000
0000
0000
0000
0000
0000
0000
0000
0000
0000
0000
0000
0000
0000
0000
0000
0000
0000
0000
0000
0000
0000
0000
0000
0000
0000
0000
0000
0000
0000
0000
0000
0000
0000
0000
0000
0000
0000
0000
0000
0000
0000
0000
0000
0000
0000
0000
0000
0000
0000
0000
0000
0000
0000
0000
0000
0000
0000
0000
0000
0000
0000
0000
0000
0000
0000
0000
0000
0000
0000
0000
0000
0000
0000
0000
0000
0000
0000
0000
0000
0000
0000
0000
0000
0000
0000
0000
0000
0000
0000
0000
0000
0000
0000
0000
0000
0000
0000
0000
0000
0000
0000
0000
0000
0000
0000
0000
0000
0000
0000
0000
0000
0000
0000
0000
0000
0000
0000
0000
0000
0000
0000
0000
0000
0000
0000
0000
0000
0000
0000
0000
0000
0000
0000
0000
0000
0000
0000
0000
0000
0000
0000
0000
0000
0000
0000
0000
0000
0000
0000
0000
0000
0000
0000
0000
0000
0000
0000
0000
1000
,
1000
0000
0000
0100
0000
0000
0001
0000
,
0000
0100
0000
0000
1000
0000
0001
1000
,
0001
0000
0000
0100
0000
0000
1000
0000
,
0000
0100
0000
0000
0001
0000
1000
0001
,
1000
0000
0000
0100
0000
0000
0001
0000
,
0000
0100
0000
0000
1000
0000
0010
0100
,
0010
0000
0000
0100
0010
0000
0000
0100
,
0010
0000
0000
0000
1000
0000
0000
0001
0010
0000
0001
0000
1000
0000
0000
0000
,
0020
0030
1000
0000
0001
0000
0020
0030
0001
0000
1000
0000
0020
0030
1000
0000
,
0001
0000
0020
0030
0001
0000
1000
0000
0020
0030
0100
0000
0020
0030
1000
0000
,
0200
0300
1000
0000
0001
0000
0200
0300
0001
0000
1000
0000
0200
0300
1000
0000
,
0001
0000
0200
0300
0001
0000
1000
0000
0200
0300
0010
0000
0200
0300
1000
0000
,
0002
0003
0100
0000
0001
0000
2000
3000
0100
0000
1000
0000
0002
0003
0010
0000
,
0001
0000
2000
3000
0010
0000
1000
0000
0002
0003
0010
0000
0002
0003
1000
0000
,
0020
0000
0130
0001
2000
0000
3001
0010
,
0200
0000
0000
0000
0310
0000
0000
0001
1000
0000
0010
0000
0100
0000
0000
0000
,
0020
0000
2030
0000
3002
0000
0013
0100
,
1000
0010
0100
0010
0000
0100
0002
0000
,
2003
0000
3001
0010
0000
0100
1000
0000
,
0010
0000
1000
0001
0100
1000
0100
0001
,
0020
0000
0032
0000
2003
0000
3010
0100
,
0001
0010
0100
0010
0000
0100
2000
0000
,
3002
0000
1003
0010
0000
0100
0001
0010
,
0200
0000
0300
1000
0100
0001
0100
1000
,
0001
0000
0100
0000
0001
0000
1000
0000
0001
0000
0000
0010
0000
0000
0100
0000
,
0000
1000
1000
0000
0010
0100
0001
1000
,
0000
0100
1000
0001
0000
0010
0001
1000
,
0000
0010
1000
0001
0100
0000
0001
0000
,
1000
0000
0100
0000
1000
0000
0001
0000
1000
0000
0000
0010
0000
0000
0100
0000
,
0000
0010
0010
0000
0100
0010
1000
0001
,
0000
0010
0001
1000
0000
0100
1000
0001
,
0200
0000
0000
0301
0010
1000
0010
0001
,
1000
0000
0100
0000
1000
0000
0001
0000
1000
0000
0000
0010
0000
0000
0100
0000
,
0000
0001
0001
0000
0010
0100
1000
0001
,
0000
0100
0001
1000
0000
0010
1000
0001
,
0000
0010
0001
1000
0100
0000
1000
0000
,
0001
0000
0100
0000
0001
0000
1000
0000
0001
0000
0000
0010
0000
0000
0100
0000
,
0000
0010
0010
0000
0100
0010
0001
1000
,
0000
0010
1000
0001
0000
0100
0001
1000
,
0200
0000
0000
0300
1000
0010
0001
0010
,
1000
0001
0100
0010
0100
1000
0100
0010
,
1000
0000
0000
0001
0000
0000
0010
0000
0000
0000
0100
0000
0000
0000
1000
0000
,
0001
1000
0100
0010
0100
0001
0100
0010
,
0001
0000
0000
1000
0000
0000
0010
0000
0000
0000
0100
0000
0010
0000
0010
0000
,
0100
0000
0001
0001
0010
0000
0001
0001
,
0100
0000
0010
1000
1000
0001
0010
0100
,
1000
0000
0001
0100
0000
0010
0000
1010
,
0000
0010
1001
0000
1000
0100
0010
0010
,
0001
1000
0010
0100
0010
0001
0010
0100
,
0001
0000
0000
0010
0000
0000
0100
0000
0000
0000
1000
0000
0100
0000
0010
0000
,
0000
0001
0010
0100
0010
1000
0010
0100
,
1000
0000
0000
0001
0000
0000
1000
0000
0000
0000
0010
0000
1000
0000
0100
0000
,
0000
0010
0100
1000
0000
0001
0100
0010
,
0000
1000
0000
0001
0010
0001
1000
0010
,
0100
0000
0000
0001
0000
0000
0100
0000
0000
0000
0010
0000
1000
0000
0100
0000
,
0010
0001
0100
0010
0100
0001
0010
0100
,
1000
0001
0100
1000
0100
0010
0100
1000
,
0100
0000
0000
0001
0000
0000
1000
0000
0000
0000
0010
0000
0100
0000
0001
0000
,
0000
1000
0100
0001
0100
0010
0100
0001
,
0200
0000
2300
0000
3020
0000
0130
0001
,
0000
1000
0001
0001
0010
0000
0100
0100
,
1000
0000
0010
0010
0100
0001
1000
1000
,
0100
0000
0010
0010
0001
1000
0010
0010
,
0100
0000
0000
0000
0010
0000
0000
1000
0001
0000
0010
0000
0100
0000
0000
0000
,
1000
0000
0000
0010
0000
0000
1000
0000
0001
0000
0010
0000
0100
0000
0010
0000
,
0001
0000
1000
0000
0001
0100
0010
0100
,
0001
0000
1000
0100
0010
0100
1000
0010
,
0100
0000
0000
0000
0000
0010
0100
0001
,
0000
0000
1000
0001
0000
0010
0100
1000
,
0000
0000
0000
0001
0100
0010
1000
0001
,
0010
0000
0000
0100
0010
0000
0000
0001
,
1000
0010
0100
0001
,
0010
0000
0000
0000
0000
0000
0000
0000
0000
0000
0000
0000
0000
0000
0000
0000
0100
0000
0000
0000
0000
0000
0000
0000
0000
0000
0000
0000
0000
0000
0000
0000
1000
0000
0000
0000
0000
0000
0000
0000
0000
0000
0000
0000
0000
0000
0000
0000
0001
0000
0000
0000
0000
0000
0000
0000
0000
0000
0000
0000
0000
0000
0000
0000
0100
0000
0000
0000
0000
0000
0000
0000
0000
0000
0000
0000
0000
0000
0000
0000
0010
0000
0000
0000
0000
0000
0000
0000
0000
0000
0000
0000
0000
0000
0000
0000
1000
0000
0000
0000
0000
0000
0000
0000
0000
0000
0000
0000
0000
0000
0000
0000
0001
0000
0000
0000
0000
0000
0000
0000
0000
0000
0000
0000
0000
0000
0000
0000
0010
0000
0000
0000
0000
0000
0000
0000
0000
0000
0000
0000
0000
0000
0000
0000
0200
0000
0000
0000
0000
0000
0000
0000
0000
0000
0000
0000
0000
0000
0000
0000
0000
0000
0000
0000
0000
0000
0000
0000
0000
0000
0000
0000
0000
0000
0000
0000
0000
0000
0000
0000
0000
0000
0000
0000
0000
0000
0000
0000
0000
0300
0000
0000
;

//---------------dance-single - XO SJ-----------------
#NOTEDATA:;
#CHARTNAME:;
#STEPSTYPE:dance-single;
#DESCRIPTION:XO SJ-;
#CHARTSTYLE:;
#DIFFICULTY:Hard;
#METER:15;
#RADARVALUES:0.651961,0.791585,0.243615,0.219254,0.328881,562.000000,532.000000,30.000000,27.000000,0.000000,0.000000,0.000000,0.000000,0.000000,0.651961,0.791585,0.243615,0.219254,0.328881,562.000000,532.000000,30.000000,27.000000,0.000000,0.000000,0.000000,0.000000,0.000000;
#CREDIT:Highflyer;
#NOTES:
// measure 0
0000
0000
0000
0000
,  // measure 1
0000
0000
0000
0000
,  // measure 2
1010
0000
0000
0010
0000
0000
0100
0000
,  // measure 3
0000
0001
0000
0000
1000
0000
0100
0010
,  // measure 4
0011
0000
0000
1000
0000
0000
0010
0000
,  // measure 5
0000
0000
0100
0000
0000
0000
0000
0001
1000
0000
0100
0000
0010
0000
0001
0000
,  // measure 6
0101
0000
0000
1000
0000
0000
0001
0000
,  // measure 7
0000
0010
0000
0000
0100
0000
1000
0010
,  // measure 8
1010
0000
0000
0001
0001
0000
0000
1000
,  // measure 9
1000
0000
0000
0000
0100
0000
0000
0010
0001
0000
0100
0000
0010
1000
0010
1000
,  // measure 10
0002
0013
0100
2000
3010
0100
0002
0013
,  // measure 11
0100
0000
2000
0000
3010
0000
0100
0000
0001
1000
0001
0010
0100
1000
0001
1000
,  // measure 12
0020
0130
0001
0020
0130
0010
0002
1003
,  // measure 13
0010
0000
0200
0000
0310
0000
1000
0000
0001
0010
0001
1000
0010
0100
0010
1000
,  // measure 14
0002
0013
0100
0020
0031
1000
0020
0130
,  // measure 15
0001
0020
0031
1000
0020
0130
0002
1003
,  // measure 16
1100
0000
1000
0001
0101
0000
1000
0010
,  // measure 17
1010
0000
0000
0000
0001
0000
0000
1000
0100
0010
0100
1000
0001
0000
0000
0000
,  // measure 18
1002
0000
0203
0000
0320
0000
0130
0001
,  // measure 19
0000
1000
0100
0010
0000
0100
1000
0000
,  // measure 20
1010
0000
0001
0101
0000
1000
1100
0000
,  // measure 21
0011
0000
0000
0000
1000
0000
0001
0100
0001
1000
0100
0010
0001
1000
0010
1000
,  // measure 22
0200
0000
0320
0000
0032
0000
1003
1010
,  // measure 23
0000
1000
0100
0011
0000
0001
0101
0000
,  // measure 24
1100
0000
1000
1001
0000
0001
0101
0100
,  // measure 25
0020
0000
0000
0000
0000
0000
1030
0100
0010
0001
0010
0100
1000
0001
0100
0010
,  // measure 26
1000
0000
0100
0000
0001
0000
0100
0000
1000
0000
0000
0010
0100
0000
0001
0000
,  // measure 27
0000
1000
1000
0000
0001
1000
0010
0001
,  // measure 28
0000
0001
0010
1000
0000
1000
0100
0001
,  // measure 29
0000
0001
0100
1000
0000
0001
1000
0000
,  // measure 30
0001
0000
0100
0000
1000
0000
0100
0000
0001
0000
0000
1000
0100
0000
0010
0000
,  // measure 31
0000
0100
0100
0000
1000
0001
0010
1000
,  // measure 32
0000
1000
0010
0001
0000
0001
0100
1000
,  // measure 33
0200
0000
0000
0000
0000
0000
0310
1000
0001
1000
0100
1000
0001
0010
0001
0100
,  // measure 34
0001
0000
0010
0000
1000
0000
0010
0000
0001
0000
0000
1000
0001
0000
0100
0000
,  // measure 35
0000
0000
0010
0000
0010
0000
1000
0001
1000
0000
0001
0000
0010
0000
1000
0000
,  // measure 36
0000
1000
0010
0001
0000
0001
0100
1000
,  // measure 37
0000
0000
1000
0000
0100
0000
0001
0000
0000
0000
1000
0000
0010
0000
1000
0001
,  // measure 38
1000
0000
0010
0000
0001
0000
0010
0000
1000
0000
0000
0001
0010
0000
0001
0000
,  // measure 39
0000
0000
0010
0000
0010
0000
0001
1000
0001
0000
1000
0000
0100
0000
0001
0000
,  // measure 40
0000
0001
0100
1000
0000
1000
0010
0001
,  // measure 41
0020
0000
0000
1030
0100
0010
0001
1000
,  // measure 42
0010
1000
0100
0001
1000
0010
0001
1000
,  // measure 43
0010
0000
0000
0100
0000
0000
0001
0000
0000
0000
1000
0000
0000
0000
0001
0000
,  // measure 44
0000
1000
0001
0100
1000
0001
0010
1000
,  // measure 45
0001
0000
0000
0010
0000
0000
0100
0000
1000
0000
0000
0000
0010
0000
0010
0000
,  // measure 46
1001
0000
1000
1000
0001
0000
0010
0010
,  // measure 47
0100
0000
0010
0001
0001
1000
0010
0100
,  // measure 48
0101
0000
0000
0000
1000
0000
0100
0010
0100
1000
0001
0100
0010
0000
1001
0000
,  // measure 49
0000
0000
0110
0000
1001
0000
0000
1000
0100
0010
0001
0010
0100
0000
1000
0000
,  // measure 50
0010
1000
0100
0001
0100
1000
0010
0001
,  // measure 51
0010
0000
0000
0100
0000
0000
0001
0000
1000
0100
0010
0000
0001
0000
1000
0000
,  // measure 52
0000
0001
0100
1000
0100
0001
0010
1000
,  // measure 53
0010
0000
0000
0001
0000
0000
1000
0000
0010
0100
0001
0000
1000
0000
0100
0000
,  // measure 54
0000
0010
0001
0100
0000
0010
0100
0001
,  // measure 55
0000
1000
0100
1000
0010
0001
0010
0100
,  // measure 56
0101
0000
0000
0001
0000
0000
0001
0000
1000
0000
0001
0000
0010
0000
1000
0000
,  // measure 57
0010
0000
0100
0000
1000
0000
0010
0100
0010
0000
1000
0000
1001
0000
0000
0000
,  // measure 58
0001
0100
1000
0100
0001
0010
1000
0010
,  // measure 59
0100
0000
0000
0010
0000
0000
0001
1000
0001
0100
0010
0000
1000
0000
0001
0000
,  // measure 60
1000
0100
0001
0100
1000
0010
0001
0010
,  // measure 61
0100
0000
0001
0000
1000
0000
0001
0010
,  // measure 62
0011
0000
0000
0000
0010
0000
0100
1000
0001
1000
0100
0000
0010
0000
0001
0000
,  // measure 63
0101
0000
0000
0000
0100
0000
0010
0100
0001
0100
0010
0000
1000
0000
0001
0000
,  // measure 64
1001
0000
0000
0000
0001
0000
1000
0100
1000
0001
0010
0000
0100
0000
1000
0000
,  // measure 65
0001
0000
0000
0000
0100
0000
0000
0010
1000
0000
0001
0000
0010
0000
0100
0000
,  // measure 66
1100
0000
0000
0001
0100
0000
0010
0100
0001
1000
0001
0000
0010
0100
0010
0000
,  // measure 67
0001
0000
1000
0000
0010
0000
0100
0000
0001
0010
0001
0000
1000
0010
1000
0000
,  // measure 68
0001
0000
0010
0100
1000
0001
1000
0010
0100
0001
0010
0100
1000
0001
0100
0001
,  // measure 69
0020
0000
0000
0000
0030
0001
0100
0010
,  // measure 70
1000
0001
0010
0100
0000
0010
0001
1000
,  // measure 71
0010
0100
0010
1000
0001
0010
0100
0010
,  // measure 72
0001
0000
0100
0000
0010
0000
0100
0000
0001
0000
0000
0000
0000
0000
1000
0100
,  // measure 73
1000
0001
0100
0000
0010
1000
0001
0000
,  // measure 74
1000
0000
0000
0000
0000
0000
0000
0000
0000
0000
0000
0000
0000
0000
0000
0000
0100
0000
0000
0000
0000
0000
0000
0000
0000
0000
0000
0000
0000
0000
0000
0000
1000
0000
0000
0000
0000
0000
0000
0000
0000
0000
0000
0000
0000
0000
0000
0000
0010
0000
0000
0000
0000
0000
0000
0000
0000
0000
0000
0000
0000
0000
0000
0000
0100
0000
0000
0000
0000
0000
0000
0000
0000
0000
0000
0000
0000
0000
0000
0000
0001
0000
0000
0000
0000
0000
0000
0000
0000
0000
0000
0000
0000
0000
0000
0000
1000
0000
0000
0000
0000
0000
0000
0000
0000
0000
0000
0000
0000
0000
0000
0000
0100
0000
0000
0000
0000
0000
0000
0000
0000
0000
0000
0000
0000
0000
0000
0000
0020
0000
0000
0000
0000
0000
0000
0030
0000
0000
0000
0000
0000
0000
0000
0000
2002
0000
0000
0000
0000
0000
0000
0000
0000
0000
0000
0000
0000
0000
0000
0000
0000
0000
0000
0000
0000
0000
0000
0000
0000
0000
0000
0000
0000
0000
0000
0000
0000
0000
0000
0000
0000
0000
0000
0000
0000
0000
0000
0000
0000
3003
0000
0000
;
