#TITLE:Sugar Me;
#SUBTITLE:;
#ARTIST:Koshi Miharu;
#TITLETRANSLIT:;
#SUBTITLETRANSLIT:;
#ARTISTTRANSLIT:;
#GENRE:;
#CREDIT:;
#MUSIC:Sugar Me.ogg;
#BANNER:Sugar Me BN.png;
#BACKGROUND:Sugar Me BG.png;
#CDTITLE:;
#SAMPLESTART:69.737;
#SAMPLELENGTH:10.561;
#SELECTABLE:YES;
#OFFSET:-0.338;
#BPMS:0.000=159.081;
#STOPS:212.000=1.131;
#BGCHANGES:;
#FGCHANGES:;

//--------------- dance-single - Minxyz ----------------
#NOTES:
     dance-single:
     Minxyz:
     Beginner:
     6:
     0,0,0,0,0:
0000
0000
0000
0000
,
0000
0000
0000
0000
,
0000
0000
0000
0000
,
0000
0000
0000
0000
,
1000
0100
0010
0000
,
0002
0000
0003
0200
0000
0300
0000
0000
,
0001
0100
0010
0000
,
2000
0000
3000
0200
0000
0300
0000
0000
,
0010
0001
0001
1000
,
0100
0100
0010
0100
,
1000
0000
0000
1010
0000
0000
0010
0000
,
0100
0000
0000
0101
0000
0000
0100
0000
,
0001
0000
0010
0100
,
1000
0000
0010
0100
,
0001
0000
0100
0000
,
0101
0000
1010
1010
,
1010
0000
0000
0010
,
2000
0000
3000
0002
0000
0003
1001
0000
,
0001
0000
0000
0101
0000
0000
0100
0000
,
0010
0000
0000
1010
0000
0000
0010
0000
,
1000
0000
0100
0010
,
0001
0000
0100
0010
,
1000
0000
0001
1000
,
0100
0000
0010
0001
,
1000
0000
1010
0000
,
0101
0000
0110
0000
,
1000
0010
1000
0001
,
0100
0000
0000
0010
0000
0000
0000
0000
,
0100
0000
0100
0000
0100
0000
0000
0001
,
0000
0020
0230
2300
,
3001
0100
0001
1000
,
0010
0000
0000
0100
0000
0000
0001
0000
,
1001
0000
0000
0110
0000
0000
2001
0000
,
3000
0020
0230
0302
,
0103
0000
0110
0000
,
0101
0000
0000
0010
,
1000
0100
0000
0100
,
0000
0010
0000
0010
,
0001
1001
0000
1000
,
0000
0010
0000
0010
,
0100
0000
0001
0000
,
0010
0001
1000
1000
,
0100
0000
0000
0110
0000
0000
0000
0000
,
0010
0000
0000
0011
0000
0000
0000
0000
,
0001
0000
0000
0101
0000
0000
0000
0000
,
0010
0000
0000
1010
0000
0000
0000
0000
,
0010
0000
0000
0110
0000
0000
0000
0000
,
0100
0000
0000
0101
0000
0000
0000
0000
,
0001
0000
0000
0011
0000
0000
0000
0000
,
0100
0000
0000
1100
0000
0000
0000
0000
,
1001
0000
0000
0000
,
0110
0000
0000
0000
0000
0000
0000
2002
,
0000
0000
0000
0000
3003
0000
1000
0100
,
0000
0000
1100
0000
0000
0010
0000
0000
,
0001
0000
0101
0000
0000
0010
0000
0000
,
1000
0000
1010
0000
0000
0100
0000
0000
,
0000
0000
0110
0000
0000
2000
0000
3000
,
0000
0000
0011
0000
0000
0100
0000
0000
,
1000
0000
1010
0000
0000
0100
0000
0000
,
0001
0000
0101
0000
0000
0010
0000
0000
,
0000
0000
0110
0000
0000
0002
0000
0003
,
0000
2000
0000
3002
,
0000
0203
0000
0320
,
0000
0230
0000
0302
,
0000
2003
0000
3200
,
0000
0320
0000
0032
,
0000
0000
2003
0000
3000
0010
0000
0000
,
0000
0000
0010
0000
0000
2000
0100
3000
,
0000
0020
0000
0032
,
0003
0000
1001
0000
0000
1010
0000
0000
,
1000
0000
1100
0000
0000
1001
0000
0000
,
0001
0000
2000
0000
3000
0002
0000
0003
,
0000
0010
0000
0000
0000
0100
0000
0000
,
0000
0000
1001
0000
0000
0101
0000
0000
,
0001
0000
0011
0000
0000
1001
0000
0000
,
1000
0000
0002
0000
0003
2000
0000
3000
,
0000
0100
0000
0000
0000
0010
0000
0000
,
0000
0000
0001
2000
0000
0020
0000
0000
,
0000
0000
0000
0000
,
0000
0000
0000
0000
,
3030
0000
0000
0000
;

//--------------- dance-single - Minxyz ----------------
#NOTES:
     dance-single:
     Minxyz:
     Easy:
     8:
     0,0,0,0,0:
0000
0000
0000
0000
,
0000
0000
0000
0000
,
0000
0000
0000
0000
,
0000
0000
0000
0000
,
1000
0001
0010
0100
,
2000
0000
3000
0020
0000
0030
0100
0000
,
0001
1000
0100
0010
,
0002
0000
0003
0200
0000
0300
0010
0000
,
0100
0100
0010
0010
,
1000
1000
0001
0001
,
0010
0000
0100
1000
0000
0000
2001
3000
,
0010
0000
0100
0001
0000
0000
1001
0000
,
1000
0000
0000
0100
0000
0000
0010
0000
,
0001
0000
0000
0100
0000
0000
1010
0000
,
1000
1000
0010
0010
,
0100
0100
0001
0001
,
0010
0010
0100
0100
,
2000
0000
3000
0020
0000
0030
0110
0000
,
0100
0000
0010
1000
0000
0000
2001
3000
,
0100
0000
0010
0001
0000
0000
1001
0000
,
1000
0000
0000
0010
0000
0000
0100
0000
,
0001
0000
0000
0010
0000
0000
1100
0000
,
1000
0000
0010
0000
0100
0000
0001
0010
,
0000
0000
0000
0010
0100
0000
1000
0000
,
0001
1000
0010
0000
,
1000
0001
0100
0000
,
0001
0010
1000
0010
,
0001
0000
1000
0100
0000
0000
0000
0000
,
0010
0000
0001
0000
1000
0000
0100
1000
,
0000
0010
0100
0001
,
1000
0100
0001
0100
,
1000
0000
0001
0010
0000
0000
0000
0000
,
0100
0000
1000
0000
0001
0000
0010
0001
,
0000
0100
0010
1000
,
0100
1000
0001
0100
,
0001
0000
0000
0000
0000
0010
0100
0000
,
0010
0012
0003
0100
,
0000
2100
3000
0010
,
0100
0000
0000
0100
0000
0000
0010
0000
,
1000
0100
0001
0100
,
1000
0000
0000
0100
0000
0000
0000
0000
,
0010
0000
0001
0000
0100
0000
0010
1000
,
0100
0000
0000
1000
0000
0010
0100
0000
,
0010
0000
0000
0100
0000
0001
0010
0000
,
0002
0000
0003
2000
0000
3000
0000
0000
,
0020
0000
0030
0200
0000
0300
0000
0000
,
0010
0000
0000
1000
0000
0100
0010
0000
,
0100
0000
0000
0010
0000
0001
0100
0000
,
0002
0000
0003
2000
0000
3000
0000
0000
,
0200
0000
0300
0020
0000
0030
0001
0000
,
0101
0000
0000
0010
,
1010
0000
0000
0000
1001
0000
0000
0220
,
0000
0000
0000
0000
0330
0000
1000
0001
,
0000
0000
0100
0000
0000
0001
0000
0010
,
0010
0000
0100
0000
0000
1000
0000
0010
,
0010
0000
0220
0000
0330
2002
0000
3003
,
0000
0000
2020
0000
3030
0201
0000
0300
,
0000
0000
0010
0000
0000
1000
0000
0100
,
0100
0000
0010
0000
0000
0001
0000
0100
,
0100
0000
0220
0000
0330
2002
0000
3003
,
0000
0000
0202
0000
0303
1020
0000
0030
,
0000
0200
0300
0002
,
0003
0000
0010
0100
0000
0000
0010
0100
,
0000
0200
0300
2000
,
3000
0000
0010
0100
0000
0000
0010
0100
,
0000
0002
0003
0020
,
0030
0000
0200
0000
0300
2000
0000
3000
,
0000
0000
0002
0000
0003
0200
0000
0300
,
0000
0020
0030
0110
,
0000
0000
0010
0000
0000
0100
0000
0001
,
1000
0000
0100
0000
0000
1000
0000
0001
,
0010
0000
0011
0000
0000
1100
0000
0000
,
0000
0010
0000
1000
0000
0010
0000
0000
,
0110
0000
0100
0000
0000
0010
0000
1000
,
0001
0000
0010
0000
0000
0001
0000
1000
,
0100
0000
1100
0000
0000
0011
0000
0000
,
0000
0100
0000
0001
0000
0100
0000
0000
,
0110
0000
0010
1000
0000
2002
0000
0000
,
0000
0000
0000
0000
,
0000
0000
0000
0000
,
3003
0000
0000
0000
;

//--------------- dance-single - Minxyz ----------------
#NOTES:
     dance-single:
     Minxyz:
     Medium:
     11:
     0,0,0,0,0:
0000
0000
0000
0000
,
0000
0000
0000
0000
,
0000
0000
0000
0000
,
0000
0000
0000
0000
,
0000
0000
0000
0000
0000
1000
0010
1000
,
0020
0000
0000
0230
0000
0000
0300
0000
,
0101
0000
0000
0000
0000
0100
0001
0100
,
0002
0000
0013
0200
0000
0300
0000
0000
,
1000
0010
0100
0010
,
1000
0100
0010
0100
,
1000
0010
0000
0100
0000
0000
0110
0000
,
0001
0010
0000
0100
0000
0000
0110
0000
,
0010
0001
1000
0100
0000
0010
0100
0000
,
1000
0010
0000
0010
0000
0000
1001
0000
,
0001
1000
0000
0010
0100
0000
0001
0000
,
0010
0100
0000
1000
0001
0000
0101
0000
,
1010
0000
1000
0000
0010
0000
0100
0001
,
0200
0000
0000
0320
0000
0000
0030
0000
,
1000
0100
0000
0010
0000
0000
0110
0000
,
0001
0100
0000
0010
0000
0000
0110
0000
,
0100
0001
1000
0010
0000
0100
0010
0000
,
1000
0100
0000
0100
0000
0000
1001
0000
,
1000
0100
0000
0010
0001
0100
0000
0010
,
1000
0000
0000
0010
0100
0000
0101
0000
,
1001
0010
0000
0110
,
0000
0100
0000
1001
,
1000
0010
0001
0010
,
1000
0000
1000
0100
0000
0000
0010
0000
,
0001
0010
0000
0100
1000
0000
0010
0100
,
0000
0001
0010
0000
0100
0000
1100
0000
,
0001
0100
1000
0100
,
0001
0000
0001
0010
0000
0000
0100
0000
,
1000
0100
0000
0010
0001
0000
0100
0010
,
0000
1000
0100
0000
0010
0000
0011
0000
,
1010
0000
1000
0010
1000
0000
0001
0010
,
0001
0000
0000
0000
0100
0000
0010
1000
,
0100
0020
0000
0130
,
0000
2000
0000
3001
,
0101
0200
0000
0301
,
0000
0010
0100
1010
,
1100
0000
0000
1001
0000
0000
0000
0000
,
1000
0010
1000
0010
0100
0001
0100
0010
,
0100
0100
0000
0001
0000
0000
1010
0000
,
0010
0010
0000
1000
0000
0000
0101
0000
,
2000
0000
3000
0200
0000
0300
0000
0000
,
0200
0000
0300
0002
0000
0003
0000
0000
,
0100
0100
0000
1000
0000
0000
0011
0000
,
0010
0010
0000
0001
0000
0000
1100
0000
,
0002
0000
0003
0200
0000
0300
0000
0000
,
0200
0000
0300
2000
0000
3000
0100
0000
,
0010
0110
0000
0000
0000
0000
0000
0000
,
0001
1001
0000
0000
0010
0000
1000
1010
,
0000
0000
0000
0000
0000
0000
0001
0101
,
0000
0000
1000
1000
0000
0010
0000
0010
,
0100
0000
0001
0001
0000
0010
0000
0010
,
0100
0000
1001
0000
0000
0110
0000
0000
,
0000
0000
1010
0000
0000
0101
0000
0000
,
0000
0000
0001
0001
0000
0100
0000
0100
,
0010
0000
1000
1000
0000
0100
0000
0100
,
0010
0000
1001
0000
0000
0110
0000
0000
,
0000
0000
0101
0000
0000
1010
0000
0000
,
0000
0000
0000
0000
0002
0000
0000
0000
0003
0000
0000
0100
0010
0000
0000
0000
,
0100
0000
0001
0010
0100
0100
1000
0010
,
0000
0000
0000
0000
2000
0000
0000
0000
3000
0000
0000
0010
0100
0000
0000
0000
,
0010
0000
1000
0100
0010
0010
0001
0100
,
0000
0000
0000
0000
0020
0000
0000
0000
0030
0000
0000
1000
0001
0000
0000
0000
,
0100
0000
0010
0000
0200
0000
0000
0000
0300
0000
0002
0000
0000
0003
0000
0000
,
0000
0010
0200
0000
0300
2000
0000
3000
,
0000
0001
0100
0000
0000
1000
0100
0000
,
0000
0000
0000
0000
0001
0000
0001
0000
0000
0000
0021
0030
0000
0000
0100
0000
,
1000
0000
0000
0000
1000
0000
1000
0000
0000
0000
1020
0030
0000
0000
0100
0000
,
0001
0000
0020
0000
0030
0002
0000
0003
,
0000
0100
0000
0010
0000
1000
0000
0000
,
0000
0000
0000
0000
1000
0000
1000
0000
0000
0000
1200
0300
0000
0000
0010
0000
,
0001
0000
0000
0000
0001
0000
0001
0000
0000
0000
0201
0300
0000
0000
0010
0000
,
1000
0000
0200
0000
0300
2000
0000
3000
,
0000
0010
0000
0100
0000
0001
0000
1000
,
0010
0001
0010
1000
0000
0200
0000
0000
,
0000
0000
0000
0000
,
0000
0000
0000
0000
,
0300
0000
0000
0000
;

//--------------- dance-single - Minxyz ----------------
#NOTES:
     dance-single:
     Minxyz:
     Hard:
     13:
     0,0,0,0,0:
0000
0000
0000
0000
,
0000
0000
0000
0000
,
0000
0000
0000
0000
,
0000
0000
0000
0000
,
0001
0000
1000
0000
0010
1000
0100
0010
,
0001
0000
0100
0020
0000
0030
1010
0000
,
1000
0000
0001
0000
0100
0001
0010
0100
,
1000
0000
0010
0200
0000
0300
0101
0000
,
0100
0010
0001
0010
1000
0100
0001
0100
,
0010
0100
0001
0100
1000
0000
1001
0000
,
0010
0001
0010
0001
0000
0000
1001
0000
,
1000
0010
1000
0010
0000
0000
1001
0000
,
1000
0100
0010
0001
0000
0100
0010
0000
,
0100
0000
0001
0000
0010
0000
0100
0000
0000
0000
1000
0000
1020
0030
0000
0000
,
0100
0010
1000
0100
0010
0001
0011
0001
,
0000
0000
0000
0100
0010
0000
1010
0000
,
1100
0000
0000
0000
0000
0001
0101
0001
,
2000
0000
3000
0020
0000
1030
1010
0000
,
0100
1000
0100
1000
0000
0000
1001
0000
,
0001
0100
0001
0100
0000
0000
1001
0000
,
0001
0010
0100
1000
0000
0010
0100
0000
,
0010
1000
0100
0010
0000
0001
0101
0000
,
0010
1000
0100
0001
0100
1000
0010
0001
,
0000
0000
0000
0010
1000
0100
0010
0000
,
2001
3000
0010
0000
1000
0000
0100
0000
0010
0000
0100
0000
1100
0000
1000
0000
,
0100
0010
0001
0100
0010
0100
0101
0100
,
0020
2030
3002
0023
,
0130
1000
0100
1000
0000
0000
1010
0000
,
1000
0100
1000
0001
0100
0001
1000
0010
,
0000
1000
0020
0000
0230
0000
0302
0000
,
0023
0032
2003
3020
,
0130
0001
0100
0001
0000
1000
0010
1000
,
2002
0000
3003
0102
0003
0000
0010
0001
,
0000
1000
0020
0000
0130
0001
0010
0100
,
1000
0000
1100
0100
0001
0000
0101
0100
,
1000
0000
1010
1010
0000
0010
0100
0001
,
1000
0001
1000
0000
0020
0000
0000
0000
0030
0000
0000
0000
1000
0000
0000
0000
,
0000
0000
0000
0100
2000
0000
0000
0000
3000
0000
0010
0000
0100
0000
0010
0000
,
0100
0000
0001
0100
0002
0000
1000
0000
0003
0000
0000
0000
1000
0000
0000
0000
,
0000
0000
0000
0010
0200
0000
0000
0000
0301
0000
0000
0000
0101
0000
0000
0000
,
0120
0000
0000
0000
0130
0000
0101
0000
0000
0000
0000
0000
0000
0000
1000
0100
,
0010
0010
0001
0001
0100
0100
0010
0010
,
1000
0010
0000
1001
0000
1000
1010
0000
,
1000
0100
0000
0110
0000
0010
0011
0000
,
0020
0000
0030
0200
0000
0300
0000
1100
,
2000
0000
3000
0020
0000
0030
0000
0000
,
0100
0001
0000
1001
0000
1000
1100
0000
,
1000
0010
0000
0110
0000
0100
0101
0000
,
0200
0000
0300
0020
0000
0030
0000
1010
,
2000
0000
3000
0200
0000
1300
0010
0100
,
0101
0101
0000
0000
0000
0000
1000
0010
,
1010
1010
0000
0010
0100
0000
0001
0202
,
0000
0000
0000
0303
0000
0000
1001
1001
,
0000
0000
1000
0010
0000
0001
0000
0010
,
1010
0000
0001
0010
0000
1000
0000
0010
,
0011
0000
2000
0000
3000
0200
0000
0300
,
0010
0001
0202
0000
0303
2020
0000
3030
,
1001
0000
1000
0100
0000
0001
0000
0100
,
1100
0000
0001
0100
0000
1000
0000
0100
,
0101
0000
0002
0000
0003
0020
0000
0030
,
0100
1000
2020
0000
3030
0202
0000
0303
,
0000
0000
0000
0000
0002
0000
0000
0000
0003
0000
0000
1000
0100
0000
0010
0000
,
0001
1000
0100
0001
1000
0010
0001
1000
,
0000
0000
0000
0000
0020
0000
0000
0000
0030
0000
0000
0100
0001
0000
0010
0000
,
0100
1000
0001
0010
1000
0001
0100
1000
,
0000
0000
0000
0000
2000
0000
0000
0000
3000
0000
0000
0001
0100
0000
1000
0000
,
0100
0010
2000
0000
3000
0002
0000
0003
,
0000
0000
0010
0100
0020
0000
0000
0000
0030
0000
0001
1000
0002
0000
0000
0000
,
0003
0000
0000
1000
0100
0000
0020
0000
0000
0000
0030
0000
0001
0000
0000
0000
,
2001
3000
0000
0000
0010
0000
1000
0000
0000
0000
0001
0100
0001
0000
0010
0000
,
0100
0000
1000
0010
1000
0000
0100
0000
0000
0000
0010
0000
0000
0000
0001
0000
,
0011
0000
0000
0000
2000
0000
0000
0000
3000
0000
0001
0010
0001
0000
0000
0000
,
1000
1100
0000
1010
0000
1001
0000
0000
,
1002
0003
0000
0000
0100
0000
0001
0000
0000
0000
1000
0010
1000
0000
0100
0000
,
0010
0000
0001
0100
0001
0000
0010
0000
0000
0000
0100
0000
0000
0000
1000
0000
,
1100
0000
0000
0000
0002
0000
0000
0000
0003
0000
1000
0100
1000
0000
0000
0000
,
0001
0011
0000
0101
0000
1001
1000
0010
,
0100
0001
0101
0101
0000
0220
0000
0000
,
0000
0000
0000
0000
,
0000
0000
0000
0000
,
0330
0000
0000
0000
;

//--------------- dance-double - Minxyz ----------------
#NOTES:
     dance-double:
     Minxyz:
     Easy:
     8:
     0,0,0,0,0:
00000000
00000000
00000000
00000000
,
00000000
00000000
00000000
00000000
,
00000000
00000000
00000000
00000000
,
00000000
00000000
00000000
00000000
,
10000000
00010000
00100000
01000000
,
00020000
00000000
00030000
00002000
00000000
00003000
00010000
00000000
,
00001000
00000100
00000010
00001000
,
00000002
00000000
00000003
00000200
00000000
00000300
00000010
00000000
,
00010000
00001000
00100000
00010000
,
10000000
01000000
00010000
00001000
,
00010000
00000000
00001000
01000000
00000000
00000000
20010000
30000000
,
00100000
00000000
01000000
00010000
00000000
00000000
10010000
00000000
,
10000000
00000000
00000000
01000000
00000000
00000000
00100000
00000000
,
00001000
00000000
00000000
00010000
00000000
00000000
00010100
00000000
,
00000100
00001000
00000010
00000010
,
00000100
00000100
00000001
00000010
,
00000010
00000100
00000100
00001000
,
00000020
00000000
00000030
00002000
00000000
00003000
00001010
00000000
,
00001000
00000000
00000001
00000010
00000000
00000000
00001002
00000003
,
00000100
00000000
00000010
00001000
00000000
00000000
00001001
00000000
,
00000001
00000000
00000000
00000010
00000000
00000000
00000100
00000000
,
00010000
00000000
00000000
00001000
00000000
00000000
00101000
00000000
,
10000000
00000000
00100000
00000000
01000000
00000000
00010000
00100000
,
00000000
00000000
00000000
00100000
01000000
00000000
00010000
00000000
,
00001000
00000010
00000001
00000000
,
00000100
00001000
00010000
00000000
,
00010000
00100000
10000000
01000000
,
00010000
00000000
00001000
00010000
00000000
00000000
00000000
00000000
,
00000010
00000000
00001000
00000000
00000100
00000000
00000010
00000001
,
00000000
00001000
00000100
00000010
,
00000001
00000100
00000010
00010000
,
00001000
00000000
00010000
00001000
00000000
00000000
00000000
00000000
,
00100000
00000000
00010000
00000000
10000000
00000000
01000000
00010000
,
00000000
01000000
10000000
00100000
,
01000000
00010000
10000000
01000000
,
00010000
00000000
00000000
00000000
00000000
00001000
00010000
00000000
,
00000010
00001020
00000030
00000100
,
00000000
00000102
00000003
00001000
,
00000010
00000000
00000000
00010000
00000000
00000000
00001000
00000000
,
00100000
00010000
01000000
00100000
,
10000000
00000000
00000000
01000000
00000000
00000000
00000000
00000000
,
00100000
00000000
00010000
00000000
01000000
00000000
00100000
10000000
,
01000000
00000000
00000000
00100000
00000000
00100000
00001000
00000000
,
00010000
00000000
00000000
00000100
00000000
00000100
00001000
00000000
,
00000020
00000000
00000030
00002000
00000000
00003000
00000000
00000000
,
00000002
00000000
00000003
00000200
00000000
00000300
00000000
00000000
,
00000010
00000000
00000000
00000010
00000000
00000010
00010000
00000000
,
00001000
00000000
00000000
01000000
00000000
01000000
00100000
00000000
,
20000000
00000000
30000000
02000000
00000000
03000000
00000000
00000000
,
02000000
00000000
03000000
00200000
00000000
00300000
00010000
00000000
,
01010000
00000000
00000000
00001000
,
00011000
00000000
00000000
00000000
00011000
00000000
00000000
02020000
,
00000000
00000000
00000000
03030000
00000000
00000000
00100000
00010000
,
00000000
00000000
01000000
00000000
00000000
00001000
00000000
00010000
,
00010000
00000000
00000100
00000000
00000000
00000010
00000000
00000001
,
00000001
00000000
00000202
00000000
00000303
00002020
00000000
00003030
,
00000000
00000000
00022000
00000000
00033000
02010000
00000000
03000000
,
00000000
00000000
00100000
00000000
00000000
00010000
00000000
00001000
,
00001000
00000000
00100000
00000000
00000000
01000000
00000000
10000000
,
10000000
00000000
20200000
00000000
30300000
02020000
00000000
03030000
,
00000000
00000000
00022000
00000000
00033000
00001020
00000000
00000030
,
00000000
00020000
00030000
00002000
,
00003000
00000000
00100000
00010000
00000000
00000000
01000000
00001000
,
00000000
00002000
00003000
00020000
,
00030000
00000000
00000010
00001000
00000000
00000000
00000100
00010000
,
00000000
00002000
00003000
00200000
,
00300000
00000000
02000000
00000000
03000000
20000000
00000000
30000000
,
00000000
00000000
00200000
00000000
00300000
02000000
00000000
03000000
,
00000000
00002000
00003000
00101000
,
00000000
00000000
00100000
00000000
00000000
00001000
00000000
00010000
,
00000100
00000000
00000010
00000000
00000000
00000001
00000000
00001000
,
00000100
00000000
00001100
00000000
00000000
00011000
00000000
00000000
,
00000000
00100000
00000000
00001000
00000000
00010000
00000000
00000000
,
00011000
00000000
00000100
00000000
00000000
00010000
00000000
00001000
,
00100000
00000000
01000000
00000000
00000000
10000000
00000000
00010000
,
00100000
00000000
00110000
00000000
00000000
00011000
00000000
00000000
,
00000000
00000100
00000000
00010000
00000000
00001000
00000000
00000000
,
00011000
00000000
01000000
00010000
00000000
00220000
00000000
00000000
,
00000000
00000000
00000000
00000000
,
00000000
00000000
00000000
00000000
,
00330000
00000000
00000000
00000000
;

//--------------- dance-double - Minxyz ----------------
#NOTES:
     dance-double:
     Minxyz:
     Medium:
     11:
     0,0,0,0,0:
00000000
00000000
00000000
00000000
,
00000000
00000000
00000000
00000000
,
00000000
00000000
00000000
00000000
,
00000000
00000000
00000000
00000000
,
00000000
00000000
00000000
00000000
00000000
10000000
00100000
10000000
,
00200000
00000000
00000000
02300000
00000000
00000000
03000000
00000000
,
01010000
00000000
00000000
00000000
00000000
00010000
00100000
00010000
,
00200000
00000000
00301000
00020000
00000000
00030000
00000000
00000000
,
00001000
00000010
00000001
00000100
,
00000010
00010000
00001000
00100000
,
01000000
10000000
00000000
01000000
00000000
00000000
01100000
00000000
,
00010000
00100000
00000000
00001000
00000000
00000000
00011000
00000000
,
00010000
00000100
00001000
00000100
00000000
00000010
00000001
00000000
,
00000100
00000010
00000000
00001000
00000000
00000000
00001010
00000000
,
00010000
00001000
00000000
00100000
01000000
00000000
10000000
00000000
,
00100000
01000000
00000000
00010000
01000000
00000000
00001000
00000000
,
00011000
00000000
00010000
00000000
00000100
00000000
00000010
00001000
,
00020000
00000000
00030000
02000000
00000000
03000000
00000000
00000000
,
00100000
00001000
00000000
00010000
00000000
00000000
00011000
00000000
,
00000010
00010000
00000000
00001000
00000000
00000000
00011000
00000000
,
00001000
00010000
00000100
00001000
00000000
00000010
00000100
00000000
,
00000001
00000100
00000000
00000100
00000000
00000000
00000101
00000000
,
00001000
00000100
00000000
00000010
00000001
00000100
00000000
00001000
,
00010000
00000000
00000000
00100000
01000000
00000000
01010000
00000000
,
10010000
00010000
00000000
00011000
,
00000000
00001000
00000000
00001001
,
00001000
00000010
00000001
00000010
,
00001000
00000000
00000010
00010000
00000000
00000000
00001000
00000000
,
00100000
00010000
00000000
10000000
01000000
00000000
00100000
01000000
,
00000000
00010000
01000000
00000000
01000000
00000000
21000000
30000000
,
00010000
01000000
10000000
01000000
,
00010000
00000000
00100000
00001000
00000000
00000000
00010000
00000000
,
00000100
00001000
00000000
00000010
00000100
00000000
00000001
00000010
,
00000000
00000100
00001000
00000000
00001010
00000000
00011000
00000000
,
00210000
00300000
01000000
10000000
01000000
00000000
00100000
00010000
,
00100000
00000000
00001000
00000000
00010000
00000000
00000010
00001000
,
00000100
00000020
00000000
00000031
,
00000000
00000200
00000000
00010300
,
01000000
00200000
00000000
10300000
,
00000000
01000000
00100000
00110000
,
01010000
00000000
00000000
00011000
00000000
00000000
00000000
00000000
,
00001000
00010000
00000010
00001000
00000100
00001000
00000010
00000100
,
00000001
00000001
00000000
00000010
00000000
00000000
00000210
00000300
,
00010000
00010000
00000000
00001000
00000000
00000000
00110000
00000000
,
00020000
00000000
00030000
02000000
00000000
03000000
00000000
00000000
,
02000000
00000000
03000000
00020000
00000000
00030000
00000000
00000000
,
10000000
10000000
00000000
01000000
00000000
00000000
01200000
00300000
,
00001000
00001000
00000000
00010000
00000000
00000000
00010010
00000000
,
00020000
00000000
00030000
00000200
00000000
00000300
00000000
00000000
,
00002000
00000000
00003000
00000020
00000000
00000030
00000100
00000000
,
00000010
00001010
00000000
00000000
00000000
00000000
00000000
00000000
,
00000100
00001100
00000000
00000000
00010000
00000000
00001000
00022000
,
00000000
00000000
00000000
00000000
00033000
00000000
00100000
00110000
,
00000000
00000000
01000000
01000000
00000000
00010000
00000000
00100000
,
00001000
00000000
00000100
00000100
00000000
00000001
00000000
00000010
,
00000100
00000000
00020200
00000000
00030300
00022000
00000000
00033000
,
00000000
00000000
00220000
00000000
00330000
12000000
00000000
03000000
,
00000000
00000000
00100000
00100000
00000000
00010000
00000000
01000000
,
00001000
00000000
00000010
00000010
00000000
00000001
00000000
00000100
,
00000010
00000000
00002002
00000000
00003003
00000220
00000000
00000330
,
00000000
00000000
00002200
00000000
00003300
00022000
00000000
00033000
,
00000000
00000000
00000000
00000000
00020000
00000000
00000000
00000000
00030000
00000000
00000000
00000100
00001000
00000000
00000000
00000000
,
00000010
00000000
00000100
00000001
00000010
00000100
00001000
00000100
,
00000000
00000000
00000000
00000000
00002000
00000000
00000000
00000000
00003000
00000000
00000000
00000100
00010000
00000000
00000000
00000000
,
00001000
00000000
00100000
00010000
01000000
00100000
10000000
00100000
,
00000000
00000000
00000000
00000000
00200000
00000000
00000000
00000000
00300000
00000000
00000000
01000000
00100000
00000000
00000000
00000000
,
01000000
00000000
00100000
00000000
02000000
00000000
00000000
00000000
03000000
00000000
00200000
00000000
00000000
00300000
00000000
00000000
,
00000000
00010000
00002000
00000000
00003000
00020000
00000000
00030000
,
00000000
00010000
01000000
00000000
00000000
10000000
01000000
00000000
,
00000000
00000000
00010000
00010000
00000000
00012000
00003000
00000100
,
00000100
00000000
00000001
00000001
00000000
00000201
00000300
00001000
,
00001000
00000000
00020000
00000000
00030000
00002000
00000000
00003000
,
00000000
00100000
00000000
00010000
00000000
01000000
00000000
00000000
,
00000000
00000000
00001000
00001000
00000000
00021000
00030000
00100000
,
00100000
00000000
10000000
10000000
00000000
10200000
00300000
00010000
,
00010000
00000000
00002000
00000000
00003000
00020000
00000000
00030000
,
00000000
00000100
00000000
00001000
00000000
00000010
00000000
00000000
,
00010000
00001000
00000100
00000100
00000000
00000020
00000000
00000000
,
00000000
00000000
00000000
00000000
,
00000000
00000000
00000000
00000000
,
00000030
00000000
00000000
00000000
;

//--------------- dance-double - Minxyz ----------------
#NOTES:
     dance-double:
     Minxyz:
     Hard:
     14:
     0,0,0,0,0:
00000000
00000000
00000000
00000000
,
00000000
00000000
00000000
00000000
,
00000000
00000000
00000000
00000000
,
00000000
00000000
00000000
00000000
,
00010000
00000000
10000000
00000000
00100000
10000000
01000000
00100000
,
00010000
00000000
01000000
00100000
00000000
00000000
00100000
00000000
,
00010000
00000000
00001000
00000000
00000100
00000001
00000010
00000100
,
00001000
00000000
00000100
00010000
00000000
00000000
00011000
00000000
,
00100000
00010000
01000000
00100000
00010000
00001000
00010000
00000100
,
00001000
00000010
00000100
00000001
00000010
00000100
00010000
00000000
,
00001000
00010000
00100000
00010000
00000000
00000000
00011000
00000000
,
00010000
00001000
00000010
00001000
00000000
00000000
00011000
00000000
,
00010000
01000000
10000000
00100000
00000000
10000000
01000000
00000000
,
00010000
00001000
00000010
00000001
00000000
00000001
00000101
00000000
,
00000010
00010000
00001000
00100000
00010000
10000000
00010000
01000000
,
00000000
00000000
00000000
01000000
00100000
00000000
10100000
00000000
,
11000000
00000000
00000000
00000000
00000000
10000000
01000000
00100000
,
00020000
00000000
00030000
00200000
00000000
00300000
11000000
00000000
,
10000000
01000000
00010000
00001000
00000000
00000000
00011000
00000000
,
00010000
00001000
00000100
00000001
00000000
00000000
00001001
00000000
,
00001000
00000010
00010000
00001000
00000000
00100000
01000000
00000000
,
00100000
00001000
00010000
00001000
00000000
00010000
00011000
00000000
,
00100000
00010000
01000000
00010000
01000000
10000000
01000000
00010000
,
00000000
00000000
00000000
10000000
01000000
00010000
00001000
00000000
,
00012000
00003100
00000010
00001000
00000100
00000010
00000011
00000001
,
00000100
00001000
00010000
01000000
00100000
01000000
11000000
01000000
,
00200000
00320000
00032000
00023000
,
00130000
00001000
00010000
00000100
00000000
00000000
00001100
00000000
,
00000010
00000001
00000010
00000001
00000010
00000100
00001000
00000010
,
00000000
00000100
00000002
00000000
00002003
00000000
00003200
00000000
,
00000320
00002030
00023000
00032000
,
00003010
00000001
00001000
00000010
00000000
00010000
00001000
00100000
,
00220000
00000000
00330000
02200000
03300000
00000000
00100000
00010000
,
00000000
10000000
00200000
00000000
01300000
00010000
00100000
01000000
,
10000000
00000000
00100000
01000000
00010000
00000000
00100000
00010000
,
00001000
00000000
00000000
00000000
00000000
00000100
00001000
00000010
,
00000100
00000001
00000100
00000000
00000020
00000000
00000000
00000000
00000000
00000000
00000000
00000030
00010000
00000000
00000000
00000000
,
00001000
00000000
00000000
00100000
00020000
00000000
00000000
00000000
00030000
00000000
01000000
00000000
00001000
00000000
00010000
00000000
,
00000010
00000000
00001000
00000100
00001000
00000000
00000001
00000000
00000000
00000000
00000000
00000000
00000010
00000000
00000000
00000000
,
00000000
00000000
00000000
00001000
00010000
00000000
00000000
00000000
01000000
00000000
00000000
00000000
10000000
00000000
00000000
00000000
,
00200000
00000000
00000000
00000000
00300000
00000000
01000000
00000000
01010000
00000000
00000000
00000000
00000000
00000000
00100000
00010000
,
00100000
00100000
00001000
00001000
00000100
00000100
00000010
00000010
,
00000001
00000010
00000000
00001020
00000030
00010000
00011000
00000000
,
00010000
00100000
00000000
10100000
00000000
10000000
11000000
00000000
,
00200000
00000000
00300000
00020000
00000000
00030000
00000000
01000000
,
00200000
00000000
00300000
10000000
00000000
00000000
00000000
00000000
,
10000000
00100000
00000000
00010000
00000000
00001000
00011000
00000000
,
00010000
00001000
00000000
00000010
00000000
00000001
00000012
00000003
,
00000200
00000000
00000300
00000002
00000000
00000003
00000000
00001100
,
00000200
00000000
00000300
00020000
00000000
00031000
00100000
00010000
,
01000000
01010000
00000000
00000000
00000000
00000000
00001000
00010000
,
00000100
00001100
00000000
00010000
00001000
00000000
00010000
00022000
,
00000000
00000000
00000000
00033000
00000000
00000000
00100000
00001000
,
00000000
00000000
00010000
00100000
00000000
10000000
00000000
01000000
,
01010000
00000000
00001000
00000010
00000000
00000001
00000000
00000100
,
00001100
00000000
00000220
00000000
00000330
00002002
00000000
00003003
,
00001000
00000100
00002200
00000000
00003300
00002002
00000000
00003003
,
00000201
00000300
00001000
00000100
00000000
00000001
00000000
00000010
,
00001010
00000000
00010000
01000000
00000000
10000000
00000000
00100000
,
00110000
00000000
20020000
00000000
30030000
02200000
00000000
03300000
,
00010000
00100000
00220000
00000000
00330000
22000000
00000000
33000000
,
00000000
00000000
00000000
00000000
20000000
00000000
00000000
00000000
30000000
00000000
00000000
01000000
00100000
00000000
00010000
00000000
,
01000000
00100000
10000000
01000000
00100000
00010000
01000000
00001000
,
00000000
00000000
00000000
00000000
00002000
00000000
00000000
00000000
00003000
00000000
00000000
00000100
00000010
00000000
00001000
00000000
,
00000100
00000010
00000001
00000010
00000100
00001000
00000100
00010000
,
00000000
00000000
00000000
00000000
00002000
00000000
00000000
00000000
00003000
00000000
00000000
00100000
00010000
00000000
10000000
00000000
,
01000000
00000000
00010000
00000000
00002000
00000000
00000000
00000000
00003000
00000000
00020000
00000000
00000000
00030000
00000000
00000000
,
00000000
00000000
00000100
00001000
00000200
00000000
00000000
00000000
00000300
00000000
01000000
00010000
02000000
00000000
00000000
00000000
,
03000000
00000000
00000000
00100000
10000000
00000000
01000000
00000000
00000000
00000000
00000000
00010000
00001000
00000000
00000000
00000000
,
00011000
00000000
00000000
00000000
00001000
00000000
00000100
00000000
00000000
00000000
00000001
00000100
00000001
00000000
00000010
00000000
,
00001000
00000000
00010000
00001000
00010000
00000000
01000000
00000000
00000000
00000000
10000000
00000000
00000000
00000000
00100000
00000000
,
01000000
00000000
00000000
00000000
00020000
00000000
00000000
00000000
00030000
00000000
00100000
00010000
00100000
00000000
00000000
00000000
,
01000000
10000000
00000000
01100000
00000000
00110000
00000000
00000000
,
00001000
00000000
00000000
00000000
00010000
00000000
01000000
00000000
00000000
00000000
10000000
01000000
10000000
00000000
00100000
00000000
,
00010000
00000000
00001000
00010000
00001000
00000000
00010000
00000000
00000000
00000000
01000000
00000000
00000000
00000000
00010000
00000000
,
00001000
00000000
00000000
00000000
00000010
00000000
00000000
00000000
00000000
00000000
00000001
00000100
00000001
00000000
00000000
00000000
,
00000100
00000110
00000000
00000101
00000000
00001010
00001000
00000100
,
00000110
00000100
00001100
00001100
00000000
00022000
00000000
00000000
,
00000000
00000000
00000000
00000000
,
00000000
00000000
00000000
00000000
,
00033000
00000000
00000000
00000000
;
