#TITLE:Subways Of Your Mind;
#SUBTITLE:;
#ARTIST:FEX;
#TITLETRANSLIT:;
#SUBTITLETRANSLIT:;
#ARTISTTRANSLIT:;
#GENRE:;
#CREDIT:;
#MUSIC:Subways Of Your Mind.ogg;
#BANNER:Subways Of Your Mind.png;
#BACKGROUND:Subways Of Your Mind-bg.png;
#CDTITLE:;
#SAMPLESTART:44.529;
#SAMPLELENGTH:15.772;
#SELECTABLE:YES;
#OFFSET:0.911;
#BPMS:0.000=130.000
,4.000=130.600
,16.000=129.430
,20.000=128.070
,23.000=129.810
,25.000=132.420
,28.000=125.540
,31.500=130.070
,34.000=131.950
,35.000=130.010
,36.000=132.000
,37.000=130.850
,39.000=127.700
,43.000=129.760
,48.000=130.720
,51.000=126.000
,52.000=127.370
,55.000=129.160
,59.000=130.450
,62.000=128.820
,67.000=127.060
,71.000=130.640
,79.000=128.450
,88.000=129.680
,98.000=128.140
,100.000=127.940
,105.000=129.590
,111.000=126.970
,113.000=127.870
,116.000=129.990
,123.000=128.600
,127.000=129.450
,129.000=132.140
,130.000=135.000
,132.000=128.760
,142.000=129.460
,156.000=128.580
,171.000=130.320
,177.000=129.610
,183.000=130.160
,185.000=128.480
,188.000=128.370
,194.000=126.930
,195.500=128.990
,199.000=129.220
,209.000=129.370
,212.000=130.220
,221.000=129.800
,223.000=125.000
,224.000=127.000
,227.000=128.440
,228.000=128.920
,235.000=130.000
,241.000=127.000
,243.000=128.180
,247.000=125.970
,248.000=130.810
,252.000=130.110
,254.000=133.000
,255.000=126.000
,256.000=115.930
,257.000=106.880
,258.000=92.010
,259.000=57.380
,260.000=130.000
;
#STOPS:;
#BGCHANGES:;
#FGCHANGES:;

//--------------- dance-single - OrangeRight ----------------
#NOTES:
     dance-single:
     OrangeRight:
     Beginner:
     3:
     0,0,0,0,0:
0000
0000
0000
0000
,
0000
0000
0000
0000
,
0000
0000
0000
0000
,
0000
0000
0000
0000
,
0000
0000
0000
0000
,
0001
0000
0000
0000
,
1000
0000
0000
0000
,
0100
0000
0000
0000
,
0100
0000
0100
0000
,
1000
0000
1000
0000
,
0001
0000
0000
0000
,
0001
0000
0001
0000
,
1000
0000
0000
0000
,
1000
0000
0100
0000
,
0010
0000
0001
0000
,
0100
0000
0000
0000
,
0100
0000
0100
0000
,
0001
0000
0001
0000
,
1000
0000
0000
0000
,
1000
0000
1000
0000
,
0001
0000
0000
0000
,
1000
0000
0010
0000
,
0100
0000
0001
0000
,
1000
0000
0000
0000
,
0001
0000
0001
0000
,
1000
0000
0100
0000
,
0010
0000
0100
0000
,
2000
0000
3000
0000
,
1000
0000
1000
0000
,
0001
0000
0100
0000
,
0010
0000
0100
0000
,
0002
0000
0003
0000
,
0001
0000
0001
0000
,
1000
0000
1000
0000
,
0001
0000
0001
0000
,
0100
0000
0010
0000
,
1000
0000
1000
0000
,
0001
0000
0001
0000
,
1000
0000
1000
0000
,
0100
0000
0000
0000
,
0100
0000
0100
0000
,
1000
0000
0001
0000
,
0010
0000
0001
0000
,
2000
0000
3000
0000
,
1000
0000
1000
0000
,
0001
0000
1000
0000
,
0010
0000
1000
0000
,
0002
0000
0003
0000
,
0001
0000
0001
0000
,
1000
0000
0100
0000
,
0010
0000
0100
0000
,
1000
0000
0010
0000
,
0100
0000
0010
0000
,
1000
0000
0001
0000
,
0010
0000
0001
0000
,
0100
0000
0010
0000
,
1000
0000
0001
0000
,
1000
1000
1000
0000
,
0001
0001
0001
0000
,
0100
0100
0100
0000
,
0010
0010
0010
0000
,
1000
0001
1000
0000
,
0001
1000
0001
0000
,
0100
0010
0100
0000
,
0010
0000
0100
0000
,
2002
0000
0000
0000
,
3003
0000
0000
0000
;

//--------------- dance-single - OrangeRight ----------------
#NOTES:
     dance-single:
     OrangeRight:
     Easy:
     5:
     0,0,0,0,0:
0000
0000
0000
0000
,
0000
0000
0000
0000
,
0000
0000
0000
0000
,
0000
0000
0000
0000
,
0000
0000
0000
0000
,
1000
0010
1000
0000
,
0001
0010
0001
0000
,
1000
0000
1000
0000
,
0001
1000
0001
0000
,
1000
0000
0100
0010
,
0001
0000
0001
0000
,
0100
0000
0010
1000
,
0001
0000
1000
0000
,
0001
0000
0010
0001
,
0100
0010
1000
0100
,
1000
0000
1000
0000
,
0001
1000
0001
0000
,
1000
0000
0010
0100
,
0001
0000
0001
0000
,
1000
0000
0001
0010
,
0100
0000
0100
0000
,
1000
0000
0010
1000
,
0100
0010
0001
0100
,
0001
0000
0001
0000
,
1000
0001
1000
0000
,
0001
0100
0001
1000
,
0001
0010
0100
1000
,
2002
0000
3003
0000
,
1000
1000
1000
0000
,
1000
0100
1000
0001
,
1000
0010
0100
0001
,
2002
0000
3003
0000
,
0001
0001
0001
0000
,
1000
0100
1000
0000
,
0001
0100
0001
0000
,
1000
0010
1000
0010
,
0100
0001
1000
0000
,
0001
0010
0001
0000
,
1000
0010
1000
0000
,
0001
0000
0001
0000
,
1000
0001
1000
0000
,
0001
0100
0001
1000
,
0100
0010
0001
0100
,
0220
0000
0330
0000
,
0010
0010
0010
0000
,
1000
0010
1000
0001
,
0010
0100
1000
0010
,
0220
0000
0330
0000
,
0100
0100
0100
0000
,
0001
1000
0001
1000
,
0100
0001
0100
0000
,
0010
0100
0010
0100
,
1000
0010
0100
0001
,
1000
0001
1000
0001
,
0100
1000
0100
0000
,
0010
0100
0010
0100
,
0001
0010
0100
1000
,
0001
0001
0100
0001
,
1000
1000
0100
1000
,
0010
0010
0100
0001
,
1000
0100
0010
0001
,
1000
1000
0010
1000
,
0001
0001
0010
0001
,
0100
0100
0010
1000
,
0002
0003
0020
0030
0200
0300
2000
3000
,
2002
0000
0000
0000
,
0000
0000
0000
0000
,
3003
0000
0000
0000
;

//--------------- dance-single - OrangeRight ----------------
#NOTES:
     dance-single:
     OrangeRight:
     Medium:
     8:
     0,0,0,0,0:
0000
0000
0000
0000
,
0000
0000
0000
0000
,
0000
0000
0000
0000
,
0000
0000
0000
0000
,
0000
0000
0000
0000
,
1000
0100
0010
0001
,
1000
0000
0010
0000
0100
0001
0100
0000
,
0002
0000
0013
0100
2000
0000
3010
1000
,
0000
0001
0000
1000
0200
0000
0300
0000
,
1000
0000
0010
0000
0100
0000
0010
1000
,
0001
0010
0100
1000
,
0001
0000
0100
0000
0010
1000
0000
1000
,
0100
0000
0010
0001
1000
0000
0100
0000
,
1000
0010
0100
1000
,
0100
0001
0010
0100
,
2000
0000
3001
0100
0002
0000
0013
0001
,
0000
1000
0000
0001
0200
0000
0300
0000
,
0001
0000
0010
0000
0100
0000
0010
0001
,
1000
0010
0100
0001
,
1000
0000
0100
0000
0010
0001
0000
0001
,
0100
0000
0010
1000
0001
0000
0100
0000
,
0001
0010
0100
0001
,
0100
1000
0010
0100
,
0002
0000
1003
0010
2000
0000
3100
1000
,
0000
0001
0000
1000
0010
0100
0001
0100
,
0000
0010
1000
0010
0000
1000
0100
1000
,
0000
0001
0000
0010
0000
1000
0000
0020
,
0000
0000
0031
1000
0001
0000
1000
0010
,
0000
0100
0000
0001
1000
0100
0010
0100
,
0000
1000
0001
1000
0000
0010
0100
0001
,
0000
0010
0000
1000
0000
0010
0000
0002
,
0000
0000
1003
0001
1000
0000
0010
0100
,
0000
0001
0000
1000
0001
1000
0001
0000
,
1000
0000
0010
0000
1000
0010
0100
0000
,
0002
0010
1000
0103
,
0001
0000
0010
0000
0001
0100
0010
0000
,
2000
3002
0023
0230
,
1300
0000
0010
0000
0100
0001
1000
0000
,
0002
0023
0230
2300
,
3002
0000
1003
0001
2000
0000
3010
1000
,
0000
0001
0000
1000
0100
1000
0001
1000
,
0000
0010
1000
0010
0000
0100
0001
0100
,
0000
1000
0000
0100
0000
0001
0000
2000
,
0000
0000
3001
1000
0001
0000
1000
0100
,
0000
0010
0000
0001
1000
0010
0100
0010
,
0000
1000
0100
1000
0000
0001
0100
0001
,
0000
1000
0000
0100
0000
0001
0000
0200
,
0000
0000
0310
0100
0010
0000
0001
0100
,
0000
0010
0000
1000
0001
1000
0100
1000
,
0000
0100
1000
0100
0000
1000
0001
0100
,
0000
0010
0000
1000
0000
0001
0010
0001
,
0000
0010
0001
0010
0000
0001
1000
0010
,
0000
0100
0000
0001
0000
1000
0001
1000
,
0000
0001
1000
0001
0000
0100
0010
1000
,
0000
0100
0000
0010
0000
0001
1000
0001
,
0000
1000
0001
1000
0000
0010
0100
0001
,
1000
0100
0010
0001
,
1000
0001
1000
0001
0010
0000
0110
0000
,
0010
0100
0010
0100
1000
0000
1001
0000
,
0001
1000
0001
1000
0010
0000
1010
0000
,
1000
0100
0010
0001
0100
0000
0101
0000
,
0001
0010
0001
0010
0100
0000
0110
0000
,
0010
0100
0010
0100
1000
0000
1100
0000
,
1000
0010
0100
0001
1000
0000
1001
0000
,
1000
0100
0010
0001
2000
3000
0220
0330
,
2002
0000
0000
0000
,
0000
0000
0000
0000
,
3003
0000
0000
0000
;

//--------------- dance-single - OrangeRight ----------------
#NOTES:
     dance-single:
     OrangeRight:
     Hard:
     11:
     0,0,0,0,0:
0000
0000
0000
0000
,
0000
0000
0000
0000
,
0000
0000
0000
0000
,
0000
0000
0000
0000
,
0000
0000
0000
0000
,
1000
0100
1000
0001
0001
0000
0101
0000
,
0001
0010
0001
1000
1000
0010
0100
0001
,
1001
0000
0001
0010
0110
0000
0100
1000
,
0000
0010
0000
0100
0002
0000
1003
0000
,
1000
0100
0010
0000
0001
0100
0000
0100
,
0001
0010
0100
0000
1000
0010
0000
0010
,
1000
0001
0010
0000
0100
1000
0000
1000
,
0001
0000
0100
0000
0001
0000
1000
0100
2000
0000
0000
0000
3001
0000
0000
0000
,
0001
0100
0010
0000
2000
0000
3200
0000
,
0302
0203
2300
3010
,
1010
0000
0010
0100
0110
0000
0100
0001
,
0000
0010
0000
0100
2000
0000
3001
0000
,
0001
0100
0010
0000
1000
0100
0000
0100
,
1000
0010
0100
0000
0001
0010
0000
0010
,
0001
1000
0010
0000
0100
0001
0000
0001
,
1000
0000
0100
0000
1000
0000
0001
0100
0002
0000
0000
0000
1003
0000
0000
0000
,
1000
0001
0010
0000
0002
0000
0203
0000
,
2300
3200
0302
0013
,
0011
0000
0010
0100
0110
0000
0100
1000
,
0000
0010
0000
0100
0001
1000
0100
0001
,
0000
0001
0100
1000
0000
0010
0100
0002
,
0000
0023
0000
0230
0000
2300
0000
3001
,
1000
0000
0010
0000
1000
0000
0001
0010
0002
0000
0000
0000
1003
0000
1100
0000
,
0000
0011
0000
0001
1000
0001
0010
1000
,
0000
1000
0010
0001
0000
0100
0010
2000
,
0000
3200
0000
0320
0000
0032
0000
1003
,
0001
0000
0100
0000
0001
0000
1000
0100
2000
0000
0000
0000
3001
0000
0011
0000
,
0000
1010
0000
1001
2002
0000
3003
0000
,
1000
0001
1000
0100
0100
0010
0001
0000
,
0001
1000
0001
0100
0100
0001
1000
0000
,
0001
1000
0001
1000
0100
0010
0001
0100
,
0010
1000
0010
0100
0010
0001
0010
0000
,
1000
0100
1000
0001
0001
0100
0010
0000
,
0100
1000
0100
0010
0100
0001
0010
0100
,
1100
0000
1000
0001
1001
0000
0001
0100
,
0000
0010
0000
1000
0001
1000
0100
0001
,
0000
0001
0100
1000
0000
0001
0010
0200
,
0000
2300
0000
3002
0000
0203
0000
0301
,
1000
0000
0010
0000
1000
0000
0001
0100
0002
0000
0000
0000
1003
0000
1100
0000
,
0000
0101
0000
0001
1000
0001
0010
1000
,
0000
1000
0010
0001
0000
0001
0100
0020
,
0000
2030
0000
3002
0000
0023
0000
0031
,
1000
0000
0100
0000
1000
0000
0001
0010
0002
0000
0000
0000
1003
0000
0011
0000
,
0000
1010
0000
0001
1000
0001
0100
1000
,
0000
0001
0010
1000
0000
0100
0010
0011
,
0000
1010
0000
1001
0000
1000
0100
0001
,
0000
1000
0010
0001
0000
0100
0010
1010
,
0000
0011
0000
1001
0000
0001
0100
0010
,
0100
0001
0010
1000
0010
0001
0100
0110
,
0000
1010
0000
1001
0000
1000
0100
0010
,
0100
1000
0010
0001
0010
1000
0100
0010
,
0002
0203
0320
2030
,
3001
0000
0100
0000
0001
1000
0000
0000
1100
0000
0000
0000
1010
0000
0000
0000
,
1000
0000
0010
0000
1000
0001
0000
0000
0011
0000
0000
0000
0101
0000
0000
0000
,
0001
0000
0100
0000
0010
1000
0000
0000
1001
0000
0000
0000
1100
0000
0000
0000
,
1000
0000
0100
0000
0010
0001
0000
0000
0011
0000
0000
0000
1100
0000
0000
0000
,
0100
0000
1000
0000
0010
0100
0000
0000
0101
0000
0000
0000
0011
0000
0000
0000
,
0010
0000
0001
0000
0100
0010
0000
0000
1010
0000
0000
0000
1100
0000
0000
0000
,
1000
0000
0001
0000
0010
0100
0000
0000
1100
0000
0000
0000
1001
0000
0000
0000
,
1000
0010
0100
0001
0022
0033
2200
3300
,
2002
0000
0000
0000
,
0000
0000
0000
0000
,
3003
0000
0000
0000
;

//--------------- dance-single - OrangeRight ----------------
#NOTES:
     dance-single:
     OrangeRight:
     Challenge:
     13:
     0,0,0,0,0:
0000
0000
0000
0000
,
0000
0000
0000
0000
,
0000
0000
0000
0000
,
0000
0000
0000
0000
,
0000
0000
0000
0000
,
1000
0100
0010
0100
0100
1000
0001
0100
,
0001
0000
0010
0000
0100
0000
0010
0000
0010
0000
0001
0000
1000
0010
1000
0000
,
2010
0000
3001
0010
0012
0000
1003
1010
,
0000
0000
0110
0000
0000
0000
0101
0000
1001
0000
0000
0000
0001
1000
0001
0000
,
1000
0100
0001
0100
0010
0001
0100
1000
,
0100
0010
1000
0100
0010
0001
1000
0001
,
0100
0001
0010
0100
1000
0010
0100
0010
,
2000
0000
0100
0000
3001
0000
1000
0001
0010
0000
0100
0000
1000
0000
0001
0000
,
1000
0010
0001
0010
0100
0010
1000
0100
,
0010
0100
0001
0100
0010
0100
1000
0010
,
1020
0000
0130
0001
0021
0000
0130
1100
,
0000
1010
0000
0110
0101
0000
1001
0000
,
0001
0100
1000
0100
0010
1000
0100
0001
,
0100
0010
0001
0100
0010
1000
0010
0001
,
0010
1000
0100
0010
0100
1000
0001
0100
,
0002
0000
0010
0000
1003
0000
0001
1000
0100
0000
0010
0000
0001
0000
1000
0000
,
0001
0010
1000
0010
0100
0010
0001
0100
,
1000
0100
0010
0100
0001
1000
0100
0010
,
0012
0000
1003
0010
2010
0000
3001
0011
,
0000
0000
0110
0000
0000
0000
1100
0000
1000
0100
1000
0000
0001
0010
0001
0000
,
1000
0010
0100
0010
1000
0100
0001
0100
,
1000
1010
0000
0110
0000
0101
0000
1001
,
0001
0000
1000
0000
0100
0000
1000
0010
1000
0000
0001
0000
0010
0000
0110
0000
,
0000
1100
1000
1010
0110
0100
0001
1000
,
0001
0010
0100
0010
0001
0100
1000
0100
,
0001
0011
0000
0110
0000
1100
0000
1001
,
1000
0000
0001
0000
0100
0000
0001
0010
0001
0000
1000
0000
0100
0000
1100
0000
,
0000
0000
0101
0000
0000
0000
1001
0000
1000
0010
1000
0000
0001
0100
0001
0000
,
1000
0010
1000
0001
0001
0010
2000
0000
,
3010
0001
0100
0010
0010
1000
0002
0000
,
1003
0100
0010
0100
0100
1000
0001
0100
,
0010
0100
1000
0100
0001
0100
0010
1000
,
0001
0010
0001
1000
1000
0100
0002
0000
,
0103
1000
0010
0100
0100
0001
1000
0001
,
0012
0000
1003
0010
2010
0000
3100
0110
,
0000
0000
0011
0000
0000
0000
0101
0000
0100
0000
0001
0010
0001
0000
1000
0100
,
1000
0010
0001
0010
0100
0001
1000
0100
,
0010
0011
0000
1001
0000
1100
0000
1001
,
0001
0000
0100
0000
0010
0000
1000
0001
0010
0000
0100
0000
1000
0000
1100
0000
,
0000
1001
0000
1010
0110
0100
0001
1000
,
0001
0010
1000
0010
0100
1000
0001
0100
,
0010
1010
0000
1001
0000
0101
0000
1001
,
1000
0000
0100
0000
0010
0000
0001
1000
0010
0000
0100
0000
0001
0000
0011
0000
,
0000
1001
0000
0101
1001
1000
0100
0001
,
1000
0010
0100
1000
0001
0100
1000
1100
,
0100
0101
0000
1001
0000
0001
0010
1000
,
0001
0100
0010
0001
1000
0010
0001
0011
,
0010
1010
0000
1001
0000
1000
0010
0001
,
1000
0100
0010
1000
0100
0001
0100
1100
,
1000
1010
0000
0101
0000
0001
0010
1000
,
0001
0100
0010
0001
0100
1000
0100
0101
,
0001
0011
0010
0110
0100
1000
0001
1000
,
1010
0000
0010
0000
0100
0001
0000
0001
1000
0000
0000
0000
1001
0000
0000
0000
,
0011
0000
0010
0000
0100
1000
0000
1000
0001
0000
0000
0000
1001
0000
0000
0000
,
0101
0000
0001
0000
1000
0100
0000
0010
0001
0000
0000
0000
1001
0000
0000
0000
,
1100
0000
1000
0000
0001
0100
0000
0010
1000
0000
0000
0000
1001
0000
0000
0000
,
1100
0000
0100
0000
0010
0001
0000
1000
0010
0000
0000
0000
0110
0000
0000
0000
,
0101
0000
0100
0000
0010
1000
0000
0001
0010
0000
0000
0000
0110
0000
0000
0000
,
0011
0000
0001
0000
1000
0010
0000
0100
0001
0000
0000
0000
1001
0000
0000
0000
,
1010
0000
1000
0000
0100
0010
0001
0000
0202
0000
0303
0000
2020
0000
3030
0000
,
2002
0000
0000
0000
,
0000
0000
0000
0000
,
3003
0000
0000
0000
;
