#TITLE:Storm In Lover;
#SUBTITLE:;
#ARTIST:園田海未 (CV - 三森すずこ), 絢瀬絵里 (CV - 南條愛乃);
#TITLETRANSLIT:;
#SUBTITLETRANSLIT:;
#ARTISTTRANSLIT:Umi Sonoda (CV - Suzuko Mimori), Eli Ayase (CV - Yoshino Nanjou);
#GENRE:ROMANTIC SAMBA;
#CREDIT:;
#BANNER:Storm In Lover.png;
#BACKGROUND:Storm In Lover-bg.png;
#LYRICSPATH:;
#CDTITLE:;
#MUSIC:Storm In Lover.ogg;
#OFFSET:-0.530999;
#SAMPLESTART:11.015067;
#SAMPLELENGTH:16.420000;
#SELECTABLE:YES;
#BPMS:0.000000=120.000000
;
#STOPS:
;
#BGCHANGES:;
#KEYSOUNDS:;
#ATTACKS:;

//---------------dance-single - ----------------
#NOTES:
     dance-single:
     :
     Hard:
     15:
     0.584234,0.632687,0.113182,0.347091,0.988455,542.000000,527.000000,15.000000,46.000000,22.000000,0.000000,0.584234,0.632687,0.113182,0.347091,0.988455,542.000000,527.000000,15.000000,46.000000,22.000000,0.000000:
0000
0000
0000
0000
,
0000
0000
0000
0000
,
0000
0000
0000
0000
,
0000
0000
0000
0000
,
0001
1000
0000
1000
0000
1000
0000
0000
0000
0000
0100
0000
0001
0000
0100
0000
,
1000
2010
3002
0013
,
1100
0000
00M0
0100
0002
0000
0000
1003
0000
0001
0000
0010
0100
0000
1000
0000
,
0010
0000
0M00
0010
0002
0000
0000
1003
0000
0100
00M0
0100
0001
0000
1000
0000
,
0001
0000
0100
0001
0000
0100
0000
0010
0000
0001
0000
0000
0010
0000
0100
0000
,
0001
0000
1000
0000
0002
0010
0000
2003
0010
0000
3001
0100
0000
0000
0001
0000
,
1000
0000
0001
0100
0000
1000
00M0
1000
0000
0010
0000
0100
0001
0000
1000
0000
,
0001
0000
0010
0100
0000
0010
0M00
0010
0000
1000
0000
0010
0100
0000
0001
0000
,
0100
0000
1000
0100
0000
0010
0000
1000
0000
0001
0000
0000
0010
0000
0100
0000
,
1000
0001
1000
0000
0000
0010
0000
0000
0100
0000
0000
0001
0000
0000
1000
0000
,
1001
0000
2000
0010
0000
0001
0000
3100
0000
1000
0000
0100
0010
0000
0001
0000
,
1000
0000
0002
0100
0000
1000
0000
0013
0000
0001
0000
0100
0001
0000
1000
0000
,
1001
0000
2000
0100
0000
0001
0000
3010
0000
1000
0000
0010
0100
0000
0001
0000
,
1000
0000
0002
0010
0000
1000
0000
0103
0000
0001
0000
0010
1000
0000
0010
0000
,
0001
0000
0100
0020
0000
0100
0000
1030
0000
0001
0000
0100
0010
0000
1000
0000
,
0001
0000
0010
0200
0000
0010
0000
1300
0000
0001
0000
0010
0100
0000
1000
0000
,
0001
0000
1000
0200
0000
1000
0000
0310
0000
0100
0000
1000
0001
0000
1000
0000
,
0010
0000
0001
0010
0000
0100
0000
0001
0000
0010
0000
0100
1000
0000
0001
0000
,
1000
0000
0100
0020
0000
0100
0000
0031
0000
1000
0000
0100
0010
0000
0001
0000
,
0100
0000
1000
0200
0000
0010
0000
0301
0000
1000
0000
0100
0010
0000
0001
0000
,
1000
0000
0010
0100
0000
0000
0001
0000
1000
0000
0000
0100
0000
0000
0001
0000
,
0100
0000
0010
0001
0000
0100
0000
0010
0000
1000
0000
0001
0010
0100
1000
0000
,
2001
0000
0000
0010
0000
0000
3100
0000
1100
0000
0000
0100
1000
0000
0001
0000
,
0010
0000
0000
1000
0010
0000
1000
0000
0010
0001
0000
0010
0000
0001
0000
0100
,
0010
0000
0000
0000
00M1
0000
0000
0000
0100
0000
0000
0000
0010
0000
0000
0000
00M1
0000
0000
0000
0100
0000
0000
0000
0010
0000
0000
0000
0000
0000
0000
0000
0000
0001
0000
0000
0000
0000
0000
0000
0000
0000
0010
0000
0000
0000
0000
0000
,
1000
0000
0001
0010
0100
0000
1000
0010
0000
0001
0000
0010
0100
0000
0001
0000
,
1002
0000
0000
0010
0000
0000
0103
0000
0101
0000
0000
0100
0001
0000
1000
0000
,
0010
0000
0000
0001
0010
0000
0001
0000
0010
1000
0000
0010
0000
1000
0000
0100
,
0010
0000
0000
0000
10M0
0000
0000
0000
0100
0000
0000
0000
0010
0000
0000
0000
10M0
0000
0000
0000
0100
0000
0000
0000
0010
0000
0000
0000
0000
0000
0000
0000
0000
0001
0000
0000
0000
0000
0000
0000
0000
0000
1000
0000
0000
0000
0000
0000
,
0010
0000
0000
0000
0001
0000
0000
0000
0010
0000
0000
0000
0001
0000
0000
0000
0010
0000
0000
0000
0001
0000
0000
0000
0010
0000
0000
0000
0000
0000
0000
0000
0000
1000
0000
0000
0100
0000
0000
0000
0000
0000
1000
0000
0000
0000
0000
0000
,
0001
1000
0000
1000
0000
1000
0000
0000
0000
0000
0010
0000
0001
0000
0010
0000
,
1000
0102
2003
3100
,
0011
0000
0M00
0010
2000
0000
0000
3001
0000
1000
0000
0100
0010
0000
0001
0000
,
0100
0000
00M0
0100
2000
0000
0000
3001
0000
0010
0M00
0010
1000
0000
0001
0000
,
1000
0000
0010
1000
0000
0010
0000
0100
0000
1000
0000
0000
0100
0000
0010
0000
,
1000
0000
0001
0000
2000
0100
0000
3002
0010
0000
1003
0010
0000
0000
1000
0000
,
0001
0000
1000
0010
0000
0001
0M00
0001
0000
0100
0000
0010
1000
0000
0001
0000
,
1000
0000
0100
0010
0000
0100
00M0
0100
0000
0001
0000
0100
0010
0000
1000
0000
,
0010
0000
0001
0010
0000
0100
0000
0001
0000
1000
0000
0000
0100
0000
0010
0000
,
0001
1000
0010
0100
0001
1000
0100
0010
0001
1000
0010
0000
1000
0001
0100
0000
,
0101
0000
00M0
0100
2000
0000
0000
3001
0000
1000
0000
0010
0100
0000
0001
0000
,
0010
0000
0M00
0010
2000
0000
0000
3001
0000
0100
00M0
0100
1000
0000
0001
0000
,
1000
0000
0100
1000
0000
0100
0000
0010
0000
1000
0000
0000
0010
0000
0100
0000
,
1000
0000
0001
0000
2000
0010
0000
3002
0100
0000
1003
0100
0000
0000
1000
0000
,
0001
0000
1000
0100
0000
0001
00M0
0001
0000
0010
0000
0100
1000
0000
0001
0000
,
1000
0000
0010
0100
0000
0010
0M00
0010
0000
0001
0000
0010
0100
0000
1000
0000
,
0100
0000
0001
0100
0000
0010
0000
0001
0000
1000
0000
0000
0010
0000
0100
0000
,
0002
0000
0000
0000
0000
0000
0000
0000
0000
0000
0000
0000
1003
0000
0000
0001
0000
0000
0100
0000
0000
0010
0000
0000
1000
0000
0000
0000
0100
0000
0000
0000
0010
0000
0000
0000
0001
0000
0000
0000
0100
0000
0000
0000
0010
0000
0000
0000
,
1000
0000
0002
0010
0000
1000
0000
0203
0000
0000
0000
0000
0301
0010
0M00
0010
,
2000
0000
0000
0000
3001
0100
0010
0100
0001
0000
0010
0100
0000
1000
0000
0100
,
0010
0001
0100
0010
1000
0001
0100
0010
0002
0000
0000
0000
0013
0000
1000
0000
,
1010
0000
1000
0002
0000
0010
0000
1003
0000
0002
0000
0100
0000
1003
0000
0001
,
0000
1000
0010
0100
0001
0010
0100
2000
0000
0000
3001
0020
0000
0000
0030
0000
,
1002
0000
0000
0000
0000
0000
0000
0000
0000
0000
0000
0000
0000
0000
0000
0000
0103
0000
0000
0000
0000
0010
0000
0000
0000
0000
0000
1000
0000
0000
0000
0000
0200
0000
0000
0000
0000
0000
0000
0000
0000
0000
0000
0000
0302
0000
0000
0000
0000
0000
0000
0000
0000
0000
0000
0000
2003
0000
0000
0000
0000
0000
0000
0000
,
3020
0000
0000
0000
0000
0000
0000
0000
0031
0000
0100
0000
0010
0000
1000
0000
0001
0000
0010
0000
0100
0000
1000
0000
0001
0000
0000
0100
0000
0000
1000
0000
,
0200
0000
0000
0000
0000
0000
0000
0000
0300
0000
0000
0000
0000
0000
0000
0000
0000
0000
0001
1000
0000
0000
0001
0000
0100
0000
0010
0000
0100
0000
0001
0000
,
1000
0000
0000
0100
0000
0000
0010
0000
0000
0001
0000
0000
1000
0000
0000
0000
1000
0000
0000
0000
0000
0001
0000
0000
0000
0000
0000
0101
0000
0000
00M0
0000
0000
0100
0000
0000
1000
0000
0000
0000
0000
0000
0001
0000
0000
0000
0000
0000
,
2002
0000
0000
3003
0000
0000
1000
0000
1000
0000
1000
0000
0100
0000
0010
0001
0000
1000
0001
0000
0100
0010
0000
0100
,
0001
0000
2000
0010
0000
0001
0000
3100
00M0
0100
0000
0001
1000
0000
0001
0000
,
0100
0010
0100
0000
0000
0001
0000
0000
0010
0000
0000
0100
0000
0000
1000
0000
,
0001
0100
0010
1000
0001
0000
0000
0000
0020
0000
0000
0000
0000
0000
0000
0000
0030
0000
0000
0000
0000
0000
0000
0000
0000
0000
0000
0000
0000
0000
0000
0000
;

//---------------dance-single - ----------------
#NOTES:
     dance-single:
     :
     Medium:
     12:
     0.419312,0.413680,0.067909,0.279182,0.403682,389.000000,380.000000,9.000000,37.000000,0.000000,0.000000,0.419312,0.413680,0.067909,0.279182,0.403682,389.000000,380.000000,9.000000,37.000000,0.000000,0.000000:
0000
0000
0000
0000
,
0000
0000
0000
0000
,
0000
0000
0000
0000
,
0000
0000
0000
0000
,
0001
0000
0000
0010
0000
0010
0000
0000
0000
0000
0100
0000
1000
0000
0010
0000
,
0100
0102
0010
1003
,
2001
0000
3100
0000
1000
0010
0100
0001
,
0020
0000
0130
0000
0010
0100
1000
0001
,
0100
0010
0100
0010
1000
0100
1000
0100
,
0020
0000
0130
0000
1000
0010
0100
0001
,
0010
0000
0000
0100
0000
1000
0000
0020
0000
0000
0100
0000
1030
0000
0000
0000
,
0100
0000
0000
0010
0000
0001
0000
0200
0000
0000
0010
0000
0301
0000
0000
0000
,
1000
0000
0000
0100
0000
0010
0000
0001
0000
0010
0000
0000
0100
0000
1000
0000
,
0001
0000
0001
0000
0000
0100
0000
0000
1000
0000
0000
0100
0000
0000
0010
0000
,
2000
0000
0000
0100
0000
0001
0000
3010
0000
0000
1000
0000
0100
0000
0010
0000
,
0002
0000
0000
0100
0000
1000
0000
0013
0000
0000
0001
0000
0100
0000
0010
0000
,
2000
0000
0000
0100
0000
0010
0000
3001
0000
0000
1000
0000
0100
0000
0010
0000
,
0002
0000
0000
0100
0000
0010
0000
1003
0000
0000
0100
0000
0001
0000
0100
0000
,
1000
0000
0000
0010
0000
0100
0000
0001
0000
0000
0100
0000
0010
0000
0000
0000
,
1000
0000
0000
0100
0000
0010
0000
0001
0000
0000
0010
0000
0100
0000
0000
0000
,
1000
0000
0000
0010
0000
0100
0000
1000
0000
0100
0000
0000
0010
0000
1000
0000
,
0001
0000
0000
0010
0000
0100
0000
0001
0000
0100
0000
0000
0010
0000
0001
0000
,
1000
0000
0000
0010
0000
0001
0000
0010
0000
0000
1000
0000
0001
0000
0000
0000
,
1000
0000
0000
0100
0000
0001
0000
0100
0000
0000
1000
0000
0001
0000
0000
0000
,
0100
0000
0000
0010
0000
0000
1000
0000
0100
0000
0000
0010
0000
0000
0001
0000
,
2000
0000
0010
0000
3002
0000
0013
0001
,
0100
0000
0000
0010
0000
0000
0100
0000
0110
0000
0000
0000
0010
0000
1000
0000
,
0001
0000
0010
0001
1000
0010
0100
0000
,
0001
0000
0000
0000
0000
0000
0000
0000
0001
0000
0000
0000
1000
0000
0000
0000
0000
0000
0000
0000
1000
0000
0000
0000
0001
0000
0000
0000
0000
0000
0000
0000
0000
0010
0000
0000
0000
0000
0000
0000
0000
0000
0100
0000
0000
0000
0000
0000
,
1000
0010
0001
0000
0010
0100
0001
0010
,
0100
0000
0000
0010
0000
0000
0100
0000
0110
0000
0000
0000
0010
0000
0001
0000
,
1000
0000
0010
1000
0001
0010
0100
0000
,
1000
0000
0000
0000
0000
0000
0000
0000
1000
0000
0000
0000
0001
0000
0000
0000
0000
0000
0000
0000
0001
0000
0000
0000
1000
0000
0000
0000
0000
0000
0000
0000
0000
0010
0000
0000
0000
0000
0000
0000
0000
0000
0100
0000
0000
0000
0000
0000
,
0001
0000
0000
0000
0000
0000
0000
0000
0010
0000
0000
0000
0100
0000
0000
0000
0000
0000
0000
0000
0010
0000
0000
0000
0001
0000
0000
0000
0000
0000
0000
0000
0000
0001
0000
0000
0100
0000
0000
0000
0000
0000
0010
0000
0000
0000
0000
0000
,
1000
0000
0000
0100
0000
0100
0000
0000
0000
0000
0010
0000
0001
0000
0100
0000
,
0010
2010
0100
3001
,
1002
0000
0013
0000
0001
0100
0010
1000
,
0200
0000
0310
0000
0100
0010
0001
1000
,
0010
0100
0010
0100
0001
0010
0001
0010
,
0200
0000
0310
0000
0001
0100
0010
1000
,
0100
0000
0000
0010
0000
0001
0000
0200
0000
0000
0010
0000
0301
0000
0000
0000
,
0010
0000
0000
0100
0000
1000
0000
0020
0000
0000
0100
0000
1030
0000
0000
0000
,
0001
0000
0000
0010
0000
0100
0000
1000
0000
0100
0000
0000
0010
0000
0001
0000
,
1000
1000
0010
0010
0100
0100
0001
0001
,
2001
0000
3010
0000
1000
0100
0010
0001
,
0200
0000
0310
0000
0100
0010
1000
0001
,
0010
0100
0010
0100
1000
0010
1000
0010
,
0200
0000
0310
0000
1000
0100
0010
0001
,
0100
0000
0000
0010
0000
1000
0000
0200
0000
0000
0010
0000
1300
0000
0000
0000
,
0010
0000
0000
0100
0000
0001
0000
0020
0000
0000
0100
0000
0031
0000
0000
0000
,
1000
0000
0000
0010
0000
0100
0000
0001
0000
0100
0000
0000
0010
0000
1000
0000
,
0002
0000
0000
0010
0000
0000
1003
0000
1000
0100
0000
0100
,
0010
0000
0000
0100
0000
1000
0000
0002
0000
0000
0000
0000
0010
0000
0000
0000
,
2003
0010
3200
0001
,
0310
0001
0100
0010
2000
0000
3001
1000
,
0100
0000
0000
0010
0000
0001
0000
0100
0000
0010
0000
1000
0000
0100
0000
0010
,
0000
0000
0100
0000
1000
0000
0000
0001
0000
0000
0001
0010
0000
0000
0000
0000
,
1002
0000
0000
0000
0103
0000
0010
0000
0001
0000
0000
0010
0000
0000
0100
0000
,
0002
0000
0000
0000
0013
0000
0100
0000
1000
0000
0010
0000
0100
0000
0000
1000
,
0200
0010
0302
0010
,
2003
0000
0000
0000
0010
0000
0000
0000
3001
0010
0000
0100
1000
0000
0001
0000
,
0200
0010
0302
0010
,
1003
0000
0000
0100
0000
0010
0000
0001
0000
0100
0000
0010
1000
0000
0001
0000
,
0010
0100
0010
0000
0000
0001
0000
0000
0100
0000
0000
0010
0000
0000
1000
0000
,
0100
0010
2002
0000
3003
0000
0000
0000
;

//---------------dance-single - ----------------
#NOTES:
     dance-single:
     :
     Easy:
     5:
     0.237143,0.243341,0.045273,0.203727,0.000000,220.000000,214.000000,6.000000,27.000000,0.000000,0.000000,0.237143,0.243341,0.045273,0.203727,0.000000,220.000000,214.000000,6.000000,27.000000,0.000000,0.000000:
0000
0000
0000
0000
,
0000
0000
0000
0000
,
0000
0000
0000
0000
,
0000
0000
0000
0000
,
0010
0010
0000
0100
,
0100
1000
0010
0100
,
0002
0100
1003
0001
,
2000
0100
3001
1000
,
0001
0010
0100
1000
,
0001
0100
0010
1000
,
0002
0010
0103
0001
,
2000
0010
3100
1000
,
0001
0100
1000
0010
,
0001
0001
1000
1000
,
2002
3003
0010
0000
,
0100
0000
0001
0010
,
0220
0330
0100
0000
,
1000
0000
0001
0100
,
0010
1000
0100
0000
,
0010
0001
0100
0000
,
0010
1000
0001
0100
,
0001
0010
0100
0000
,
1000
0010
0001
0000
,
1000
0100
0001
0000
,
0010
0010
0100
0100
,
1000
0001
1000
0001
,
0100
0100
1001
0000
,
0002
0003
0020
0030
,
0100
1000
0010
0100
,
0001
0001
1000
1000
,
0100
0100
1001
0000
,
0002
0003
0010
0100
,
1000
0010
0001
0010
,
0100
0001
1000
0001
,
0010
0010
0000
0100
,
0100
1000
0010
0100
,
0002
0010
1003
0001
,
2000
0010
3001
1000
,
0001
0100
1000
0100
,
0010
1000
0001
0100
,
0002
0010
0103
0001
,
2000
0010
3100
1000
,
0001
0100
1000
0100
,
0010
0010
0100
0100
,
0002
0100
1003
0001
,
2000
0100
3001
1000
,
0001
0010
1000
0010
,
0100
1000
0001
0010
,
0002
0100
0013
0001
,
2000
0100
3010
1000
,
0001
0010
1000
0010
,
0002
0003
1000
1000
,
0010
0100
0001
0000
,
0020
0030
0100
1000
,
0001
0010
2000
3000
,
0010
0010
0100
0100
,
1000
0010
0100
0001
,
0010
0010
0100
0100
,
1000
0100
0001
0100
,
2002
3003
0010
0000
,
0100
0000
0001
0010
,
2000
3000
0010
0000
,
0100
0000
1000
0010
,
0100
0100
0000
0000
0001
0000
0010
0000
,
0100
2002
3003
0000
;

//---------------dance-single - ----------------
#NOTES:
     dance-single:
     :
     Beginner:
     2:
     0.150909,0.194673,0.015091,0.015091,0.000000,140.000000,138.000000,2.000000,2.000000,0.000000,0.000000,0.150909,0.194673,0.015091,0.015091,0.000000,140.000000,138.000000,2.000000,2.000000,0.000000,0.000000:
0000
0000
0000
0000
,
0000
0000
0000
0000
,
0000
0000
0000
0000
,
0000
0000
0000
0000
,
0010
0010
0000
0100
,
0100
0000
0001
0001
,
0001
0001
0000
0000
,
0010
0010
0000
0000
,
0100
0000
1000
0000
,
0001
0000
0100
0000
,
0010
0010
0010
0000
,
0100
0100
0100
0000
,
0001
0000
1000
0000
,
0100
0000
0010
0010
,
0010
0000
0000
0000
,
0100
0000
1000
1000
,
1000
0000
0000
0000
,
0001
0000
0100
0100
,
0100
0000
0010
0000
,
1000
0000
0001
0000
,
0010
0000
0100
0000
,
1000
1000
1000
0000
,
0001
0000
1000
0000
,
0010
0000
0100
0000
,
0001
0000
0010
0000
,
0100
0100
0100
0000
,
0010
0010
0010
0010
,
0010
0000
0100
0000
,
1000
0000
0001
0000
,
0100
0000
0010
0000
,
1000
1000
1000
1000
,
1000
0000
0001
0000
,
0010
0000
0100
0000
,
1000
1000
1000
0000
,
0001
0001
0000
0100
,
0100
0000
0010
0010
,
0010
0010
0000
0000
,
0100
0100
0000
0000
,
0001
0000
1000
0000
,
0100
0100
0000
0000
,
0010
0010
0010
0000
,
0001
0001
0001
0000
,
1000
0000
0010
0000
,
0100
0000
0001
0000
,
1000
1000
0000
0000
,
0100
0100
0000
0000
,
0010
0000
0001
0000
,
1000
0000
0010
0000
,
0100
0100
0100
0000
,
0010
0010
0010
0000
,
1000
0000
0001
0001
,
0001
0000
0010
0000
,
0100
0100
0100
0000
,
1000
0000
0001
0000
,
0010
0010
0010
0000
,
0001
0000
0100
0000
,
0010
0000
1000
1000
,
1000
0000
0001
0000
,
0010
0000
0100
0100
,
0100
0000
0000
0000
,
0000
0000
0000
0000
,
1001
0000
0000
0000
,
0000
0000
0000
0000
,
0010
0000
0100
0000
,
0000
2002
3003
0000
;
